#TITLE:Temporal Veil;
#SUBTITLE:;
#ARTIST:Gardens;
#TITLETRANSLIT:;
#SUBTITLETRANSLIT:;
#ARTISTTRANSLIT:;
#GENRE:;
#CREDIT:;
#BANNER:Temporal Veil_banner.png;
#BACKGROUND:Temporal Veil_bg.png;
#LYRICSPATH:;
#CDTITLE:;
#MUSIC:Temporal Veil.ogg;
#OFFSET:-0.547000;
#SAMPLESTART:97.879997;
#SAMPLELENGTH:10.650000;
#LASTBEATHINT:420.500000;
#SELECTABLE:YES;
#DISPLAYBPM:90.000000:180.000000;
#BPMS:0.000000=180.000000
,232.000000=90.000000
,234.000000=180.000000
,238.000000=90.000000
,240.000000=180.000000
,244.000000=90.000000
,246.000000=180.000000
,250.000000=90.000000
,252.000000=180.000000
,380.000000=90.000000
,388.000000=180.000000
;
#STOPS:
;
#BGCHANGES:;
#KEYSOUNDS:;
#ATTACKS:;

//---------------dance-single - ----------------
#NOTES:
     dance-single:
     :
     Easy:
     7:
     0.262890,0.384683,0.135811,0.210506,0.000000,271.000000,251.000000,20.000000,31.000000,0.000000,0.000000,0.262890,0.384683,0.135811,0.210506,0.000000,271.000000,251.000000,20.000000,31.000000,0.000000,0.000000:
0000
0000
0000
0000
,
0000
0000
0000
0000
,
0000
0000
0000
0000
,
0000
0000
0000
0000
,
0000
0000
0000
0000
,
0001
0010
0100
1000
,
0010
0100
0010
0000
,
1000
0100
0010
0001
,
0100
0010
0220
0330
,
2000
0000
0000
0000
,
3000
0000
0000
0000
,
0002
0000
0000
0000
,
0003
0000
0000
0000
,
0100
0000
0010
0000
,
0100
0000
0000
0000
,
0001
0000
1000
0000
,
0001
0000
0000
0000
,
1100
0000
0000
0000
,
0001
0000
0000
0000
,
0100
0000
0010
0000
,
0100
0000
0002
0000
,
1003
0100
0010
0001
,
0100
0010
1000
0000
,
0001
0010
0100
1000
,
2002
0000
3003
0000
,
0100
0001
0010
0100
,
0010
0001
1000
0000
,
0010
0100
0001
0100
,
0010
1000
0100
0000
,
1000
0100
0010
0100
,
1000
0001
0100
0000
,
0010
1000
0001
1000
,
0100
0010
0001
0000
,
0210
0000
0301
0000
,
0010
0100
1000
0000
,
1002
0000
0103
0000
,
0010
1000
0100
0000
,
2010
0000
3001
0000
,
0100
0001
0010
0000
,
1002
0000
0013
0000
,
0100
1000
0010
0000
,
0220
0000
0030
0000
,
0002
0000
0300
0000
,
2000
0000
0003
0000
,
0020
0000
3030
0000
,
0010
0000
0100
0000
,
0001
0010
0001
0000
,
1000
0000
0100
0000
,
1000
0010
1000
0000
,
0001
0100
0010
0100
,
0001
0010
0100
0000
,
1000
0010
0100
0010
,
1000
0100
0010
0000
,
0001
0001
0010
0010
,
0100
1000
0100
0000
,
1000
1000
0010
0010
,
0220
0000
0330
0000
,
2000
0000
3100
0000
,
0010
0001
0010
0000
0002
0000
0000
0000
,
0103
0000
0000
0000
0010
1000
0010
0000
,
1000
0000
1001
0000
,
0001
0010
0100
1000
0020
0000
0000
0000
,
0130
0000
1001
0000
,
1000
0000
0100
0000
,
0010
0000
0001
0000
,
0100
0010
1000
0001
,
0020
0000
0000
0030
,
0110
0000
0000
0000
,
0000
0000
0000
0000
,
2000
0000
0000
0000
,
0002
0000
3003
0000
,
0010
0100
0001
1000
,
0010
1000
0100
0000
,
1000
0010
0100
0001
,
1000
0100
0010
0000
,
0001
0100
0010
1000
,
0100
0010
0001
0000
,
0100
0001
0010
0100
,
2000
0000
3002
0000
,
0103
0010
0100
0001
,
0100
0010
0100
0000
,
0010
1000
0010
0100
,
0010
1000
0010
0000
,
1000
0100
0010
0001
,
0010
0100
1000
0000
,
0001
0100
0010
1000
,
0200
0000
0310
0000
,
0011
0000
0001
1000
,
0100
0010
0001
0000
,
1010
0000
0100
0001
,
0010
0100
1000
0000
,
1010
0100
0010
0000
,
0101
0010
0100
0000
,
1001
0000
0110
0000
,
0001
0010
0100
1000
,
2002
0000
0000
3003
0000
0000
0000
0000
,
0100
0000
0010
0000
,
1000
0000
0000
1000
0000
0000
1000
0000
,
0001
0000
0000
0001
0000
0000
0001
0000
,
0100
0000
0100
0000
,
0010
0000
0100
0000
,
2002
0000
0000
0000
,
0000
0000
0000
0000
,
3003
0000
0000
0000
;

//---------------dance-single - ----------------
#NOTES:
     dance-single:
     :
     Medium:
     12:
     0.442354,0.533481,0.387060,0.855606,0.023767,456.000000,399.000000,57.000000,126.000000,0.000000,0.000000,0.442354,0.533481,0.387060,0.855606,0.023767,456.000000,399.000000,57.000000,126.000000,0.000000,0.000000:
0000
0000
0000
0000
,
0000
0000
0000
0000
,
0000
0000
0000
0000
,
0000
0000
0000
0000
,
0000
0000
0000
0000
,
0001
0001
0010
0010
,
0100
0000
0100
0000
1000
0000
1000
0010
,
1000
1000
0010
0010
,
0100
0100
2002
3003
,
0020
0000
0000
0100
0000
0000
0000
0000
,
2030
0000
3200
0000
,
0320
0000
0000
0001
0000
0000
0000
0000
,
0230
0000
2300
0000
,
3001
0000
0000
1000
0010
0000
0100
0000
,
0002
0000
0013
0100
,
2000
0000
0000
3010
0100
0000
0001
0000
,
2002
3003
0220
0330
,
2002
0000
0000
0000
,
0000
0000
0000
3003
,
0100
0000
0000
0010
0000
0000
0100
0000
0000
0000
0000
0000
0001
0000
0000
0000
,
0001
0000
0000
0010
0000
0000
0001
0000
0000
0000
0000
0000
1000
0000
0000
0000
,
2000
3020
0230
0302
,
0023
0230
2300
3001
,
0001
0010
0100
1000
0100
0010
0001
1000
,
0020
0000
0200
0330
,
0011
0000
0001
1000
0100
0000
1000
0000
,
1010
0000
0001
0100
0010
0000
0110
0000
,
2000
0000
3001
0100
0010
0000
0010
0000
,
0200
0000
0301
0010
0100
0000
1100
0000
,
2000
0000
3001
0010
0001
0000
2000
0000
,
3002
0000
1003
0010
1000
0000
0002
0000
,
0203
0000
0310
1000
0010
0100
0002
0000
,
0003
0100
0100
0000
0010
0000
0110
0000
,
1000
0100
2200
0300
,
3001
0100
0202
0300
,
0013
0001
2002
0003
,
3010
0000
0000
0100
0000
0000
0010
0000
2000
0000
0000
0000
0001
0000
0000
0000
,
3001
0000
0100
0010
0100
0000
0001
0000
,
0020
0000
0130
1000
0200
0000
0310
0000
,
0002
0000
0103
0010
0200
0000
0301
0000
,
1000
0010
0100
0001
0020
0000
0030
0000
,
2002
0000
0000
3003
,
2020
0000
0000
3030
,
0022
0000
0000
0033
,
2200
0300
0001
3000
,
0101
0000
0000
0010
0100
0000
0000
0001
,
0010
0100
0010
0000
0011
0000
0000
0000
,
1010
0000
0000
0100
0010
0000
0000
0010
,
1000
0100
1000
0000
2002
0000
3003
0000
,
0010
0000
0011
0000
0001
0000
0001
1000
,
0100
1100
2002
3003
,
0010
0100
0010
0000
0110
0000
1000
0100
,
1000
0001
0010
0000
0202
0000
0303
0000
,
0010
0000
0110
0000
1000
0000
0100
1000
,
0001
0000
0101
0000
0010
0100
0001
0100
,
0010
0000
1010
0000
1100
0000
0001
0100
,
0002
0000
2003
0000
,
3010
0000
0100
0010
1000
0010
0100
0000
,
0002
0023
0230
2300
3020
0000
1030
0100
,
0010
0100
1000
0000
0002
2003
3200
0320
,
0031
0000
0100
0001
1000
0001
0100
0000
,
0020
0032
0203
2300
3010
0000
0100
0001
,
0010
0001
0100
0000
0220
0000
0000
0330
,
0001
0011
0001
0011
,
1000
1010
2002
3003
,
0100
0000
0110
0000
0010
0100
0010
0000
,
1000
1001
0202
0303
,
0220
0000
0000
0330
,
2002
0003
3010
0100
,
0022
0000
0000
0033
,
2200
3300
0202
0303
,
0020
0000
1000
0000
0100
0000
1030
0100
,
0020
0001
0230
1000
,
2300
0010
0001
0100
,
3002
0010
1000
0100
,
0023
0000
0100
0000
0032
0000
1003
0010
,
0200
0000
0001
0000
0320
0000
1030
0100
,
0020
1000
0001
1000
,
0032
0103
2200
3300
,
0100
0010
1000
0001
0010
0100
1000
0000
,
0010
1000
0100
1000
0001
0010
0100
0000
,
0010
0001
0100
0010
1000
0010
0100
0000
,
0001
1000
0100
0010
0002
0000
0000
0000
,
0103
0010
0200
0000
0301
0010
0100
1000
,
0010
1000
0200
0000
0310
0001
0100
0010
,
1000
0010
0200
0000
0301
0010
0100
1000
,
0020
0000
0200
0330
,
1010
0000
0100
0001
0010
0000
0011
0000
,
0001
1000
0100
0000
2020
0000
3030
0000
,
0101
0000
0010
1000
0100
0000
1100
0000
,
1000
0001
0010
0000
0202
0000
0303
0000
,
0010
0000
0110
0000
1000
0010
0100
0000
,
0001
0000
0011
0000
1000
0001
0010
0000
,
0001
0100
1000
0000
1000
0100
0001
0000
,
0000
1000
0001
1000
0100
0010
0001
0000
,
2002
0003
3020
0130
,
0220
0030
0302
0013
,
1000
0000
0000
0100
0000
0000
1000
0000
0000
0001
0000
0000
0200
0000
0000
0000
,
0310
0000
0000
1000
0000
0000
0001
0000
0000
0010
0000
0000
0002
0000
0000
0000
,
0103
0000
0000
0110
0000
0000
1001
0000
,
2200
0300
0002
3003
,
0202
0000
0000
0000
,
0000
0000
0000
0000
,
0000
0000
0000
0000
,
0000
0000
0000
0303
;

//---------------dance-single - ----------------
#NOTES:
     dance-single:
     :
     Hard:
     16:
     0.763449,0.960265,0.631519,0.957464,0.441384,787.000000,694.000000,93.000000,141.000000,0.000000,0.000000,0.763449,0.960265,0.631519,0.957464,0.441384,787.000000,694.000000,93.000000,141.000000,0.000000,0.000000:
0000
0000
0000
0000
,
0000
0000
0000
0000
,
0000
0000
0000
0000
,
0000
0000
0000
0000
,
0000
0000
0000
0000
,
1000
0010
0100
0010
1000
0100
0001
0100
,
1000
0010
0100
0001
0010
1000
0010
0010
,
0001
0000
0100
0000
0010
0000
1000
0000
0010
0000
0100
0001
0100
0000
0010
0000
,
1000
0100
0001
0100
2000
0000
3100
0000
,
0120
0000
0000
0000
0000
0000
1000
0000
0000
0000
0000
0000
0000
0000
0031
0010
,
0002
1000
0000
0010
0010
0000
0103
0000
,
0021
0000
0000
0200
0030
0000
1300
0000
,
1000
0000
0010
0000
0100
0000
0001
0000
0010
0000
0100
1000
0001
0000
0100
0000
,
0110
0000
0000
0000
1000
0000
0010
0100
0001
0000
0010
0000
0000
0000
0010
0001
,
1000
0000
0100
0000
0000
0000
0100
1000
0010
0000
0100
0000
0001
0000
0000
0000
,
1001
0000
0000
0000
0010
0000
0100
0010
1000
0000
0100
0000
0000
0000
0100
0010
,
0001
0000
1000
0000
0010
0100
0010
0100
0010
0000
1000
0000
1001
0000
0000
0000
,
0012
0000
0000
1000
0000
0000
2000
0000
0000
0000
0000
0000
3003
0000
0100
0010
,
0100
0000
0000
1000
0000
0000
0010
0000
0100
0000
0001
0010
0001
0000
0000
0000
,
2100
0000
0000
0010
0000
0000
3010
0000
0100
0010
0000
0010
0100
0000
0001
0000
,
0020
0000
0000
0100
0000
0000
0130
0000
1000
0001
0000
0001
2000
0000
0000
0000
,
3010
0000
0100
0000
0001
0010
0100
0000
1000
0000
0010
0000
0100
0010
1000
0000
,
0001
0000
1000
0000
0100
0010
0001
0000
0100
0000
0010
0000
1000
0001
0100
0000
,
0010
0100
0010
0100
0010
0100
0010
0100
0001
1000
0001
1000
0001
1000
0001
1000
,
0200
0000
0020
0330
,
0011
0000
0001
1000
0100
1000
0001
0000
,
0100
0010
0000
0010
0100
0000
0001
0010
0100
0000
0000
0000
1100
0000
0000
0000
,
1010
0000
0100
0001
0010
0001
0100
0000
,
0010
1000
0000
1000
0100
0000
0010
0001
2000
0000
3000
0000
2002
0000
3003
0000
,
0002
0000
0000
0000
0103
0000
1000
0000
0100
0001
0010
0000
0100
0000
1000
0000
,
0010
0100
0001
0000
0010
0100
0000
0100
1000
0000
0001
0000
0101
0000
0000
0000
,
0120
0000
0000
0000
1030
0000
0100
0000
0001
0000
0100
1000
0001
0000
0100
0000
,
0010
0000
1000
0001
1000
0001
1000
0000
0010
0000
0000
0000
0210
0000
0300
0000
,
0021
0000
0000
0000
0100
0000
0130
0020
0100
0000
0000
0000
0031
0000
0100
0000
,
0010
0000
1000
0100
0000
0100
1000
0000
0002
0000
0003
0000
2002
0000
3003
0000
,
1020
0000
0000
0000
0100
0000
0130
0020
0100
0000
0000
0000
1030
0000
0001
0000
,
0100
0000
0010
0000
1000
0100
0000
0010
0001
0000
0001
0000
0001
0000
0001
0000
,
0200
0000
0000
0000
0010
0000
0310
1000
0002
0000
0000
0000
0100
0000
0000
0000
,
0013
0000
0100
0000
1000
0001
0000
0001
0100
0000
0010
0100
0001
0000
0000
0000
,
1020
0000
0000
0000
0100
0000
0130
0020
0100
0000
0000
0000
1030
0000
0001
0000
,
1000
0000
0100
0000
0010
0001
0100
0010
2000
0000
0000
0000
3001
0000
0000
0000
,
0202
0000
0000
0303
,
0022
0000
0000
0033
,
2020
3000
0002
0003
,
0200
0030
2000
3300
,
1001
0000
0000
0000
0000
0000
0100
0010
1000
0000
0100
0000
0000
0000
0100
0000
,
0010
0000
0001
0000
0000
0000
0001
1000
0010
0000
0100
0000
0000
0000
0100
0000
,
0001
0000
0010
0000
0100
0000
1000
0010
0100
0000
0001
0000
0010
0000
0001
0000
,
0100
0000
0010
1000
0100
1000
0010
0000
0100
0000
0001
0000
0010
0000
1000
0000
,
0010
0001
1001
0000
1000
0010
1001
0001
,
0001
0000
0100
0000
0110
0000
0000
0000
1010
0000
1000
0100
1000
0000
0001
0000
,
0100
0000
0100
0000
0110
0000
0000
0000
0011
0000
0000
0000
1001
0000
0001
0010
,
0001
0000
1000
0000
0100
1000
0010
0100
0001
0000
0010
0000
0220
0000
0330
0000
,
1100
0000
1000
0000
1100
0000
0000
0000
0101
0000
0001
0000
0011
0000
0001
1000
,
0001
0000
0100
0000
0110
0000
0000
0000
0101
0000
0100
0010
0100
0000
0001
0000
,
0010
0000
0010
0000
0110
0000
0100
0000
1100
0000
0000
0000
1010
0000
0010
0100
,
0002
0000
0023
0000
0230
0000
2300
0000
3010
0100
0010
0100
0010
0000
0000
0000
,
1020
0000
0001
0001
0001
0000
0130
0001
,
0020
0032
0203
0320
2030
3200
0302
0203
1300
0000
0100
0000
0200
0000
0000
0000
,
0320
0000
0000
0000
0031
0000
0001
0100
0020
2030
3002
0203
2300
3200
0320
2030
,
3020
0000
0001
0001
0001
0000
1030
0001
,
0020
2030
3020
0032
0203
2300
3200
0302
0023
0000
0000
0000
0100
0000
0100
0000
,
0100
0000
0031
1000
0220
0000
0000
0330
,
0011
0011
1001
1001
,
1010
0000
1010
0000
1001
0000
0220
0330
,
0101
0001
0101
0000
1100
0000
1010
0010
,
0110
0100
0101
0000
0011
0000
1100
0000
,
1001
0000
0020
0200
0030
0002
0300
2000
,
0003
0000
3200
0000
0000
0000
0302
0000
0200
0003
0300
0000
1010
0000
0000
0000
,
0200
0000
0000
0000
0301
0000
0010
0001
1000
0010
0100
0001
0010
0000
0100
0000
,
2000
0000
0002
3003
,
0200
0000
0310
0000
0200
0000
0301
0000
0200
0000
1300
0000
0200
0000
0310
1000
,
0200
0310
0200
1300
0200
0301
0100
0100
,
0200
1300
0200
0310
0200
0301
0200
1300
,
0020
1030
0200
0310
0002
1003
1001
0000
,
0020
0000
0031
0000
0020
0000
0130
0000
0020
0000
1030
0000
0020
0000
0031
1000
,
0020
0130
0020
0031
0020
0130
0010
0010
,
0020
0000
1030
0000
0020
0000
0031
0000
0020
0000
1030
0000
0200
0000
0310
0001
,
1000
0100
0001
1000
0010
0001
0110
1000
,
0002
0000
0013
0000
0001
0000
1000
0100
0010
0100
1000
0000
0002
0000
0103
0000
,
0020
0000
0000
0000
1030
0000
0000
0000
0100
0000
0000
0000
0010
0000
0001
0000
0100
0000
0001
0000
0010
0000
0000
0000
0100
0000
0000
0000
0200
0300
0000
0000
,
0100
0000
0010
0000
1000
0000
0001
0010
0100
0010
0001
0000
1000
0000
0010
0000
,
0100
0000
0000
0000
0001
0000
0000
0000
1000
0000
0000
0000
0010
0000
1000
0000
0100
0000
1000
0000
0010
0000
0000
0000
0100
0000
0000
0000
0200
0300
0000
0000
,
0100
0000
0000
0000
0001
0000
0010
0000
0100
0000
0000
0000
0010
0000
0001
0000
1000
0000
0000
0000
0010
0000
0000
0000
0100
0000
0000
0000
0200
0300
0000
0000
,
0100
0000
0000
0000
0001
0000
1000
0000
0010
0000
0000
0000
1000
0000
0001
0000
0010
0000
0000
0000
0001
0000
0000
0000
0010
0000
0000
0000
0020
0030
0000
0000
,
0010
0000
0001
0100
0010
0000
1000
0100
0010
0000
0100
0000
1000
0000
0001
0000
,
0202
0000
0000
0000
0000
0303
0000
0000
2020
0000
0000
0000
0000
3030
0000
0000
,
0110
0000
0000
0000
0001
0000
0010
1000
0010
0000
0001
0000
1001
0000
0000
0000
,
1000
0010
0000
0010
0100
0010
1000
0000
2200
0000
3300
0000
0202
0000
0303
0000
,
0110
0000
0000
0000
1000
0000
0100
0001
0100
0000
1000
0000
1001
0000
0000
0000
,
0001
0100
0000
0100
0010
0100
0001
0000
0022
0000
0033
0000
2020
0000
3030
0000
,
1001
0000
0000
0000
0010
0000
1000
0100
0010
0000
0001
0000
1001
0000
0000
0000
,
0100
0010
0000
0010
0100
0000
0001
0010
0100
0000
1000
0000
1001
0000
0000
0000
,
1010
0000
0000
0000
0001
0000
0100
0010
0100
0000
0001
0000
0010
0100
1000
0000
,
0010
0000
1000
0001
0010
0001
1000
0000
0010
0000
0100
0000
1001
0000
0000
0000
,
0021
0000
0000
0100
0000
0000
0001
0000
0000
0130
0000
0000
0010
0000
0100
0000
,
1200
0000
0000
0010
0000
0000
1000
0000
0000
0310
0000
0000
0001
0000
1000
0010
,
0110
0000
0000
1100
0000
0000
0011
0000
0000
1010
0000
0000
0101
0000
0001
0000
,
0011
0000
0000
1100
0000
0000
0101
0000
0000
1010
0000
0000
2200
0000
3300
0000
,
0101
0000
0000
1100
0000
0000
0011
0000
,
2002
0000
0000
3003
0200
0000
0000
0300
,
2020
0000
0000
0000
,
0000
0000
0000
0000
,
0000
0000
0000
0000
,
0000
0000
0000
3030
;

//---------------dance-double - ----------------
#NOTES:
     dance-double:
     :
     Easy:
     7:
     0.269681,0.348863,0.129020,0.237668,0.000000,278.000000,259.000000,19.000000,35.000000,0.000000,0.000000,0.269681,0.348863,0.129020,0.237668,0.000000,278.000000,259.000000,19.000000,35.000000,0.000000,0.000000:
00000000
00000000
00000000
00000000
,
00000000
00000000
00000000
00000000
,
00000000
00000000
00000000
00000000
,
00000000
00000000
00000000
00000000
,
00000000
00000000
00000000
00000000
,
00100000
00010000
01000000
00100000
,
10000000
00010000
00100000
00000000
,
00001000
00010000
00000010
00000100
,
00000002
00000000
00001003
00000000
,
00000220
00000000
00000000
00000330
,
00000000
00000000
00000000
00000000
,
00010000
00000000
00000000
00000000
,
00001000
00000000
00000000
00000000
,
00101000
00000000
00010000
00000000
,
00001000
00010000
00000010
00000000
,
00000100
00000000
00000001
00000000
,
00000010
00000000
00000001
00000000
,
00002002
00000000
00000000
00003003
,
00000000
00000000
00000000
00000000
,
00000010
00000000
00010000
00000000
,
00001000
00000000
00100000
00000000
,
00010000
10000000
01000000
10000000
,
00010000
00000000
00100000
00000000
,
00001000
00010000
00000010
00001000
,
00000200
00000000
00010300
00000000
,
00010000
00000010
00000100
00000010
,
00001000
00000001
00000010
00000000
,
00000001
00000100
00000010
00001000
,
00000010
00010000
00001000
00000000
,
00100000
00001000
01000000
00010000
,
00100000
01000000
10000000
00000000
,
00100000
01000000
00010000
00100000
,
00002000
00000000
00023000
00000000
,
00030010
00001000
00000200
00000000
,
00010300
00001000
02000000
00000000
,
03010000
00100000
02000000
00000000
,
13000000
00010000
00200000
00000000
,
00301000
00010000
00010100
00000000
,
00001000
00000010
00001010
00000000
,
00000100
00000001
00000011
00000000
,
00002000
00000000
00003010
00000000
,
00022000
00000000
00000000
00033000
,
00000100
00000000
00000000
00000000
,
00010000
00000000
00001000
00000000
,
00100000
00000000
00010000
00000000
,
20000000
00000000
30100000
00000000
,
01000000
00010000
01000000
00000000
,
00002000
00000000
00103000
00000000
,
00000200
00000000
00010300
00000000
,
00010000
00000010
00001000
00000100
,
00010000
00001000
00010000
00000000
,
00001000
00100000
00010000
01000000
,
00100000
10000000
00010000
00000000
,
00200000
00001000
00301000
00000000
,
00020000
00000010
00030010
00000000
,
00001000
00000100
00000010
00000001
,
00002000
00000000
00003010
00000000
,
00010200
00000000
00001300
00000000
,
00000001
00001000
00000001
00000000
00000100
00000000
00000000
00000000
,
00000010
00000000
00000000
00000000
00010000
00001000
00010000
00000000
,
00001000
00000000
01001000
00000000
,
00010000
00100000
01000000
00000000
10000000
00000000
00000000
00000000
,
10010000
00000000
02200000
03300000
,
01000000
00010000
00100000
00001000
,
00010000
00000010
00001000
00000000
,
00000001
00000100
00000010
00001000
,
00000100
00010000
00001000
00000000
,
00202000
00000000
00000000
00000000
,
00303000
00000000
00000000
00000000
,
00010000
00000000
00000000
00000000
,
00000010
00000000
00001000
00000000
,
00000100
00010000
00001000
00100000
,
00010000
10000000
00100000
00000000
,
01000000
00010000
00100000
00001000
,
00010000
00000010
00000100
00000000
,
00000001
00001000
00000100
00000010
,
00000001
00000100
00000010
00000000
,
00001000
00000100
00010000
00001000
,
00100000
00000000
00011000
00000000
,
00000010
00001000
00000100
00010000
,
00001000
01000000
01000000
00000000
,
00010000
00100000
01000000
10000000
,
00010000
01000000
01000000
00000000
,
00002000
00100000
00103000
00000000
,
00020000
00000010
00030010
00000000
,
00000100
00000000
00011000
00000000
,
00200000
00000000
00320000
00000000
,
10030000
00100000
10000000
01000000
,
00100000
00010000
01000000
00000000
,
00001000
00010000
00000100
00001000
,
00000010
00000100
00000001
00000000
,
00000010
00000100
00000110
00000000
,
00010000
00001000
00011000
00000000
,
00110000
00000000
11000000
00000000
,
10000000
00010000
00100000
00001000
,
00020000
00000000
00030000
00000000
,
00000010
00000000
00000000
00000000
,
00000100
00000000
00000000
00000100
00000000
00000000
00000100
00000000
,
00000001
00000000
00000000
00000001
00000000
00000000
00000001
00000000
,
00000010
00000000
00000000
00000100
00000000
00000000
00020000
00000000
,
00002000
00000000
00033000
00000000
,
00220000
00000000
00000000
00000000
,
00000000
00000000
00000000
00330000
;

//---------------dance-double - ----------------
#NOTES:
     dance-double:
     :
     Medium:
     12:
     0.442354,0.569046,0.291993,0.536452,0.020372,456.000000,413.000000,43.000000,79.000000,0.000000,0.000000,0.442354,0.569046,0.291993,0.536452,0.020372,456.000000,413.000000,43.000000,79.000000,0.000000,0.000000:
00000000
00000000
00000000
00000000
,
00000000
00000000
00000000
00000000
,
00000000
00000000
00000000
00000000
,
00000000
00000000
00000000
00000000
,
00000000
00000000
00000000
00000000
,
10000000
10000000
00100000
00100000
,
01000000
00000000
01000000
00000000
00010000
00000000
00010000
00100000
,
00001000
00001000
00010000
00010000
,
00000010
00000010
00000100
00000000
,
00002002
00000000
00000000
00000000
,
00003003
00000000
00000000
00000000
,
00000010
00000000
00000000
00000220
00000000
00000000
00000000
00000000
,
00000330
00000000
00001000
00000000
,
00010100
00000000
00000000
00001000
00010000
00000000
00000000
00001000
,
00100000
00010000
20020000
30030000
,
01000000
00000000
00000000
00100000
01000000
00000000
00010000
00000000
,
00200000
00000000
00301000
00000000
,
00022000
00000000
00000000
00000000
,
00000000
00000000
00033000
00000000
,
00000010
00000000
00000000
00000100
00000000
00000000
00000010
00000000
00000000
00000000
00001000
00000000
00000100
00000000
00000000
00000000
,
00010000
00000000
00000000
00001000
00000000
00000000
00010000
00000000
00000000
00000000
00001000
00000000
00200000
00000000
00000000
00000000
,
00310000
10000000
01000000
00000000
10000000
00010000
00100000
00000000
,
00001000
00010000
00000100
00000000
00001000
00000010
00000100
00000000
,
00000001
00000010
00000100
00001000
00000010
00010000
00000100
00001000
,
00000002
00000000
00001003
00000000
,
00001010
00000000
00000100
00010000
00001000
00010000
00000100
00000000
,
00010000
00000000
00001000
00100000
00010000
00100000
00001000
00000000
,
01000000
00000000
00100000
10000000
00010000
10000000
00100000
00000000
,
01000000
00010000
00100000
00001000
00010000
00000000
00011000
00000000
,
00000020
00000000
00001030
00000100
00001000
00000010
00000100
00000000
,
00000001
00000100
00000010
00000100
00000002
00000000
00001003
00000000
,
00001010
00000000
00000100
00010000
00001000
00010000
00000100
00000000
,
00000000
00100000
00010000
00100000
00001000
00000000
00011000
00000000
,
02000000
00000000
00000000
03100000
10000000
00000000
01000000
00000000
,
00100000
00000000
00001000
00010000
00001000
00000000
00010000
00000000
,
00000010
00000000
00001000
00000100
00001000
00000000
00000001
00000000
,
00000010
00000001
00001000
00000000
00002002
00000000
00003003
00000000
,
00000010
00001000
00000100
00000000
00010100
00000000
00000000
00000000
,
00001000
01000000
00010000
00000000
00110000
00000000
00000000
00000000
,
10100000
00000000
00110000
00000000
,
01000000
00001000
00010000
00001000
00100000
00000000
00001000
00000000
,
00022000
00000000
00000000
00000000
00000000
00033000
00000000
00000000
,
00020020
00000000
00000000
00000000
00000000
00030030
00000000
00000000
,
00002002
00003000
00000203
00000000
,
00000320
00000000
00020030
00000000
,
00031000
00000000
00100000
00010000
00100000
00000000
00010000
00000000
,
10000000
01000000
10000000
00000000
00010000
00000000
00000000
00000000
,
01000000
00000000
00010000
00100000
00001000
00000000
00010000
00000000
,
00000010
00001000
00000100
00000000
00020200
00000000
00030300
00000000
,
00001000
00000000
00001001
00000000
00000001
00000000
00000010
00000001
,
00000100
00000010
00002020
00003030
,
00000100
00010000
00000100
00000000
00010000
00000000
00001000
00100000
,
00010000
00100000
00001000
00000000
00220000
00000000
00330000
00000000
,
10000000
01000000
00100000
00000000
00202000
00000000
00303000
00000000
,
00010000
00000010
00000100
00000000
00002020
00000000
00003030
00000000
,
00000100
00000001
00000010
00000000
00000100
00001000
00000010
00010000
,
00002000
00000000
00103000
00000000
,
00110000
00000000
00010000
10000000
01000000
00000000
00100000
00000000
,
00002000
00023000
00030200
00002300
00003010
00000100
00000010
00000000
,
00001000
00000000
00000100
00000010
00000002
00002003
00003200
00020300
,
00031000
00100000
00010000
00000000
01000000
00000000
00100000
10000000
,
02000000
23000000
30020000
02030000
03001000
00010000
00001000
00000000
,
00010000
00000000
00000010
00000100
00000002
00000000
00000000
00000003
,
00000010
00000011
00000001
00001001
,
00001000
00001010
00002200
00003300
,
00010000
00011000
00001000
00101000
,
00100000
00110000
22000000
33000000
,
20020000
00000000
00000000
30030000
,
02000000
00000000
03001000
00010000
,
00000200
00000000
00000000
00000000
,
00002000
00000000
00003300
00000000
,
00000020
00000000
00010000
00000000
00001000
00000000
00010030
00000100
,
00002000
00000010
00003002
00000100
,
00000023
00000100
00000001
00000130
,
00002000
00000010
00000100
00003010
,
00020000
00000000
00001000
00000000
00000100
00000000
00031000
00010000
,
02000000
00000000
00100000
00000000
10000000
00000000
03100000
00010000
,
20000000
00000000
00100000
00000000
01000000
00000000
30100000
01000000
,
00010000
00100000
01000000
10000000
00020000
00000000
00000000
00000000
,
01030000
00100000
01000000
00000000
00010000
00100000
00001000
00010000
,
00001000
00000100
00000010
00000000
00001000
00000100
00000010
00000001
,
00000100
00000010
00000100
00000000
00000001
00001000
00000100
00010000
,
00001000
00100000
01000000
00000000
20020000
00000000
30030000
00000000
,
01000000
00010000
01000000
00000000
00001000
00010000
00000010
00010000
,
00001000
00000010
00000100
00000000
00001000
00000010
00000100
00000001
,
00000010
00000100
00001000
00000000
00000100
00010000
00001000
00100000
,
02000000
00000000
20000000
33000000
,
10010000
00000000
01000000
00100000
00010000
00000000
00100000
00000000
,
00001000
00010000
00000100
00000000
00002020
00000000
00003030
00000000
,
00000101
00000000
00000010
00000001
00001000
00000000
00000010
00000000
,
00001000
00000100
00010000
00001000
00100000
00000000
00100000
00000000
,
00001000
00010000
00000100
00000010
00000100
00000000
00001000
00000000
,
00000010
00010000
00001000
00000100
00000010
00000000
00001000
00000000
,
00000001
00000010
00000100
00000000
00000010
00000100
00010000
00001000
,
00100000
00010000
01000000
00100000
10000000
00000000
01010000
00000000
,
00200000
00000000
00000000
01300000
,
02002000
00000000
03000000
00013000
,
00010000
00000000
00000000
00000100
00000000
00000000
00010000
00000000
00000000
00001000
00000000
00000000
00100000
00000000
00100000
00000000
,
01000000
00000000
00000000
10000000
00000000
00000000
00010000
00000000
00000000
00100000
00000000
00000000
00001000
00000000
00000000
00000000
,
00010010
00000000
00000000
00011000
00000000
00000000
01001000
00000000
,
00020000
00000000
00030010
00000000
,
00002002
00000000
00000000
00000000
,
00000000
00000000
00000000
00000000
,
00000000
00000000
00000000
00000000
,
00000000
00000000
00000000
00003003
;

//---------------dance-double - ----------------
#NOTES:
     dance-double:
     :
     Hard:
     16:
     0.753748,0.889134,0.543242,0.869187,0.441384,777.000000,697.000000,80.000000,128.000000,0.000000,0.000000,0.753748,0.889134,0.543242,0.869187,0.441384,777.000000,697.000000,80.000000,128.000000,0.000000,0.000000:
// measure 0
00000000
00000000
00000000
00000000
,  // measure 1
00000000
00000000
00000000
00000000
,  // measure 2
00000000
00000000
00000000
00000000
,  // measure 3
00000000
00000000
00000000
00000000
,  // measure 4
00000000
00000000
00000000
00000000
,  // measure 5
00000001
00000100
00001000
00000100
00000010
00001000
00000100
00000010
,  // measure 6
00000001
00001000
00000100
00010000
00001000
00100000
00010000
00010000
,  // measure 7
00010000
00000000
10000000
00000000
00100000
00000000
01000000
00000000
00100000
00000000
10000000
01000000
00100000
00000000
00010000
00000000
,  // measure 8
01000000
00000000
00010000
00100000
00001000
00100000
00010000
00000000
02000000
00000000
00000000
00000000
03001000
00000000
00000000
00000000
,  // measure 9
00021000
00000000
00000000
00000000
00000000
00000000
00000010
00000000
00000000
00000000
00000000
00000000
00000000
00000000
00031000
00010000
,  // measure 10
00002000
00000000
00000000
00100000
00000000
00000000
01003000
00000000
,  // measure 11
02100000
00000000
00000000
10000000
00000000
00000000
00000000
00000000
,  // measure 12
00000000
03010000
10000000
01000000
00010000
00001000
00000100
00000001
,  // measure 13
00000020
00000000
00000000
00000000
00000031
00000000
00001000
00000100
00001000
00000000
00000020
00000000
00000000
00000000
00000130
00000010
,  // measure 14
00010000
00001000
00000000
00001000
00100000
00010000
20000000
00000000
,  // measure 15
31000000
00000000
00100000
00000000
00000000
00000000
00100000
00010000
10000000
00000000
00100000
00000000
01000000
00000000
00001000
00010000
,  // measure 16
00000100
00000000
00001000
00000000
00000000
00000000
00001000
00000100
00000010
00000000
00000001
00000000
00001000
00000000
00000000
00000000
,  // measure 17
00002001
00000000
00000000
00000010
00000000
00000000
00000010
00000000
00000000
00000000
00000000
00000000
00000000
00000000
00003100
00010000
,  // measure 18
00000100
00000000
00000000
00100000
00000000
00000000
00102000
00000000
00000000
00000000
00013000
00000000
00011000
00000000
00000000
00000000
,  // measure 19
00101000
00000000
00000000
00010000
00100000
00000000
01000000
00000000
10000000
00100000
00000000
00100000
10000000
00000000
00010000
00000000
,  // measure 20
01000000
00000000
00000000
00100000
01000000
00000000
00010000
00000000
00100000
00001000
00100000
00001000
00020000
00000000
00000000
00000000
,  // measure 21
00030010
00000000
00001000
00000000
00000001
00000010
00000001
00000000
00000100
00000000
00000010
00000000
00010000
00001000
00010000
00000000
,  // measure 22
00000100
00000000
00010000
00000000
00001000
00100000
00001000
00000000
01000000
00000000
00100000
00000000
10000000
01000000
10000000
00000000
,  // measure 23
00100000
01000000
00010000
00000000
00100000
00001000
00010000
00000000
00000010
00000100
00000010
00000100
00000001
00001000
00000001
00001000
,  // measure 24
00000200
00000000
00020000
00030300
,  // measure 25
00011000
00000000
00000000
00000000
00001000
00000000
00100000
00000000
00010000
00000000
10000000
01000000
00100000
00000000
01000000
00000000
,  // measure 26
10000000
00000000
00010000
00000000
01000000
00100000
00000000
00100000
01000000
00000000
00010000
00000000
00200000
00000000
00300000
00000000
,  // measure 27
00202000
00000000
00303000
00000000
00001000
00000000
00010000
00000000
00000100
00001000
00000000
00001000
00000010
00000000
00000100
00000000
,  // measure 28
00000001
00001000
00000100
00000000
00001000
00000001
00000100
00000000
00000010
00000000
00010000
00000000
00022000
00000000
00033000
00000000
,  // measure 29
00010100
00000000
00000000
00000000
00001000
00000000
00000010
00000000
00000100
00000001
00000010
00000000
00000001
00000000
00001000
00000000
,  // measure 30
00000100
00010000
00001000
00000000
00010000
00000000
00001000
00100000
00010000
00000000
01000000
00000000
01100000
00000000
00000000
00000000
,  // measure 31
20200000
00000000
30300000
00000000
10000000
01000000
00100000
00000000
00010000
00000000
01000000
00000000
00010000
00100000
00001000
00000000
,  // measure 32
00020000
00000000
00031000
00100000
00010000
00100000
00001000
00000000
00010000
00000000
00000100
00000000
00002200
00000000
00003300
00000000
,  // measure 33
00002001
00000000
00000000
00000000
00003010
00000100
00000001
00000000
00000020
00000000
00000000
00000000
00000130
00010000
00001000
00000000
,  // measure 34
00010000
00000000
00001000
00100000
00000000
00100000
00001000
00010000
02000000
00000000
00000000
00000000
13000000
00000000
00000000
00000000
,  // measure 35
01100000
00000000
00000000
00000000
00010000
10000000
01000000
00000000
00200000
00000000
00000000
00000000
00301000
00010000
01000000
00000000
,  // measure 36
10000000
00000000
00010000
00100000
00000000
00100000
00001000
00010000
00001000
00000000
00000100
00000000
00000010
00000000
00000000
00000000
,  // measure 37
00001001
00000000
00000000
00000000
00000010
00010000
00001000
00000000
00000200
00000000
00000000
00000000
00000301
00000010
00000100
00000000
,  // measure 38
00001000
00000000
00000010
00010000
00000000
00010000
00000100
00000000
00001000
00000000
00000100
00000000
00001100
00000000
00000000
00000000
,  // measure 39
00011000
00000000
00000000
00000000
00010000
00100000
01000000
00000000
20000000
00000000
00000000
00000000
30100000
01000000
00000000
01000000
,  // measure 40
00100000
00000000
10000000
01000000
00100000
01000000
10000000
00010000
02000000
00000000
00000000
00000000
03001000
00000000
00000000
00000000
,  // measure 41
00022000
00000000
00030000
00000000
,  // measure 42
00000020
00000000
00000000
00003000
,  // measure 43
00000002
00000030
00002000
00000003
,  // measure 44
00020000
00003000
20000000
30030000
,  // measure 45
01100000
00000000
00000000
00000000
00000000
00000000
00100000
01000000
00001000
00000000
00010000
00000000
00000000
00000000
00010000
00000000
,  // measure 46
00000010
00000000
00000100
00000000
00000000
00000000
00000100
00000010
00001000
00000000
00000001
00000000
00000010
00000000
00000000
00000000
,  // measure 47
00001001
00000000
00000000
00000000
00000000
00000000
00000010
00010000
00001000
00000000
00000100
00000000
00000010
00000000
00000010
00000000
,  // measure 48
00001000
00000000
00000100
00010000
00001000
00010000
00000100
00000000
00002000
00000000
00003200
00000000
00000302
00000000
00000203
00000000
,  // measure 49
00001300
00000100
00010100
00000000
00011000
00000000
00101000
00100000
,  // measure 50
00110000
00000000
00000000
00000000
11000000
00000000
00000000
00000000
01100000
00000000
00100000
01000000
00100000
00000000
01000000
00000000
,  // measure 51
00010000
00000000
00100000
00000000
00101000
00000000
00000000
00000000
00011000
00000000
00000000
00000000
00010010
00000000
00000100
00000010
,  // measure 52
00001000
00000100
00001100
00000000
00001001
00000001
00000011
00000000
,  // measure 53
00001010
00000010
00001010
00000000
00010100
00000000
00011000
00001000
,  // measure 54
00101000
00000000
00100000
00000000
00110000
00000000
00000000
00000000
10100000
00000000
00100000
01000000
00010000
00000000
00100000
00000000
,  // measure 55
01000000
21000000
00000000
30010000
00120000
00000000
01030000
00001000
,  // measure 56
00020000
00000000
00000000
00000000
00000000
00000000
00000000
00000000
00030010
00001000
00000001
00000100
00000010
00000000
00000000
00000000
,  // measure 57
00001001
00000000
00000010
00000100
00010000
00001000
02000000
00000000
,  // measure 58
03200000
20300000
32000000
03020000
00032000
00003200
00000302
00000023
00000230
00000000
00000000
00000000
00010300
00000000
00000010
00000000
,  // measure 59
00000100
00000000
00001000
00000000
00010000
00000000
00001000
00000000
00020000
02030000
03020000
00032000
00003200
00002300
00023000
02030000
,  // measure 60
03200000
00000000
01300000
10000000
00010000
00100000
00001000
00010000
,  // measure 61
00000020
00000230
00002300
00023000
00032000
02003000
03200000
20300000
30200000
00000000
00000000
00000000
01300000
00000000
00001000
00000000
,  // measure 62
00010000
00000000
00000010
00000000
00001000
00000001
00000010
00000001
00000200
00000000
00000000
00000000
00000000
00000000
00000300
00000000
,  // measure 63
00000010
00001100
00001000
00011000
,  // measure 64
00100000
00000000
11000000
00000000
10010000
00000000
00100000
00100000
,  // measure 65
00010000
00000000
01000000
00000000
00100000
00000000
10000000
00000000
01000000
00100000
00010000
00000000
00100000
00000000
00001000
00000000
,  // measure 66
00010000
00000010
00000100
00000000
00000001
00001000
00000100
00000000
00010000
00001000
00010000
00001000
00010000
00000000
00000000
00000000
,  // measure 67
00210000
00000000
02300000
23000000
00000000
30020000
00000000
00032000
,  // measure 68
00000000
00003002
00000000
00000103
00000010
00000000
00001010
00000000
,  // measure 69
00000001
00000000
00000100
00000000
00000010
00010000
00000100
00010000
00001000
00000000
00100000
00000000
00010000
00000000
10000000
00000000
,  // measure 70
02000000
00000000
00200000
03300000
,  // measure 71
10200000
00000000
10300000
00000000
00200000
00000000
00310000
00000000
00200000
00000000
01300000
00000000
10000000
00000000
01000000
00001000
,  // measure 72
00020000
00030100
00000020
00000130
00002000
00003010
00000002
00000013
,  // measure 73
00000200
00000301
00000200
00001300
00000200
00000301
00000010
00000100
,  // measure 74
00020000
00031000
00020000
00130000
00020000
00031000
00001000
00001000
,  // measure 75
00200000
00000000
00310000
00000000
00200000
00000000
01300000
00000000
00200000
00000000
10300000
00000000
00200000
00000000
00310000
01000000
,  // measure 76
00002000
00013000
00002000
00003010
00002000
00013000
00000100
00000100
,  // measure 77
00000200
00000000
00010300
00000000
00000200
00000000
00000301
00000000
00000200
00000000
00001300
00000000
00000200
00000000
00000310
00000001
,  // measure 78
00001000
00000001
00000010
00001000
00010000
01000000
11000000
00000000
,  // measure 79
20000000
00000000
30100000
01000000
00010000
00000000
00100000
00000000
01000000
10000000
00100000
00000000
01000000
00000000
00001000
00000000
,  // measure 80
00020000
00000000
00000000
00000000
00030010
00000000
00000100
00000000
00000001
00000000
00000000
00000000
00000010
00000000
00000000
00000000
00000100
00000000
00001000
00000000
00000010
00000000
00000000
00000000
00000100
00000000
00000000
00000000
00000200
00000300
00000000
00000000
,  // measure 81
00000100
00000000
00000010
00001000
00000001
00000000
00000010
00000000
00000100
00010000
00001000
00000000
00100000
00000000
00010000
00000000
,  // measure 82
10000000
00000000
00000000
00000000
00100000
00000000
01000000
00000000
00010000
00000000
00000000
00000000
00100000
00000000
00000000
00000000
01000000
00000000
10000000
00000000
00010000
00000000
00000000
00000000
00100000
00000000
00000000
00000000
00200000
00300000
00000000
00000000
,  // measure 83
00100000
00000000
01000000
00000000
10000000
00000000
01000000
00100000
00001000
00000000
00010000
00000000
00011000
00000000
00000000
00000000
,  // measure 84
00000010
00000000
00010000
00000000
00000100
00000000
00000010
00000001
00001000
00000000
00000010
00000000
00000110
00000000
00000000
00000000
,  // measure 85
00000001
00000000
00000010
00000000
00001000
00000000
00000010
00000000
00000001
00001000
00000100
00000000
00010000
00001000
00100000
00010000
,  // measure 86
02000000
00000000
00200000
03300000
,  // measure 87
10010000
00000000
00000000
00000000
00010000
00100000
01000000
00000000
10000000
00000000
00100000
00000000
00100000
00000000
00100000
00000000
,  // measure 88
01000000
00010000
00000000
00010000
00100000
00000000
00001000
00010000
00001000
00000000
00000100
00000000
00000110
00000000
00000000
00000000
,  // measure 89
00000101
00000000
00000000
00000000
00000001
00000000
00000010
00000000
00000001
00001000
00000100
00000000
00000010
00000000
00000100
00000000
,  // measure 90
00001000
00000010
00000001
00000010
00002020
00003030
00020200
00030300
,  // measure 91
00011000
00000000
00000000
00000000
00001000
00000000
00100000
00010000
01000000
00000000
00100000
00000000
10000000
00000000
00000000
00000000
,  // measure 92
10000000
01000000
00000000
01000000
00100000
00000000
00001000
00010000
00001000
00000000
00000100
00000000
00000110
00000000
00000000
00000000
,  // measure 93
00000101
00000000
00000000
00000000
00000001
00000000
00000010
00000100
00010000
00000000
00001000
00000000
00020000
00000000
00000000
00000000
,  // measure 94
00030010
00000000
00001000
00000100
00010000
00000100
00001000
00000000
00000100
00000000
00010000
00000000
00011000
00000000
00000000
00000000
,  // measure 95
00002100
00000000
00000000
00000010
00000000
00000000
00000001
00000000
00000000
00000010
00000000
00000000
00003100
00000000
00001000
00000000
,  // measure 96
00021000
00000000
00000000
01000000
00000000
00000000
10000000
00000000
00000000
01000000
00000000
00000000
00031000
00000000
00010000
00001000
,  // measure 97
00101000
00000000
00000000
01010000
00000000
00000000
10100000
00000000
00000000
00110000
00000000
00000000
00101000
00000000
00011000
00000000
,  // measure 98
00010100
00000000
00000000
00001001
00000000
00000000
00000011
00000000
00000000
00001100
00000000
00000000
00002020
00000000
00003030
00000000
,  // measure 99
00002002
00000000
00003003
00022000
00000000
00033000
10010000
00000000
,  // measure 100
00022000
00003000
00000020
00030030
,  // measure 101
02002000
00000000
00000000
00000000
,  // measure 102
00000000
00000000
00000000
00000000
,  // measure 103
00000000
00000000
00000000
00000000
,  // measure 104
00000000
00000000
00000000
03003000
;
