#TITLE:竹取飛翔 ~ Lunatic Princess (Ryu☆Remix);
#SUBTITLE:;
#ARTIST:Ryu☆;
#TITLETRANSLIT:Taketori Hishou ~ Lunatic Princess (Ryu☆Remix);
#SUBTITLETRANSLIT:;
#ARTISTTRANSLIT:;
#GENRE:;
#CREDIT:;
#BANNER:Taketori_hishou_banner.png;
#BACKGROUND:Taketori_hishou.png;
#LYRICSPATH:;
#CDTITLE:;
#MUSIC:Taketori Hishou.ogg;
#OFFSET:0.550000;
#SAMPLESTART:22.950001;
#SAMPLELENGTH:11.220000;
#LASTBEATHINT:313.000000;
#SELECTABLE:YES;
#BPMS:0.000000=171.000000
;
#STOPS:
;
#BGCHANGES:;
#KEYSOUNDS:;
#ATTACKS:;

//---------------dance-single - ----------------
#NOTES:
     dance-single:
     :
     Easy:
     5:
     0.228870,0.311407,0.097906,0.178010,0.000000,180.000000,169.000000,11.000000,20.000000,0.000000,0.000000,0.228870,0.311407,0.097906,0.178010,0.000000,180.000000,169.000000,11.000000,20.000000,0.000000,0.000000:
0000
0000
0000
0000
,
0000
0000
0000
0000
,
0000
0000
0000
0000
,
0000
0000
0000
0000
,
0000
0000
0000
0000
,
0001
0000
0010
0000
,
0001
1000
0100
0000
,
1000
0000
0010
0000
,
0100
0000
0010
0100
,
0220
0000
0000
0000
,
0330
0000
0000
0000
,
0000
0000
0000
0000
,
0000
0000
0000
0000
,
0001
0000
0001
0000
,
1000
0100
1000
0000
,
0010
0000
0010
0000
,
2200
0000
3300
0000
,
0001
1000
0001
0000
,
0100
0010
0100
0000
,
0001
0010
0100
0000
,
1000
0001
1000
0000
,
0010
0000
0100
0000
,
0001
1000
0001
0000
,
1000
0100
0010
0000
,
0100
0010
0001
0000
,
2002
0000
0000
0000
,
3003
0000
0000
0000
,
0100
0000
0100
0010
,
1000
0000
1000
0001
,
0010
0000
0010
0001
,
2000
0000
3000
0000
,
0010
0000
0010
0100
,
0001
0000
0010
0001
,
1000
0000
1000
0100
,
0020
0000
0130
0000
,
1000
0000
1000
0000
,
0001
0010
0100
0000
,
1000
0000
1000
0000
,
0010
0100
0001
0000
,
0010
0000
0010
0000
,
1000
0001
0100
0000
,
0010
0000
0010
0000
,
0220
0000
0330
0000
,
0001
1000
0100
0000
,
1000
0001
0100
0000
,
0001
0010
0001
0000
,
1000
0010
1000
0000
,
0110
0000
0001
0000
,
1000
0100
1000
0000
,
0001
0100
0001
0000
,
2002
0000
3003
0000
,
0100
0000
0100
0000
,
0100
0000
0100
0000
,
0010
0000
0010
0000
,
0010
0000
0010
0000
,
1000
0010
1000
0000
,
0001
0100
0001
0000
,
1000
0010
1000
0000
,
0001
0000
0101
0000
,
0020
0000
0000
0030
,
1000
0100
1000
0000
,
0001
0100
0001
0000
,
0010
0100
1000
0000
,
0001
1000
1001
0000
,
0200
0000
0310
0000
,
1000
0001
1000
0000
,
0010
1000
0001
0010
,
0022
0000
0033
0000
,
0200
0000
1300
0000
,
0001
0010
0001
0000
,
1000
0010
0100
0000
,
1000
0001
1001
0000
,
0020
0000
0130
0000
,
0001
0010
0100
0000
,
1000
0100
0010
0001
,
0010
0000
0100
0010
,
2002
0000
0000
0000
,
0000
0000
0000
3003
;

//---------------dance-single - ----------------
#NOTES:
     dance-single:
     :
     Medium:
     11:
     0.481900,0.622814,0.311518,0.525131,0.004450,379.000000,344.000000,35.000000,59.000000,0.000000,0.000000,0.481900,0.622814,0.311518,0.525131,0.004450,379.000000,344.000000,35.000000,59.000000,0.000000,0.000000:
0000
0000
0000
0000
,
0000
0000
0000
0000
,
0000
0000
0000
0000
,
0000
0000
0000
0000
,
0000
0000
0000
0000
,
2000
0000
3010
0100
0002
0000
0013
0100
,
1000
0000
0010
0100
0010
0000
1000
0001
,
0010
0000
0001
0100
0010
1000
0100
0010
,
0002
0000
1003
0010
0100
0010
1000
0000
,
2002
0000
0000
0000
,
0000
0000
0000
0000
,
3003
0000
0000
0000
,
0000
0000
0000
0000
,
0010
0100
0001
0000
0010
0100
1000
0000
,
0010
0100
0001
0000
1000
0100
0010
0000
,
0100
1000
0010
0100
0001
0010
0001
0000
,
1000
0001
1000
0001
0010
0000
0110
0000
,
2100
0000
3001
0010
0002
0000
0103
0010
,
2000
0000
3001
0100
0001
0000
0011
0000
,
2000
0000
3010
0100
0001
0010
0100
1000
,
1100
0000
0101
0000
1100
0000
0010
0100
,
0002
0000
0013
0100
2000
0000
3010
0100
,
0002
0000
0103
0010
0100
0000
0101
0000
,
1000
0100
1000
0000
0001
0010
0100
1000
,
0010
0100
0000
0100
0001
0010
0100
0000
,
0220
0000
0000
0330
,
2002
0000
0000
3003
,
0010
0000
0100
0010
0100
0001
0100
0000
,
0001
0000
0010
0001
0010
0100
0010
0000
,
0001
0000
1000
0100
1000
0010
1000
0001
,
0000
1000
0010
0001
0000
0001
0010
0000
,
0100
0001
0100
0000
0010
1000
0010
0000
,
1000
0100
1000
0000
0001
0010
0001
0000
,
1000
0010
0100
0000
0001
0010
0100
0000
,
1000
0010
0100
0001
1000
0010
0100
0000
,
0002
0013
2000
3100
,
0001
1000
0001
0010
0100
0000
1000
0000
,
0020
0130
2000
3001
,
0010
0100
0001
0010
0100
0000
1001
0000
,
0200
0310
0002
1003
,
1000
0001
0010
0100
1000
0000
1001
0000
,
0200
0301
0020
1030
,
2002
0000
0000
3003
,
0210
0301
0120
1030
,
0001
0010
0100
1000
0001
1000
0010
0000
,
2000
0100
0100
3100
,
0002
0010
0010
0013
,
0201
0310
2010
3100
,
1000
0000
0000
0010
0000
0000
0100
0000
0010
0000
1000
0000
0100
0000
0000
0000
,
0020
0000
0031
0000
0002
0000
1003
0100
,
0020
0000
0000
0030
,
0001
0001
0001
0001
,
1000
1000
1000
1000
,
0010
0010
0010
0010
,
0100
0100
0100
0100
,
0010
0010
1000
1000
,
0100
0100
0001
0001
,
0100
0001
0010
1000
,
0100
0010
0001
1000
,
0220
0000
0000
0330
,
2001
0000
3100
0010
0002
0000
1003
0010
,
0200
0000
0301
0010
0100
0000
1100
0000
,
0201
0000
0310
1000
0010
0100
0001
0000
,
0001
0010
0000
0010
1000
0010
0001
0000
,
0201
0000
0310
1000
0200
0000
1300
0001
,
0020
0000
0031
1000
0100
0000
1010
0000
,
0200
0000
0301
0010
0100
1000
0001
0000
,
0200
0010
0000
0010
0000
0010
0310
0000
,
2010
0000
3100
0010
0002
0000
0103
0010
,
2000
0000
3001
0100
0010
0000
0110
0000
,
1002
0000
0103
0010
1000
0100
0010
0001
,
0011
1100
1001
0101
,
0120
0000
1030
0001
0200
0000
0310
1000
,
0200
0000
0310
0001
1000
0000
0011
0000
,
2100
0000
3001
0100
0010
0100
0001
0010
,
0200
0001
0000
0010
0000
1000
1300
0000
,
2200
0000
0000
3300
,
0022
0000
0000
0033
;

//---------------dance-single - ----------------
#NOTES:
     dance-single:
     :
     Hard:
     15:
     0.755273,0.761217,0.756544,0.409424,0.204712,594.000000,509.000000,85.000000,46.000000,0.000000,0.000000,0.755273,0.761217,0.756544,0.409424,0.204712,594.000000,509.000000,85.000000,46.000000,0.000000,0.000000:
// measure 0
0000
0000
0000
0000
,  // measure 1
0000
0000
0000
0000
,  // measure 2
0000
0000
0000
0000
,  // measure 3
0000
0000
0000
0000
,  // measure 4
0011
0000
1100
0000
0101
0000
0010
1000
,  // measure 5
0100
1000
0001
0010
0100
0010
0001
1000
,  // measure 6
0010
0100
0010
1000
0001
0010
0100
1000
,  // measure 7
0010
0000
0100
0010
0100
0000
0001
0000
0010
0001
0010
0000
0100
0000
1000
0000
,  // measure 8
0010
0100
0110
0000
1001
0000
0110
0000
,  // measure 9
2001
0010
0001
3100
,  // measure 10
0102
1000
0010
0103
,  // measure 11
1020
0100
0001
0130
,  // measure 12
1200
0001
0010
0301
,  // measure 13
0001
0100
0001
0100
0010
1000
0010
1000
,  // measure 14
0001
0010
0001
0010
0100
1000
0100
1000
,  // measure 15
0010
1000
0100
0001
0100
1000
0010
0100
,  // measure 16
0210
0000
0001
0000
1300
0000
0100
0001
,  // measure 17
0012
0000
1003
0100
2100
0000
3010
0100
,  // measure 18
0210
0000
0301
0010
0011
0000
1000
0001
,  // measure 19
2001
0000
3010
0100
0001
0010
0100
1000
,  // measure 20
1100
0000
0101
0000
0110
0000
0001
0010
,  // measure 21
0210
0000
1300
0010
0210
0000
0301
0010
,  // measure 22
0210
0000
1300
0001
0011
0000
1000
0010
,  // measure 23
0100
0000
0001
0000
0010
0000
0100
0000
1000
0000
0001
1000
0001
0000
0100
0000
,  // measure 24
0010
0000
1010
0000
0100
0000
0110
0000
0010
0000
1000
0001
1000
0000
0000
0000
,  // measure 25
2001
0010
0000
3010
,  // measure 26
1002
0100
0000
0103
,  // measure 27
0010
0000
1000
0000
0001
0000
0010
0000
0001
1000
0001
1000
0001
0000
0010
0000
,  // measure 28
0100
0000
1000
0000
0001
0000
1000
0000
0010
0100
0010
0100
0010
0000
1000
0000
,  // measure 29
0001
0000
0010
0000
0100
0000
1000
0000
0001
0100
0001
0100
0001
0000
0010
0000
,  // measure 30
0000
0100
1000
0100
0001
0100
0110
0000
,  // measure 31
1000
0000
0010
0000
1000
0000
0100
0000
0010
0001
0010
0001
0010
0000
0100
0000
,  // measure 32
1000
0000
0010
0000
0100
0000
0010
0000
1000
0001
1000
0001
1000
0000
0010
0000
,  // measure 33
0100
1000
0100
0001
0010
0100
1000
0010
,  // measure 34
1000
0000
1000
0000
0001
0000
0001
0000
0010
0100
1000
0001
0100
0000
0000
0000
,  // measure 35
0201
1300
1200
0301
,  // measure 36
0001
0010
0100
1000
0010
0100
0001
0000
,  // measure 37
1200
0000
0301
0000
0201
0000
1300
0010
,  // measure 38
0100
0000
0001
0000
0010
0000
0100
0000
1000
0001
0100
0010
0100
0000
0000
0000
,  // measure 39
1020
0000
0031
0000
0021
0000
1030
0001
,  // measure 40
1000
0000
0100
0000
0010
0000
0001
0000
1000
0010
1000
0000
0001
0000
0010
0000
,  // measure 41
0021
0000
1030
0000
1020
0000
0031
1000
,  // measure 42
0100
0000
0100
0000
0100
0000
0100
0000
1000
0001
0010
0001
1000
0000
0000
0000
,  // measure 43
1010
0101
0011
1100
,  // measure 44
0001
0000
1000
0000
0010
0000
1000
0000
0001
0100
0010
0000
0100
0000
0001
0000
,  // measure 45
0010
0000
0001
0000
1000
0000
0100
0000
1000
0010
0100
0000
0001
0000
0010
0000
,  // measure 46
0001
1000
0010
0001
0010
1000
1001
0000
,  // measure 47
0011
1100
0101
1010
,  // measure 48
0001
0000
0100
0010
0000
0100
0010
0100
0001
0000
1000
0000
0100
0000
1000
0000
,  // measure 49
1020
0000
0031
0000
0201
0000
1300
0100
,  // measure 50
0010
0000
0010
0000
0010
0000
0010
0000
1000
0001
0100
0001
1000
0000
0000
0000
,  // measure 51
2001
3100
1002
0103
,  // measure 52
0012
1003
2010
3001
,  // measure 53
0210
1300
0210
0301
,  // measure 54
0120
0031
2010
3001
,  // measure 55
0100
0000
0010
0000
0100
0000
0001
0000
1000
0000
0001
0010
0000
0001
1000
0000
,  // measure 56
0010
0000
0100
0000
0001
0000
1000
0000
0100
0000
1000
0010
0000
1000
0100
0000
,  // measure 57
0010
0000
0001
0000
1000
0000
0001
0000
0100
0000
0010
0100
0000
0010
1000
0000
,  // measure 58
0001
0000
0010
0000
0100
0000
0010
0000
0001
1000
0001
1000
0001
0000
0000
0000
,  // measure 59
1010
0000
1100
0000
1010
0000
1001
0001
,  // measure 60
0201
0000
0301
0010
0120
0000
0130
1000
,  // measure 61
0001
0000
1000
0000
0010
0000
0100
0000
0001
0010
0001
0010
0001
0000
1000
0000
,  // measure 62
0100
0000
1000
0000
0010
0000
0100
0000
0001
0000
1000
0100
0010
0000
0100
0000
,  // measure 63
1000
1100
0001
0011
1000
0001
1001
1000
,  // measure 64
2010
0000
3001
0010
0012
0000
0103
0010
,  // measure 65
2010
0000
0000
0000
3001
0000
0100
0000
0010
1000
0010
1000
0010
0000
0100
0000
,  // measure 66
0001
0000
0010
0000
0011
0000
0001
0000
1000
0000
0010
0100
0010
0000
1000
0000
,  // measure 67
1002
0000
0010
0000
0000
0000
0100
0000
0000
0000
0013
0100
0010
0000
0001
0000
,  // measure 68
0101
0010
1000
0010
1100
1000
0001
0010
,  // measure 69
0011
1000
0010
0100
0110
0000
1001
1000
,  // measure 70
0001
0000
0100
0000
0010
0000
0100
0000
0001
0000
1000
0001
0010
0000
0001
0000
,  // measure 71
0101
0010
1100
0010
0101
0000
1000
0100
,  // measure 72
2100
0001
3010
1000
0210
0001
0310
1000
,  // measure 73
0012
1000
0103
0010
0110
0000
1001
0001
,  // measure 74
0100
0000
0010
0000
1000
0000
0001
0000
1000
0000
0001
0010
0100
0000
0010
0000
,  // measure 75
0200
0000
0001
0000
0000
0000
1000
0000
0000
0000
1300
0001
1000
0000
0010
0000
,  // measure 76
0220
0000
0000
0330
,  // measure 77
2002
0000
3003
0110
;
