#TITLE:竹;
#SUBTITLE:;
#ARTIST:立秋 feat.ちょこ;
#TITLETRANSLIT:Take;
#SUBTITLETRANSLIT:;
#ARTISTTRANSLIT:Rissyuu feat.Choko;
#GENRE:社会;
#CREDIT:;
#BANNER:Take_banner.png;
#BACKGROUND:Take.png;
#LYRICSPATH:;
#CDTITLE:;
#MUSIC:Take.ogg;
#OFFSET:-0.150000;
#SAMPLESTART:56.299999;
#SAMPLELENGTH:10.000000;
#SELECTABLE:YES;
#BPMS:0.000000=150.000000
,33.000000=219.000000
,73.000000=180.000000
,88.000000=130.000000
,97.000000=142.000000
,105.000000=155.000000
,113.000000=165.000000
,117.000000=175.000000
,121.000000=183.000000
,129.000000=195.000000
,137.000000=200.000000
,141.000000=205.000000
,145.000000=215.000000
,149.000000=219.000000
,153.000000=195.000000
,159.000000=219.000000
,224.000000=217.000000
,225.000000=205.000000
,226.000000=195.000000
,227.000000=183.000000
,351.000000=115.000000
,353.000000=160.000000
,355.000000=195.000000
,357.000000=220.000000
,359.000000=235.000000
,360.000000=255.000000
,362.000000=275.000000
,391.000000=300.000000
,394.000000=315.000000
,425.000000=275.000000
,426.000000=200.000000
,426.500000=130.000000
,427.000000=185.000000
,429.000000=215.000000
,431.000000=230.000000
,433.000000=249.999985
,435.000000=270.000000
,437.000000=285.000000
,439.000000=300.000000
,441.000000=315.000000
,443.000000=5.000000
;
#STOPS:96.750000=0.462000,
104.750000=0.423000,
112.750000=0.387000,
120.750000=0.343000,
191.000000=0.068000,
191.250000=0.068000,
191.500000=0.068000,
191.750000=0.068000,
298.750000=0.328000
;
#BGCHANGES:;
#KEYSOUNDS:;
#ATTACKS:;

//---------------dance-single - ----------------
#NOTES:
     dance-single:
     :
     Easy:
     10:
     0.328576,0.390909,0.049387,0.148162,0.007055,326.000000,319.000000,7.000000,21.000000,0.000000,0.000000,0.328576,0.390909,0.049387,0.148162,0.007055,326.000000,319.000000,7.000000,21.000000,0.000000,0.000000:
0000
0000
0000
0000
,
1000
0001
1000
0001
,
0100
0010
0100
0010
,
1000
0010
0100
0001
,
2001
3010
0100
0010
,
0100
0001
0010
0100
,
1000
0001
0010
0100
,
1000
0010
0100
0010
,
0100
0002
0000
0000
,
0000
0000
0000
0003
,
0000
1000
0000
0000
0001
0000
1000
0000
,
0001
0100
0010
0100
,
0000
0010
0000
0000
1000
0000
0100
0000
,
1000
0001
0010
0001
,
0000
0100
0000
0000
0010
0000
1000
0000
,
0001
1000
0100
0010
,
0100
1000
0000
0000
0001
0000
0010
0000
,
0100
0010
0001
2002
,
3003
0000
0000
0000
,
0000
0000
0000
0000
,
0000
0000
0000
0000
,
0000
0000
0000
0000
,
0000
1000
0100
0010
,
0100
1000
0001
0010
,
0001
1000
0010
0100
,
0010
1000
0100
0010
,
0001
0100
0010
1000
,
0100
0010
0001
0010
,
0100
1000
0001
0010
,
0100
0010
0001
1000
,
0100
1000
0010
0100
,
0001
0010
0100
1000
,
0100
0010
0001
0100
,
0010
1000
0100
1000
,
0001
0100
0100
0010
,
0010
1000
0001
1000
,
0001
0010
0100
1000
,
0001
0010
0100
1000
,
0001
1001
0000
0020
,
0000
0230
0000
0301
,
0000
0010
0000
0000
0001
0000
1000
0000
,
0001
1000
0100
0010
,
0000
0001
0000
0000
0100
0000
0010
0000
,
1000
0010
0100
0001
,
0000
0010
0000
0000
0100
0000
1000
0000
,
0100
1000
0010
0100
,
0001
0010
0000
0000
0001
0000
0100
0000
,
0010
0000
0000
0000
1000
0000
0000
0000
0100
0000
0000
0000
2000
0000
0000
3001
,
0000
0001
0010
1000
,
0010
0000
0001
0000
0010
0000
0000
0100
,
0000
1000
0100
0001
,
0100
0000
1000
0000
0100
0000
0000
1000
,
0000
0010
0100
0010
,
1000
0000
0001
0000
1000
0000
0000
0010
,
0000
0100
0010
1000
,
0001
1000
1001
0000
,
0020
0000
0000
0000
,
0130
0000
0000
0000
,
0001
0000
0010
0000
,
0001
0000
0100
0000
,
0010
0000
1000
0000
,
0100
0000
1000
0000
,
0010
0000
0100
0000
,
0001
0000
1000
0000
,
0100
0000
0010
0000
,
0001
0000
0100
0000
,
0010
0000
1000
0000
,
0001
0000
0100
0000
,
0010
0000
1000
0000
,
0100
0000
0001
0000
,
0100
0000
1000
0000
,
0010
0000
0001
0000
,
0010
0000
0100
0000
,
0010
0000
1000
0000
,
2002
0000
3003
0010
,
0010
0100
0100
0001
,
1000
0001
1000
0100
,
0100
0010
0010
0001
,
1000
0001
1000
0100
,
1000
0100
1000
0001
,
0010
0001
0010
0001
,
1000
0100
0010
0001
,
1000
0100
0010
0002
,
0000
0103
0000
0010
,
1000
0000
0100
0000
0000
0010
0000
0000
,
0001
1000
0001
1000
,
0001
1000
0000
0010
,
0000
0110
0000
0000
,
2000
0000
0000
0000
,
0000
0000
0000
0000
,
0000
0000
0000
0000
0000
3001
0000
0000
,
0010
0000
0010
0000
,
0100
0000
0000
0000
0100
1000
0000
0000
,
0001
0000
1000
0000
,
0001
0000
0002
0000
0000
0103
0000
0000
,
0010
0000
0010
0000
,
1000
0000
0000
0000
1000
0001
0000
0000
,
0001
0000
0010
0000
,
0100
0000
0000
2000
0000
3001
0000
0000
,
0001
1000
0000
0010
,
0100
0010
0000
1000
,
0001
1000
0000
0001
,
0010
0100
0000
1000
,
0100
0010
0000
0001
,
0100
0010
0000
1000
,
0001
1000
0000
0010
,
0100
0020
0030
2000
,
3000
0002
0003
0020
,
0030
0200
0300
2000
,
3000
0001
0000
1001
,
0000
0000
0000
0000
0000
0000
0000
0000
0000
0000
0000
0000
2000
3001
0000
0000
;

//---------------dance-single - ----------------
#NOTES:
     dance-single:
     :
     Medium:
     13:
     0.534189,0.664545,0.155217,0.141106,0.088192,530.000000,508.000000,22.000000,20.000000,0.000000,0.000000,0.534189,0.664545,0.155217,0.141106,0.088192,530.000000,508.000000,22.000000,20.000000,0.000000,0.000000:
0000
0000
0000
0000
,
0001
0000
0010
0001
1000
0000
0010
1000
,
0001
0000
1000
0100
0010
0001
1000
0000
,
0001
0000
0100
0010
1000
0000
0010
0100
,
0020
0000
1030
0100
1000
0000
0001
0010
,
0001
0000
1000
0010
1000
0000
0001
0100
,
0001
0000
1000
0100
0010
0001
0010
0100
,
1000
0000
0001
1000
0010
0100
0010
1000
,
0001
0100
0020
0000
0000
0000
0030
0000
,
0100
0100
0100
0100
,
0100
0001
0000
1000
0001
1000
0001
0000
,
1000
0000
0010
0000
0100
0000
0010
0100
,
0010
0100
0000
0010
0100
0000
0001
0010
,
0001
0000
1000
0100
1000
0000
0002
0000
,
0000
1003
0000
0010
0100
0000
0010
1000
,
0010
0000
0100
0001
0100
0000
0001
1000
,
0100
0010
0000
0001
1000
0000
0010
1000
,
0100
0000
1000
0001
0010
0000
1001
0000
,
0000
0110
0000
0000
,
0000
2002
0000
0000
,
0000
3003
0000
0000
,
0000
0000
0000
0000
,
0002
0000
0013
0000
0001
0100
0010
0000
,
1000
0100
0010
0000
0001
0100
1000
0100
,
0001
0000
1000
0100
0010
0000
0001
1000
,
0010
0000
1000
0010
0001
0010
1000
0000
,
0001
0000
0100
0010
0100
0000
0001
1000
,
0001
0000
1000
0010
1000
0000
0001
0100
,
0001
0000
1000
0010
1000
0000
0001
0100
,
0001
0000
1000
0001
1000
0001
0100
0000
,
0110
0000
0010
1000
0010
0000
0100
0001
,
0100
0000
0001
0010
0001
0010
0200
0000
,
1300
0000
1000
0100
0010
0000
0001
0100
,
0010
0000
1000
0001
1000
0001
1000
0000
,
0010
0000
0100
0010
0100
0000
0010
0100
,
0010
0000
1000
0001
1000
0000
0001
1000
,
0001
0000
1000
0001
1000
0000
0001
1000
,
0001
0000
0100
0010
0100
0000
0010
0100
,
0010
0220
0330
0001
,
0000
0000
1000
0000
0000
0000
0001
1000
,
0001
0010
0000
0001
1000
0000
0010
1000
,
0010
0000
0100
0001
0100
0000
0010
0000
,
1000
0001
0000
0100
0010
0000
1000
0100
,
0010
0000
0001
0010
0001
0000
2000
0000
,
0000
3100
0000
1000
0010
0000
0100
0001
,
0100
0000
0001
0010
0001
0000
1000
0000
,
0010
0100
0000
0010
0100
0000
0001
1000
,
0001
0000
0000
0000
1000
0000
0001
0000
1000
0000
0000
0000
0010
0100
0010
0100
,
0000
0001
1000
0001
1000
0001
1000
0001
,
1000
0001
1000
0000
1001
0000
0000
0010
,
0000
0100
0010
0000
1000
0100
1000
0000
,
0001
0010
0001
0000
1001
0000
0000
0100
,
0000
0010
1000
0001
0100
0010
0100
0010
,
0100
0010
1000
0000
0001
0000
0100
0010
,
0000
0010
1000
0000
0001
0000
1000
0000
,
0100
1000
0001
0000
1001
0000
0200
0000
,
0310
0010
0010
0010
,
0100
0000
0000
0000
0000
0000
1000
0000
0000
0000
0000
0001
0000
0000
0000
0000
,
1000
0000
0001
0000
1000
0000
0001
0000
0000
0000
0000
0000
,
0100
0000
0010
0000
0100
0000
0010
0000
0000
0000
0000
0000
,
1000
0000
0010
0000
1000
0000
0010
0000
0000
0000
0000
0000
,
0100
0000
0001
0000
0100
0000
0001
0000
0000
0000
0000
0000
,
1000
0010
0100
0001
,
1000
0100
0110
0000
,
0001
0010
0100
1000
,
0001
0100
0110
0000
,
1000
0010
0001
0010
,
1000
0001
0100
1000
,
0100
0001
0010
1000
,
0010
0001
0100
1000
,
0100
0010
1000
0100
,
0010
0001
1000
0010
,
0100
0001
0010
0100
,
1000
0001
1000
0010
,
0110
0000
0000
0000
0100
0010
0000
0000
0000
0001
0000
0000
,
1000
0001
1000
0010
,
0100
0000
0000
0010
0000
0000
0100
0000
0000
0001
0000
0010
,
0001
0000
0000
1000
0000
0100
1000
0000
0000
0010
0000
0100
,
0010
0000
0000
1000
0000
0001
1000
0000
0000
0001
0000
0100
,
0001
0000
0000
1000
0000
0010
1000
0000
0000
0010
0000
0100
,
0010
0000
0000
1000
0000
0001
0010
0000
0000
0001
0000
1000
,
0100
0000
0000
1000
0000
0010
0100
0000
0000
0001
0000
0010
,
0100
2000
3001
0210
,
0000
0301
2000
0000
3020
0000
0130
0000
,
0100
0100
0001
1000
0001
0010
0000
0001
,
0010
0001
0010
0000
0001
0000
1000
0000
,
0100
1000
0100
0000
1000
0010
0000
0100
,
0010
0100
0220
0000
0330
0000
0000
0000
,
0001
1000
0001
1000
,
0001
1000
0010
0020
,
0000
0000
0000
0000
0030
0100
0000
0010
,
0100
0001
1000
0001
,
1000
0000
0001
0000
0000
0100
0000
0010
,
0100
0010
1000
0001
,
0100
0000
0001
0000
0000
0010
0000
0001
,
1000
0100
1000
0010
,
0100
0000
0001
0000
0010
0001
0000
1000
,
0100
1000
0001
0100
,
0010
0000
0200
0000
0000
0310
0000
0000
,
0010
0100
0010
0100
,
0001
0000
1000
0000
0000
0001
0000
0000
,
1000
0001
1000
0001
,
1000
0000
0001
0000
0000
0100
0000
0000
,
0010
0100
0010
0100
,
0010
0000
0100
0000
0000
0001
0000
0000
,
1000
0010
0100
0010
,
0000
1001
0000
0110
,
0000
1001
0000
0110
,
0000
1001
0000
0110
,
0000
1001
0000
0110
,
0000
0000
0000
0000
1001
0000
0000
0000
0000
0000
0000
0000
0020
0130
0000
0000
;

//---------------dance-single - ----------------
#NOTES:
     dance-single:
     :
     Hard:
     18:
     0.815394,0.899090,0.119940,0.232826,0.557370,809.000000,792.000000,17.000000,33.000000,0.000000,0.000000,0.815394,0.899090,0.119940,0.232826,0.557370,809.000000,792.000000,17.000000,33.000000,0.000000,0.000000:
// measure 0
0000
0000
0000
0000
,  // measure 1
0001
0000
0001
0100
0000
0100
0010
0000
0010
1000
0000
1000
,  // measure 2
0010
0000
0010
0100
0000
0100
0001
0000
0001
0010
0000
0010
,  // measure 3
1000
0000
1000
0010
0000
0010
0001
0000
0001
1000
0000
1000
,  // measure 4
0020
0000
0000
1030
0000
0100
1000
0000
0100
0010
0000
0001
,  // measure 5
0010
0000
0001
1000
0000
0001
1000
0000
0001
0100
0000
0010
,  // measure 6
0100
0000
0010
1000
0000
0001
0010
0000
0100
0010
0000
0001
,  // measure 7
1000
0000
0010
0100
0010
0100
0001
1000
0010
0100
0010
1000
,  // measure 8
0001
0000
0010
0000
0100
0000
2000
0000
0000
0000
0000
0000
0000
0000
0000
0000
0000
0000
0000
0000
0000
0001
0000
0000
,  // measure 9
0000
0001
0000
0001
0000
0001
0000
0001
,  // measure 10
0000
3001
0000
0010
0001
0010
0100
0010
,  // measure 11
0001
1000
0010
0100
0010
1000
0001
1000
,  // measure 12
0001
0010
0000
0100
0010
0100
1000
0010
,  // measure 13
0001
1000
0100
0001
0010
0100
1000
0001
,  // measure 14
1000
0200
0000
0310
1000
0010
1000
0010
,  // measure 15
0001
0010
0001
0100
0010
0100
1000
0100
,  // measure 16
0001
0010
0000
0010
0001
1000
0100
0010
,  // measure 17
0100
1000
0001
1000
1001
0000
0220
0000
,  // measure 18
0330
1001
0000
0000
,  // measure 19
0000
0000
0210
0000
0000
0010
0000
0000
,  // measure 20
0010
0000
0000
0010
0000
0000
0010
0000
,  // measure 21
0000
0010
0000
0000
0310
0000
0000
0000
,  // measure 22
1000
0000
0000
0001
0000
0000
1000
0000
0000
0001
0000
0000
0100
0000
0000
0000
0000
0000
0000
0000
0100
0000
0000
0000
0010
0000
0000
0000
0000
0000
1000
0000
0000
0000
0000
0000
0001
0000
0000
0000
0000
0000
0010
0000
0000
0000
0000
0000
,  // measure 23
0100
1000
0010
0100
0001
0010
1000
0010
,  // measure 24
0001
0000
0000
1000
0000
0000
0010
0000
0000
0000
0010
0000
0100
0000
0000
0001
0000
0000
1000
0000
0000
0100
0000
0000
,  // measure 25
0010
0100
2000
0001
0001
3001
0100
0010
,  // measure 26
0100
0000
0000
0010
0000
0000
0100
0000
0000
0000
0000
0000
0001
0000
0000
0000
0000
0000
0000
0000
0010
0000
0000
0000
0001
0000
0000
0000
0000
0000
1000
0000
0000
0000
0000
0000
0010
0000
0000
0000
0000
0000
0100
0000
0000
0000
0000
0000
,  // measure 27
0001
0000
0010
0000
0001
0000
1000
0000
0100
1000
0100
0000
1000
0000
0010
0000
,  // measure 28
0100
0000
0000
0010
0000
0000
0100
0000
0000
0000
0000
0000
0001
0000
0000
0000
0000
0000
0000
0000
1000
0000
0000
0000
0010
0000
0000
0000
0000
0000
1000
0000
0000
0000
0000
0000
0001
0000
0000
0000
0000
0000
0100
0000
0000
0000
0000
0000
,  // measure 29
0010
0100
0001
0010
1000
0010
0100
1000
,  // measure 30
0010
0000
0000
0100
0000
0000
0010
0000
0000
0000
0000
0000
0001
0000
0000
0000
0000
0000
0000
0000
0100
0000
0000
0000
0010
0000
0000
0000
0000
0000
1000
0000
0000
0000
0000
0000
0100
0000
0000
0000
0000
0000
1000
0000
0000
0000
0000
0000
,  // measure 31
0010
0000
0100
0000
0010
0000
0001
0000
0010
0000
1000
0000
0010
0100
0010
0000
,  // measure 32
2000
3002
0013
0010
0010
0001
1000
0001
,  // measure 33
0100
0000
0100
0000
0010
0000
0100
0000
0010
0000
0010
0000
1000
0001
1000
0000
,  // measure 34
0010
0010
0100
0001
0100
0010
1000
0100
,  // measure 35
1000
0000
0001
0000
1000
0001
1000
0001
0100
0000
0010
0000
0100
0010
0100
0000
,  // measure 36
0002
0023
0031
1000
0010
0100
0001
0100
,  // measure 37
1000
0000
0000
0100
0000
0000
0010
0000
0000
1000
0000
0000
0001
0000
0010
0000
0100
0000
1000
0000
0000
0010
0000
0000
,  // measure 38
0100
0000
0110
0000
0000
0000
1000
0001
,  // measure 39
1000
0001
0010
0100
0010
0100
1000
0001
,  // measure 40
0010
0200
0000
1300
0001
1000
0010
0100
,  // measure 41
0001
1000
0010
0100
0010
1000
0001
0010
,  // measure 42
0001
2000
0000
3010
0100
0010
1000
0010
,  // measure 43
0100
0010
0100
0001
0100
1000
0100
0010
,  // measure 44
1000
0001
0000
0010
0001
1000
0100
0010
,  // measure 45
0001
1000
0010
0100
0001
1000
0010
0100
,  // measure 46
0010
0001
0000
0001
1000
0100
0010
0100
,  // measure 47
0010
0000
0100
0000
0001
0000
1000
0000
0001
0000
1000
0000
0010
0010
0010
0010
,  // measure 48
0000
0100
0001
0100
0001
1000
0010
1000
,  // measure 49
0010
0100
0010
1000
0001
0010
1000
0010
,  // measure 50
0000
0100
1000
0100
0001
1000
0010
1000
,  // measure 51
0010
0001
0010
0100
1000
0001
1000
0010
,  // measure 52
0000
0010
1000
0010
0100
0001
0010
1000
,  // measure 53
0010
0001
0100
1000
0100
0010
0100
0001
,  // measure 54
0000
1000
0001
0100
0010
1000
0010
0001
,  // measure 55
0010
0000
0100
0000
0110
0000
0000
0000
1001
0000
0000
0000
1000
0001
1000
0001
,  // measure 56
0010
0100
0010
0100
0010
0100
0010
0100
,  // measure 57
1000
0000
0000
0000
0001
0000
0000
0000
1001
0000
0000
0000
,  // measure 58
0100
0000
0010
0000
1000
0000
0010
0000
0100
0000
0001
0000
,  // measure 59
0010
0000
0001
0000
1000
0000
0100
0000
0001
0000
0100
0000
,  // measure 60
1000
0000
0010
0000
0001
0000
0010
0000
0100
0000
0001
0000
,  // measure 61
1000
0000
0100
0000
0001
0000
0100
0000
0010
0000
1000
0000
,  // measure 62
0010
0001
0010
0001
1000
0100
1000
0100
,  // measure 63
1000
0010
1000
0010
0100
0001
0100
0001
,  // measure 64
1000
0010
0100
0010
1000
0001
0010
0100
,  // measure 65
0010
0001
0100
0001
1000
0010
0100
0001
,  // measure 66
1000
0100
1000
0000
0010
0000
0100
0001
0100
0000
0001
0000
,  // measure 67
0010
0001
0010
0000
0100
0000
1000
0001
1000
0000
0010
0000
,  // measure 68
0100
0001
0100
0000
0010
0000
1000
0010
1000
0000
0001
0000
,  // measure 69
0100
0001
0100
0000
0010
0000
1000
0010
1000
0000
0100
0000
,  // measure 70
0010
0001
0000
0010
0001
0000
1000
0100
1000
0100
0000
0000
,  // measure 71
1000
0010
0000
1000
0010
0000
0100
0001
0100
0001
0000
0000
,  // measure 72
0010
1000
0000
0010
1000
0000
0001
0100
0001
0100
0000
0000
,  // measure 73
0001
1000
0000
0001
1000
0000
0010
0100
0010
0100
0000
0000
,  // measure 74
0020
0000
0000
0030
0100
0010
0100
0010
0100
0001
0000
0010
,  // measure 75
0100
1000
0000
0100
0000
0010
0001
1000
0000
0010
0000
0100
,  // measure 76
0001
1000
0000
0010
0000
0100
0010
1000
0010
0100
0000
0001
,  // measure 77
0010
0001
0010
0001
0000
1000
0100
1000
0100
1000
0000
0010
,  // measure 78
0100
0000
0001
0000
0100
0000
0010
0000
0000
0000
0100
0000
0010
0000
1000
0000
0001
0000
0100
0000
0000
0010
0000
0000
,  // measure 79
1000
0000
0001
0000
1000
0000
0001
0000
0000
0010
0000
0000
0001
0000
1000
0000
0100
0000
1000
0000
0000
0010
0000
0000
,  // measure 80
0100
0000
0001
0000
0100
0000
0010
0000
0000
1000
0000
0000
0001
0000
0100
0000
0001
0000
1000
0000
0000
0010
0000
0000
,  // measure 81
1000
0000
0100
0000
1000
0000
0001
0000
0000
0010
0000
0000
0001
0000
0100
0000
0001
0000
1000
0000
0010
0000
0100
0000
,  // measure 82
0001
0010
0100
1000
0001
0100
0010
1000
0001
0200
0000
0000
,  // measure 83
0000
0310
2000
0000
3002
0000
0013
0000
,  // measure 84
0010
0010
1000
0001
1000
0100
0000
0010
,  // measure 85
0100
0010
0100
0010
0100
0010
1000
0001
,  // measure 86
1000
0001
0100
0000
0010
0100
0000
0001
,  // measure 87
1000
0001
1001
0000
0000
0000
0000
0000
,  // measure 88
0010
0010
0010
0010
,  // measure 89
0010
0010
0010
0010
,  // measure 90
0010
0010
0010
0010
0010
0010
0000
1000
,  // measure 91
0010
1000
0010
1000
0010
1000
0010
1000
,  // measure 92
0010
1000
0001
0100
0001
0100
0000
0100
,  // measure 93
0010
1000
0001
0010
0100
0010
0001
1000
,  // measure 94
0010
0100
0010
1000
0010
0200
0000
0301
,  // measure 95
0010
0001
0010
0001
0010
0001
0100
0010
,  // measure 96
1000
0010
1000
0100
1000
0001
0000
0001
,  // measure 97
1000
0010
0100
0010
1000
0001
0100
0010
,  // measure 98
1000
0001
1000
0010
0000
0110
0000
0010
,  // measure 99
0100
0010
0100
0010
0100
0010
0100
0010
,  // measure 100
0100
0010
0100
0001
1000
0001
0000
1000
,  // measure 101
0001
1000
0001
1000
0001
1000
0010
0100
,  // measure 102
0010
0100
0010
1000
0001
0100
0000
0100
,  // measure 103
0010
1000
0010
1000
0010
1000
0001
0100
,  // measure 104
0001
0100
0001
0100
0001
0010
0000
0010
,  // measure 105
0001
1000
0100
0000
0110
0000
1000
0001
,  // measure 106
1000
1001
0000
2200
,  // measure 107
3300
0022
0033
2002
,  // measure 108
3003
0220
0330
2001
,  // measure 109
0001
3020
0100
0230
,  // measure 110
0302
0000
0000
0000
0023
0000
0000
0000
0230
0000
0000
0000
2300
3010
0000
0000
;

//---------------dance-single - ----------------
#NOTES:
     dance-single:
     :
     Challenge:
     19:
     0.943397,1.016363,0.395098,0.169328,0.786668,936.000000,880.000000,56.000000,24.000000,0.000000,0.000000,0.943397,1.016363,0.395098,0.169328,0.786668,936.000000,880.000000,56.000000,24.000000,0.000000,0.000000:
0000
0000
0010
0110
,
1000
0000
1000
0001
0100
0010
0100
0000
0100
0010
1000
0001
,
0010
0000
0010
0001
1000
0100
1000
0010
0100
0001
0010
0001
,
0100
0000
0100
0010
1000
0010
0100
0000
0100
0001
0010
0001
,
2001
0000
0000
3010
0000
0100
0010
1000
0100
0010
0000
0010
,
0001
0100
0010
0100
0000
0100
0010
1000
0001
0010
0000
0001
,
1000
0010
0100
0001
0000
1000
0001
1000
0001
0100
0000
0010
,
0100
0010
0100
0001
0010
0100
0010
0001
1000
0100
0010
0100
,
1000
0000
0010
0000
0100
0000
0002
0000
0000
0000
0000
0000
0000
0000
0000
0000
0000
0000
0000
0000
0000
1000
0000
0000
,
1000
1000
1000
1000
1000
1000
1000
1000
,
1003
1001
0000
0100
0010
0100
0001
0100
,
0010
0100
0010
1000
0001
1000
0001
0001
,
0001
0100
0000
0010
0100
1000
0100
0010
,
0001
0010
1000
0001
1000
0100
0010
0100
,
1000
1001
0000
0001
0100
0010
1000
0001
,
0010
0100
1000
0010
1000
0100
0010
0001
,
1000
0010
0000
0010
1000
0100
1000
0001
,
0010
0001
0100
0010
0110
0000
1001
0000
,
0000
0220
0000
0000
,
0330
0000
1001
0000
0000
1001
0000
0000
,
1001
0000
0000
1001
0000
0000
1001
0000
,
0000
1001
0000
0000
0110
0000
0000
0000
,
0001
0000
0000
0010
0000
0000
0100
0000
0000
1000
0000
0000
0010
0000
0000
0000
0000
0000
0000
0000
0010
0000
0000
0000
0100
0000
0000
0000
0000
0000
0001
0000
0000
0000
0000
0000
1000
0000
0000
0000
0000
0000
0010
0000
0000
0000
0000
0000
,
0100
0000
0000
0010
0000
0000
1000
0000
0000
0000
1000
0000
0100
0000
0000
0010
0000
0000
0001
0000
0000
1000
0000
0000
,
0010
0000
0000
0100
0000
0000
0001
0000
0000
0000
0000
0000
0010
0000
0000
0000
0000
0000
0000
0000
0100
0000
0000
0000
1000
0000
0000
0000
0000
0000
0001
0000
0000
0000
0000
0000
0010
0000
0000
0000
0000
0000
0100
0000
0000
0000
0000
0000
,
0001
0100
0020
0001
0001
0031
1000
0010
,
0100
0000
0000
0010
0000
0000
1000
0000
0000
0000
0000
0000
0100
0000
0000
0000
0000
0000
0000
0000
0010
0000
0000
0000
0001
0000
0000
0000
0000
0000
0010
0000
0000
0000
0000
0000
0100
0000
0000
0000
0000
0000
1000
0000
0000
0000
0000
0000
,
0010
0100
0001
1000
0100
1000
0010
0010
,
0100
0000
0000
0001
0000
0000
0010
0000
0000
0000
0000
0000
0100
0000
0000
0000
0000
0000
0000
0000
1000
0000
0000
0000
0001
0000
0000
0000
0000
0000
0010
0000
0000
0000
0000
0000
0100
0000
0000
0000
0000
0000
0010
0000
0000
0000
0000
0000
,
0001
1000
0010
0100
0010
1000
1001
0110
,
1001
0000
0000
0000
0000
0000
0010
0000
0000
0000
0100
0000
0010
0000
0000
1000
0000
0000
0010
0000
0000
0100
0000
0000
,
0010
0000
0001
0000
0010
0000
0010
0000
0010
0000
0010
0000
1000
0001
1000
0000
,
0010
0000
0100
0000
0001
0000
0010
0000
0001
1000
0010
0000
1000
0000
0010
0000
,
0100
0010
1000
0000
0001
0000
0010
0000
0001
1000
0100
0010
0001
0000
1000
0000
,
0010
0000
0010
0000
0100
0000
0001
0000
1000
0010
0100
0000
0001
0000
0010
0000
,
0001
1000
0100
0000
1000
0000
0010
0000
1000
0001
1000
0001
0100
0000
0010
0000
,
0100
0000
0000
0000
0000
0000
0100
0000
0000
0000
0000
0000
0001
0000
0000
0000
0000
0000
1000
0000
0000
0000
0000
0000
0010
0000
0000
0100
0000
0000
0001
0000
0000
0000
0000
0000
1000
0000
0000
0000
0010
0000
0000
0000
0100
0000
0000
0000
,
0001
0000
0000
0000
0010
0000
0000
0000
0100
0000
0000
0000
1000
0000
0000
0000
0000
0000
0001
0000
0000
0000
0000
0000
0100
0000
0000
0010
0000
0000
0100
0000
0000
0010
0000
0000
0100
0000
0000
0000
0000
0000
0001
0000
0000
0000
0000
0000
,
1000
0001
2002
0000
3003
0000
0210
0010
,
0010
0310
1000
0001
0010
0100
1000
0010
,
0001
0011
0000
1000
0010
1000
0001
1000
,
0010
0100
0010
1000
0010
0100
0001
0001
,
0001
1001
0000
0010
0100
0010
1000
0010
,
0100
0010
1000
0100
0010
0001
0010
0100
,
1000
1001
0000
0010
0100
0001
0100
0010
,
1000
0100
1000
0001
0010
1000
0010
1000
,
0001
0100
0000
0100
1000
0010
1000
0001
,
0100
0000
0010
0000
0001
0000
0010
0000
1000
0000
0010
0000
0100
0110
0100
0110
,
0000
0010
1000
0001
0100
0010
1000
0001
,
0010
0001
1000
0100
0001
0100
1000
1001
,
0000
0010
1000
0010
0100
0001
0100
1000
,
0100
0010
0001
0010
1000
0001
1000
1001
,
0000
0010
0100
0001
1000
0010
0100
0010
,
1000
0100
0001
0100
1000
0010
0001
0011
,
0000
1000
0010
1000
0001
0100
0001
0010
,
0001
0000
1000
0000
1100
0000
0000
0000
0011
0000
0000
0000
1000
0100
0010
0001
,
1000
0001
1000
0001
1000
0001
1000
0001
,
0110
0000
0000
0000
1001
0000
0000
0000
0110
0000
0000
0000
,
0100
0000
0001
0000
1000
0000
0100
0000
1000
0000
0010
0000
,
0100
0000
0001
0000
0010
0000
0001
0000
1000
0000
0010
0000
,
0100
0000
0001
0000
1000
0000
0010
0000
1000
0000
0100
0000
,
0010
0000
0001
0000
0100
0000
0001
0000
1000
0000
0100
0000
,
0010
0100
1000
0100
0010
0001
1000
0100
,
1000
0010
0100
1000
0100
0001
0010
0001
,
1000
0100
0001
0100
1000
0001
0010
1000
,
0010
0001
0010
1000
0001
0100
1000
0010
,
1000
0100
0010
0100
1000
0001
0100
0010
1000
0010
0100
0001
,
0100
0010
1000
0100
1000
0001
0010
0001
0100
0010
1000
0001
,
0010
0001
1000
0100
1000
0001
0010
0001
0100
0010
1000
0001
,
1000
0100
0010
0001
0010
0100
1000
0001
0010
0100
1000
0100
,
0010
0100
1000
0100
0010
0100
0010
0001
0010
0100
0010
0001
,
1000
0001
1000
0001
1000
0001
0100
0010
0100
0010
0100
0010
,
1000
0010
0100
0010
1000
0001
0010
0100
0010
0001
1000
0010
,
1000
0001
0100
0010
0100
0001
0010
0100
1000
0001
0010
0100
,
0020
0000
0000
0000
0100
0100
0100
0100
0130
1000
0001
0010
,
0100
0010
0001
1000
0100
0010
0100
1000
0001
0100
0010
0100
,
0001
1000
0010
0100
0010
1000
0001
0010
0100
0010
0001
1000
,
0100
1000
0010
0100
0001
0010
0001
1000
0001
0100
0001
1000
,
0010
1000
0001
0100
0010
1000
0100
1000
0001
0010
0100
1000
,
0010
0100
0001
0010
1000
0010
0001
0100
1000
0100
0001
0010
,
0100
1000
0100
1000
0010
1000
0001
0100
0001
1000
0010
0100
,
0001
1000
0001
0010
0100
1000
0001
0010
0001
1100
0000
0011
,
0000
1001
0000
1010
0000
0101
0000
1001
0000
0210
0000
0000
,
0301
0010
0200
0000
2300
0000
3020
0000
,
0130
0010
0100
0001
1000
0020
0000
0130
,
0001
1000
0001
0010
0100
1000
0010
0100
,
0001
0010
0200
0000
0310
0001
0000
1000
,
0001
1000
2002
0000
0000
0000
3003
0000
,
0110
0110
0110
0110
,
0001
0001
1000
1000
,
0010
0010
0010
0010
0010
0110
0000
0010
,
1000
0001
0100
0010
1000
0001
0100
0001
,
0010
0100
1000
0010
0100
0020
0000
1030
,
0100
0001
0100
0010
0100
1000
0001
0010
,
0100
0010
1000
0010
0100
2000
0000
3010
,
0100
0001
0100
0010
1000
0100
0010
0001
,
0100
0010
1000
0100
0001
0200
0000
0310
,
0001
0010
0001
0100
1000
0100
0010
1000
,
0010
0100
0010
0100
0000
0110
0000
0001
,
1000
0010
0100
0001
1000
0010
0100
0001
,
1000
0010
0100
0001
0100
0020
0000
1030
,
0100
1000
0001
0100
0010
0100
0001
0010
,
0100
1000
0010
0100
0001
0020
0000
0031
,
1000
0100
0010
0100
1000
0100
0010
0001
,
0100
0010
1000
0001
0010
0100
0000
0010
,
0100
1000
0001
0010
0100
0010
0001
1000
,
0001
0000
1001
0000
0100
0010
1010
0000
,
0100
0001
1001
0000
1000
0001
0101
0000
,
0010
0100
1100
0000
1000
0001
0011
0000
,
1000
0001
1001
0000
0100
0010
0110
0000
,
1000
0000
0000
0000
0000
0000
0001
0000
0000
0000
0000
0000
0100
0000
0000
0000
0000
0000
0010
0000
0000
0000
0000
0000
1000
0000
0000
0000
0000
0000
0001
0000
0000
0000
0000
0000
0220
0000
0330
1001
0000
0000
0000
0000
0000
0000
0000
0000
;
