#TITLE:TRIUMPH;
#SUBTITLE:;
#ARTIST:AJURIKA;
#TITLETRANSLIT:;
#SUBTITLETRANSLIT:;
#ARTISTTRANSLIT:;
#GENRE:UK HARDCORE;
#CREDIT:;
#BANNER:TRIUMPH_banner.png;
#BACKGROUND:TRIUMPH.png;
#LYRICSPATH:;
#CDTITLE:;
#MUSIC:TRIUMPH.ogg;
#OFFSET:-0.340000;
#SAMPLESTART:83.760002;
#SAMPLELENGTH:15.000000;
#SELECTABLE:YES;
#BPMS:0.000000=183.000000
;
#STOPS:
;
#BGCHANGES:;
#KEYSOUNDS:;
#ATTACKS:;

//---------------dance-single - ----------------
#NOTES:
     dance-single:
     :
     Easy:
     7:
     0.335046,0.373892,0.195444,0.118966,0.000000,276.000000,253.000000,23.000000,14.000000,0.000000,0.000000,0.335046,0.373892,0.195444,0.118966,0.000000,276.000000,253.000000,23.000000,14.000000,0.000000,0.000000:
0000
0000
0000
0000
,
0000
0000
0000
0000
,
0000
0000
0000
0000
,
0000
0000
0000
0000
,
0010
0001
0010
0100
,
1000
0000
0000
0001
0000
0000
1000
0000
,
0010
1000
0100
1000
,
2002
0000
0000
0000
0000
3003
0000
0000
,
0001
0100
0001
0100
,
0010
1000
0010
0000
,
1000
0100
1000
0100
,
0010
0001
0010
0000
,
0001
1000
0100
1000
,
0010
0100
0010
0000
,
0100
0000
0110
0000
,
0001
1000
0020
0000
,
0130
0000
0001
0000
,
0000
0000
1000
0000
,
0000
0000
0010
0000
,
0000
0000
0100
0000
,
0010
1000
0010
0000
,
0100
0001
0100
0000
,
0001
1000
0010
0000
,
0220
0000
0000
0000
0000
0330
0000
0000
,
1000
0010
1010
0000
,
0001
0010
0011
0000
,
1000
0001
0100
0001
,
1000
0000
1100
0000
,
0010
0001
0010
0000
,
0100
1000
0100
0000
,
1000
0001
1000
0000
,
2002
0000
0000
0000
0000
3003
0000
0000
,
1000
0100
1000
0000
,
0001
0100
0001
0000
,
0100
0010
0100
0010
,
2000
0000
3002
0000
,
0103
0010
0110
0000
,
1000
0001
1001
0000
,
0001
0100
0010
1000
,
0200
0000
0000
0300
,
0010
0000
0011
0000
,
1000
0000
1010
0000
,
0010
1000
0100
1000
,
0010
0000
0110
0000
,
0100
0001
0100
0000
,
0001
1000
0001
0000
,
0010
0001
0100
0001
,
0010
0000
1001
0000
,
0010
0010
0010
0000
,
0100
0100
0100
0000
,
0001
0001
0001
0000
,
1000
1000
1000
0000
,
0010
1000
0010
0000
,
0100
0001
0100
0000
,
0001
0010
0100
0010
,
0001
1000
0001
0000
,
1000
1000
1010
0000
,
0001
0001
0011
0000
,
1000
0010
0100
0010
,
1000
0000
1001
0000
,
0001
0001
1000
1000
,
0010
0010
0100
0100
,
0001
1000
0100
0010
,
0220
0000
0000
0000
0000
0330
0000
0000
,
0001
0010
0001
1000
,
0010
1000
0100
0000
,
1000
0010
1000
0100
,
0010
0001
1000
0000
,
0010
1000
0100
1000
,
0001
0010
0001
0000
,
0100
0010
1000
0010
,
1010
0000
0101
0000
,
0001
0010
0100
1000
,
0010
1000
0100
0000
,
1000
0100
0010
0001
,
0100
0001
0010
0000
,
0001
1000
0010
1000
,
0001
0100
0001
0000
,
0010
1000
0100
1000
,
0010
0000
0110
0000
,
1000
0100
0001
0100
,
1000
0100
0001
0100
,
1000
0010
0001
0010
,
1000
0010
0001
0010
,
2000
0000
3002
0000
,
0103
0010
1000
0001
,
1000
0010
1010
0000
,
0001
0100
0101
0000
,
0110
0000
0000
0000
;

//---------------dance-single - ----------------
#NOTES:
     dance-single:
     :
     Medium:
     11:
     0.511067,0.560042,0.186946,0.093473,0.004249,421.000000,399.000000,22.000000,11.000000,0.000000,0.000000,0.511067,0.560042,0.186946,0.093473,0.004249,421.000000,399.000000,22.000000,11.000000,0.000000,0.000000:
0000
0000
0000
0000
,
0000
0000
0000
0000
,
0000
0000
0000
0000
,
0000
0000
0000
0000
,
1000
0000
0010
1000
0000
0001
0100
0000
,
0001
0000
0010
0001
0000
1000
0100
0000
,
1000
0001
1000
0001
0100
0000
0110
0000
,
0010
0000
0000
1000
0000
0000
0002
0000
0000
0000
0000
0000
0000
0000
0000
0000
,
0103
0000
0010
1000
0000
1000
0000
1000
,
0000
0001
0000
0001
0100
0000
0010
0000
,
1000
0000
0010
0100
0000
0100
0000
0100
,
0000
0001
0000
0001
0010
0000
0011
0000
,
0001
0000
1000
0100
0000
0100
0000
0100
,
0000
0010
0000
0010
0001
0000
1001
0000
,
1000
0000
0010
0100
0000
0100
0000
0100
,
0000
0001
0000
0001
1000
0000
0010
0000
,
0100
0000
0010
0100
0000
0010
0000
0100
,
0000
0010
0000
1000
0001
0000
1000
0000
,
0001
0000
0010
0001
0000
1000
0000
0001
,
0000
1000
0000
0010
0100
0000
0010
0000
,
1000
0000
0100
1000
0000
0001
0000
1000
,
0000
0010
0000
0100
0001
0000
0010
0000
,
0001
0000
0100
0010
0000
1000
0000
0010
,
0000
0100
0000
0001
1000
0000
0010
0000
,
0100
0001
0011
0000
,
1000
0010
2010
3001
,
0100
0010
0110
0000
,
0100
0010
1000
0000
0001
0000
1001
0000
,
1000
0010
0101
0000
,
0001
0010
1100
0000
,
1000
0001
1000
0000
0010
0100
0010
0000
,
1000
0010
0100
0001
,
0010
0001
0101
0000
,
1000
0010
1100
0000
,
1000
0000
0010
0100
0000
0001
0000
1000
,
0001
0010
0100
1000
,
0001
0100
0001
0000
0101
0000
0000
0000
,
1000
0100
1000
0000
1100
0000
0000
0000
,
0010
0100
0010
0000
0110
0000
0000
0000
,
1000
0010
0100
0000
0001
0010
0100
0000
,
2000
0010
3001
0000
,
0002
0010
1003
0000
,
0200
0010
0301
0000
,
0020
0100
1030
0000
,
0001
1000
1001
0010
,
0100
0001
0100
0000
1001
0000
0000
0000
,
1000
0000
0010
1000
0000
0010
1000
0000
,
0001
0000
0100
0001
0000
0100
0001
0000
,
0020
0001
0000
0031
,
2000
0100
0000
3100
,
0002
0010
0000
0013
,
0200
0010
0000
0310
,
1000
0000
0001
1000
0000
0001
0100
0000
,
0010
0000
1000
0010
0000
0100
0010
0000
,
0100
0001
0100
0000
0010
0000
1000
0000
,
0001
0010
0001
0000
1000
0010
1000
0000
,
0001
0100
0010
0000
1000
0000
1100
0000
,
0100
1000
0100
0000
0010
0000
0011
0000
,
0001
1000
0001
0000
0100
0010
0100
0000
,
0010
1000
0001
0100
,
0010
1000
0010
0000
0100
0001
0100
0000
,
0001
0010
0001
0000
1000
0100
1000
0000
,
0001
1000
0001
1000
0010
0100
0010
0100
,
0001
1000
0000
1001
0000
0010
0010
0000
,
0100
0001
0000
0001
1000
0100
1000
0000
,
0010
0100
0000
0100
0000
0001
1000
0000
,
0100
0000
1000
0010
0000
0010
0100
0000
,
0001
0010
0000
0100
0000
1000
0100
1000
,
0001
1000
0000
1000
0010
0100
0010
0000
,
0100
0001
1000
0001
0000
0010
0010
0000
,
0001
1000
0001
0100
0000
0100
0010
0000
,
1000
0001
0000
1001
0000
0100
0100
0000
,
0010
1000
0000
1000
0001
0100
0010
0000
,
1000
0010
0000
0100
0000
0001
0010
0000
,
0001
1000
0100
1000
0000
0010
0100
0000
,
0001
1000
0000
0100
0000
0010
0001
0000
,
1000
0010
0000
0010
0100
0001
0100
0000
,
0010
1000
0000
0100
0000
1000
0001
0000
,
0010
0001
0010
0100
0000
1000
0001
0000
,
0100
0010
0000
0110
0000
1000
0001
0000
,
1000
0100
0001
0000
0001
0100
1000
0000
,
1000
0100
0001
0000
0001
0100
1000
0000
,
0001
0010
1000
0000
1000
0010
0001
0000
,
0001
0010
1000
0000
1000
0010
0001
0000
,
2000
0000
0010
0000
3010
0100
0001
0000
,
0010
0001
1000
0001
0000
0100
0100
0000
,
0010
1000
0010
0100
0000
0001
0010
0000
,
0001
1000
0000
1100
0000
1000
0010
0100
;

//---------------dance-single - ----------------
#NOTES:
     dance-single:
     :
     Hard:
     15:
     0.802411,0.821978,0.543843,0.127463,0.271922,661.000000,597.000000,64.000000,15.000000,0.000000,0.000000,0.802411,0.821978,0.543843,0.127463,0.271922,661.000000,597.000000,64.000000,15.000000,0.000000,0.000000:
// measure 0
0000
0000
0000
0000
,  // measure 1
0000
0000
0000
0000
,  // measure 2
0000
0000
0000
0000
,  // measure 3
0000
0000
0000
0000
,  // measure 4
1000
0010
0100
0010
1000
0001
1000
0001
,  // measure 5
0010
0100
1000
0001
0000
0001
1000
0100
,  // measure 6
0010
0000
0001
0000
0100
0000
0010
0000
1000
0010
1000
0010
0100
0001
0100
0001
,  // measure 7
1000
0000
0000
0010
0000
0000
0220
0000
0000
0000
0000
0000
0330
0000
0000
0000
,  // measure 8
0001
0000
0001
0010
0000
1100
0000
0101
,  // measure 9
0000
0000
1100
0000
0000
0000
0001
0010
0001
0000
0000
0000
1001
0000
0000
0000
,  // measure 10
1010
0000
0100
0010
0000
1010
0000
0011
,  // measure 11
0000
1010
1000
0100
0001
0000
1001
0000
,  // measure 12
1001
0000
0010
1010
0000
0101
0000
1100
,  // measure 13
0000
0000
0011
0000
0000
0000
1000
0100
1000
0000
0000
0000
1001
0000
0000
0000
,  // measure 14
0011
0000
0010
0100
0000
1100
0000
0101
,  // measure 15
0000
0000
0011
0000
0010
0000
0100
0000
1000
0000
0000
0001
0000
0000
1000
0000
,  // measure 16
0010
0000
0010
1000
0000
0110
0000
0110
,  // measure 17
0000
0000
0100
0000
0001
0000
0010
0001
1000
0000
0000
0000
1100
0000
0000
0000
,  // measure 18
0100
0000
1000
0010
0000
0110
0000
0110
,  // measure 19
0000
0000
0100
0000
0001
0000
1000
0010
1000
0000
0000
0000
0101
0000
0000
0000
,  // measure 20
0011
0000
0010
0001
0000
1100
0000
0101
,  // measure 21
0000
0000
1010
0000
1000
0000
0001
0100
0001
0000
0000
0000
1001
0000
0000
0000
,  // measure 22
0110
0000
0010
1000
0000
0011
0000
1010
,  // measure 23
0000
0000
1000
0000
0001
0000
0100
0010
0100
0000
0000
0010
0000
0000
1000
0000
,  // measure 24
0001
0000
0010
0001
1000
0000
0100
0000
1000
0000
0000
0000
1001
0000
0000
0000
,  // measure 25
0010
0000
0000
0010
0000
0000
0010
0000
0100
0001
1000
0001
0100
0000
0010
0000
,  // measure 26
0110
0000
0010
1000
0000
1000
0100
1000
,  // measure 27
0001
0000
0010
0000
0001
0000
0100
0000
0010
1000
0001
1000
0100
0000
1000
0000
,  // measure 28
0010
0000
1000
0001
0100
0000
0001
0000
0010
0000
0000
0000
0110
0000
0000
0000
,  // measure 29
1000
0000
0000
1000
0000
0000
1000
0000
0001
0010
0100
0010
0001
0000
1000
0000
,  // measure 30
1001
0000
0100
0010
0000
0010
1000
0100
,  // measure 31
1000
0000
0100
0000
0001
0000
0100
0000
1000
0010
0100
0010
1000
0000
0001
0000
,  // measure 32
0010
0000
0100
0010
0100
0000
0010
0000
0001
0000
0000
0000
1001
0000
0000
0000
,  // measure 33
1000
0000
0000
0010
0000
0000
0100
0000
0001
1000
0100
1000
0001
0000
1000
0000
,  // measure 34
1001
0000
0100
0010
0000
0010
1000
0100
,  // measure 35
0010
0000
0001
0000
1000
0000
0010
0000
0100
0001
1000
0001
0100
0000
0010
0000
,  // measure 36
1000
0000
0100
1000
0100
0000
0010
0000
0001
0000
0000
0000
1001
0000
0000
0000
,  // measure 37
0100
0000
0000
0100
0000
0000
0100
0000
0010
1000
0001
1000
0010
0000
0000
0000
,  // measure 38
0110
0000
0100
0001
0000
1000
0100
1000
,  // measure 39
0010
1000
0001
0010
1000
0001
0100
0000
,  // measure 40
2100
0100
3100
0000
0001
0010
0100
0000
,  // measure 41
1000
0000
0000
0001
0000
0000
1000
0000
0001
0100
0010
0100
0001
0000
1000
0000
,  // measure 42
0010
0100
0001
0100
0000
0010
1000
0010
,  // measure 43
1000
0100
0001
1000
0010
0001
1000
0001
,  // measure 44
0200
0010
0310
1000
0001
0010
0100
1000
,  // measure 45
0001
0000
0000
0100
0000
0000
0001
0000
1000
0010
0100
0010
1000
0000
0001
0000
,  // measure 46
0001
0100
0010
1000
0000
1000
0100
0010
,  // measure 47
0100
0000
1000
0000
0001
0000
0100
0000
0010
0000
0100
0000
0010
0100
0010
0000
,  // measure 48
2000
0100
0001
3100
,  // measure 49
1002
0010
1000
0013
,  // measure 50
0210
0001
0010
0301
,  // measure 51
0120
1000
0100
1030
,  // measure 52
1000
0001
1000
0010
0100
0001
0010
0100
,  // measure 53
1000
0010
0100
0001
1000
0100
0001
0100
,  // measure 54
1000
0010
0100
0010
1000
0001
0010
0100
,  // measure 55
0010
0001
1000
0010
0100
0001
0010
1000
,  // measure 56
0010
0010
0010
0000
0110
0000
1001
0000
,  // measure 57
0120
0100
0130
0000
1001
0000
0110
0000
,  // measure 58
0210
0010
0310
0000
0110
0000
1001
0000
,  // measure 59
0120
0100
0130
0000
1001
0000
0110
0000
,  // measure 60
1000
0010
1000
0010
0100
0001
0100
0001
,  // measure 61
0010
0100
0010
0100
1000
0001
1000
0001
,  // measure 62
0010
0001
0010
0000
0100
1000
0100
0000
1000
0010
1000
0000
0001
0100
0001
0000
,  // measure 63
0100
0010
0000
0210
0000
0001
0001
0301
,  // measure 64
1000
0000
0010
0000
0000
0000
0010
0000
0100
0000
0001
0000
0010
0001
1000
0000
,  // measure 65
0100
0010
0001
0010
0000
0010
0100
1000
,  // measure 66
0100
1000
0010
0100
0000
0100
0001
1000
,  // measure 67
0010
0100
0000
1010
0000
0001
0100
0010
,  // measure 68
1000
0000
0001
0000
0000
0000
0001
0000
0010
0000
0001
0000
0100
0010
0100
0000
,  // measure 69
0010
1000
0100
1000
0000
0010
0100
0010
,  // measure 70
1000
0001
0010
0001
0100
0010
1000
0010
,  // measure 71
0001
0010
0000
0210
0000
1000
1000
1300
,  // measure 72
0100
0000
0001
0000
0000
0000
0001
0000
0010
0000
0001
0000
1000
0100
1000
0000
,  // measure 73
0010
0100
0001
1000
0000
1000
0010
0100
,  // measure 74
0010
1000
0100
0001
0000
0001
0100
1000
,  // measure 75
0010
1000
0000
0110
0000
0100
0001
0010
,  // measure 76
0001
0000
1000
0000
0010
0000
0100
0000
0001
0000
0010
0000
0001
1000
0001
0000
,  // measure 77
0100
0010
1000
0100
0000
1100
1000
0001
,  // measure 78
0010
0100
1000
0100
0010
0001
1000
0001
,  // measure 79
0100
0010
0000
2010
0000
0001
0001
3001
,  // measure 80
0100
0000
0010
0000
1000
0010
1000
0000
0010
0000
0100
0000
0001
0010
0001
0000
,  // measure 81
1000
0000
0100
0000
1000
0010
1000
0000
0001
0000
0100
0000
0001
0010
0001
0000
,  // measure 82
1000
0000
0010
0000
0100
0010
0100
0000
0001
0000
0010
0000
0100
0010
0100
0000
,  // measure 83
1000
0000
0100
0000
1000
0001
1000
0000
0001
0000
0100
0000
0001
0010
0001
0000
,  // measure 84
2000
0010
0010
3010
0100
0001
0010
0001
,  // measure 85
0100
0010
1000
0100
1000
0001
0010
0100
,  // measure 86
1000
0010
1000
0000
0001
0000
0100
0000
0001
0010
0001
0000
0100
0000
0010
0000
,  // measure 87
1000
0000
1010
0000
0000
0000
0001
0000
0100
0001
0100
0010
1000
0100
0001
0100
;
