#TITLE:太陽~T・A・I・Y・O~;
#SUBTITLE:;
#ARTIST:NAOKI feat.星野奏子;
#TITLETRANSLIT:TAIYO;
#SUBTITLETRANSLIT:;
#ARTISTTRANSLIT:NAOKI feat.Kanako Hoshino;
#GENRE:CYBER J-EURO;
#CREDIT:;
#BANNER:TAIYO_banner.png;
#BACKGROUND:TAIYO.png;
#LYRICSPATH:;
#CDTITLE:;
#MUSIC:TAIYO.ogg;
#OFFSET:-0.450000;
#SAMPLESTART:40.680000;
#SAMPLELENGTH:12.500000;
#SELECTABLE:YES;
#BPMS:0.000000=155.000000
;
#STOPS:
;
#BGCHANGES:;
#KEYSOUNDS:;
#ATTACKS:;

//---------------dance-single - ----------------
#NOTES:
     dance-single:
     :
     Easy:
     5:
     0.232442,0.250322,0.098341,0.098341,0.000000,182.000000,171.000000,11.000000,11.000000,0.000000,0.000000,0.232442,0.250322,0.098341,0.098341,0.000000,182.000000,171.000000,11.000000,11.000000,0.000000,0.000000:
0000
0000
0000
0000
,
0000
0000
0000
0000
,
0000
0000
0000
0000
,
0000
0000
0000
0000
,
1000
0000
1000
0000
,
0001
0000
0001
0000
,
0100
0000
0010
0000
,
0100
0000
0010
0000
,
1000
0010
1000
0000
,
0001
0100
0001
0000
,
0100
0010
0100
0000
,
0010
0000
1001
0000
,
0001
0010
0001
0000
,
1000
0100
1000
0000
,
0010
0100
0010
0000
,
1000
0000
1001
0000
,
0002
0000
0103
0000
,
0010
1000
0010
0000
,
0200
0000
0301
0000
,
1000
0000
1100
0000
,
2000
0000
3010
0000
,
0100
0001
0100
0000
,
0002
0000
0013
0000
,
2000
0000
3010
0000
,
0220
0000
0330
0000
,
2002
0000
3003
0000
,
0001
0000
0100
0010
,
1000
0000
0100
0000
,
1000
0000
0010
0100
,
0001
0000
0010
0000
,
0001
0100
0001
0000
,
1000
0100
1000
0000
,
0010
0100
0010
0000
,
0100
0010
0110
0000
,
0001
0000
0010
0001
,
0010
0000
0001
1000
,
0100
0000
1000
0010
,
1000
0000
0010
0100
,
0010
0000
1000
0000
,
0001
0100
0001
0000
,
1000
0000
0010
0000
,
1000
0100
0010
0001
,
0100
0000
0010
0000
,
1000
0000
0001
0000
,
0010
0000
0100
0000
,
1000
0000
0001
0000
,
0100
0010
0100
0000
,
0001
1000
0001
0000
,
1010
0000
0001
0000
,
0101
0000
1000
0000
,
0010
0100
0010
0000
,
2002
0000
3003
0000
,
0010
1000
0100
0000
,
0010
0001
0100
0000
,
0001
0010
1000
0000
,
1000
0010
0001
0000
,
0100
0010
1000
0000
,
0001
0100
0010
0000
,
1000
0100
0001
0000
,
0001
0100
1000
0000
,
0010
0100
0001
0000
,
1000
0001
0100
0000
,
0001
0010
0100
0000
,
1000
0000
0101
0000
,
0010
1000
0100
0000
,
0010
0001
0100
0000
,
0001
0000
1000
0010
,
0100
0000
0110
0000
,
1000
0001
0100
0000
,
0010
1000
0001
0100
,
0010
0000
0000
0000
;

//---------------dance-single - ----------------
#NOTES:
     dance-single:
     :
     Medium:
     9:
     0.409966,0.437281,0.116221,0.196681,0.125161,321.000000,308.000000,13.000000,22.000000,0.000000,0.000000,0.409966,0.437281,0.116221,0.196681,0.125161,321.000000,308.000000,13.000000,22.000000,0.000000,0.000000:
0000
0000
0000
0000
,
0000
0000
0000
0000
,
0000
0000
0000
0000
,
0000
0000
0000
0000
,
1000
0000
0000
0100
0000
0000
1000
0000
0001
0000
0000
0000
0100
0000
0000
0000
,
0010
0000
0000
1000
0000
0000
0010
0000
0100
0000
0000
0000
0010
0000
0000
0000
,
0100
0000
0000
0001
0000
0000
0100
0000
0001
0000
0000
0000
0010
0000
0000
0000
,
0001
0000
0000
0100
0000
0000
0010
0000
0200
0000
0000
0000
0301
0000
0000
0000
,
0001
0000
0010
0001
0010
0000
0100
0000
,
1000
0000
0010
1000
0010
0000
0100
0000
,
0001
1000
0001
0000
0100
0010
0100
0000
,
0010
0100
2002
3003
,
0001
0000
0000
0010
0000
0000
0001
0000
1000
0000
0000
0000
0100
0000
0000
0000
,
1000
0000
0000
0010
0000
0000
1000
0000
0001
0000
0000
0000
0100
0000
0000
0000
,
0020
0000
0000
0000
0000
0000
0000
0000
1030
0000
0000
0100
0000
0000
1000
0000
,
0001
0100
0011
0000
,
0100
0000
0000
0010
0000
0000
0100
0000
0001
0000
0000
0000
1000
0000
0000
0000
,
0010
0000
0000
1000
0000
0000
0100
0000
0020
0000
0000
0000
0030
0000
0000
0000
,
0001
0000
0000
0100
0000
0000
0010
0000
0100
0000
0000
0000
0010
0000
0000
0000
,
2002
3003
0010
0010
,
0100
0000
0000
0010
0000
0000
1000
0000
0010
0000
0000
0000
0100
0000
0000
0000
,
0001
0000
0000
0100
0000
0000
0010
0000
0100
0000
0000
0000
0010
0000
0000
0000
,
1020
0000
0130
0000
,
1000
0100
0010
0001
,
2002
0000
3003
0000
0010
0100
0010
0100
,
0002
0000
0000
0003
,
0010
0000
0001
0010
0001
0000
1000
0000
,
0100
0000
1000
0010
2000
0000
0000
0000
,
3010
0000
0100
0001
0100
0000
0010
0000
,
1000
0000
0001
0010
0100
0000
0000
0000
,
1001
0000
0010
0001
0010
0000
0001
0000
,
1001
0200
0310
0000
,
0100
0000
0001
0010
0001
0000
1000
0000
,
0010
0000
0000
0100
0000
0000
0001
0000
1000
0000
0000
0000
0000
0000
0000
0000
,
1000
0000
0000
0010
0000
0000
1000
0000
0010
0000
0000
0000
1000
0000
0000
0000
,
0001
0000
0000
0010
0000
0000
0001
0000
0010
0000
0000
0000
0001
0000
0000
0000
,
0100
0000
0000
0010
0000
0000
0100
0000
0010
0000
0000
0000
0100
0000
0000
0000
,
0010
1000
0010
0000
0100
0001
0100
0000
,
0001
0000
0000
1000
0000
0000
0010
0000
1000
0000
0000
0000
0100
0000
0000
0000
,
1000
0000
0000
0010
0000
0000
1000
0000
0001
0000
0000
0000
0100
0000
0000
0000
,
0001
0010
0001
0000
1000
0100
1000
0000
,
0010
0100
0001
0100
0010
0000
1000
0000
,
0001
0001
0000
0000
1000
1000
0000
0000
,
0100
0100
0000
0000
0010
0000
0010
0000
,
0001
0001
0000
0000
0010
0010
0000
0000
,
2100
0000
3001
0001
,
0100
0000
0000
0010
0000
0000
0100
0000
0001
0000
0000
0000
0010
0000
0000
0000
,
0001
0000
0000
1000
0000
0000
0100
0000
1000
0000
0000
0000
0010
0000
0000
0000
,
0210
0000
0301
0000
,
0120
0000
1030
0000
,
1000
0000
0001
0000
1000
0001
1000
0001
,
0200
0000
0010
0310
,
1000
0000
0100
1000
0100
0000
1000
0000
,
0001
0000
0100
0001
0100
0000
0010
0000
,
0100
0010
1000
0000
0001
0010
0100
0000
,
1000
0001
2002
3003
,
0010
0000
0000
0100
0000
0000
0010
0000
2000
0000
0000
0000
3100
0000
0000
0000
,
0010
0000
0000
0001
0000
0000
0100
0000
0002
0000
0000
0000
0013
0000
0000
0000
,
0001
0000
0000
1000
0000
0000
0010
0000
1000
0000
0000
0000
0001
0000
0000
0000
,
0100
0000
0000
0010
0000
0000
0100
0000
0010
0000
0000
0000
0110
0000
0000
0000
,
1000
0000
0000
0100
0000
0000
0010
0000
0100
0000
0000
0000
1000
0000
0000
0000
,
0001
0000
0000
0100
0000
0000
0010
0000
0100
0000
0000
0000
0101
0000
0000
0000
,
0010
1000
0010
0000
0100
0001
0100
0000
,
0010
1000
0001
0010
0002
0000
0103
0000
,
0010
0000
0000
1000
0000
0000
0100
0000
1000
0000
0000
0000
0010
0000
0000
0000
,
0100
0000
0000
0001
0000
0000
0010
0000
0001
0000
0000
0000
0100
0000
0000
0000
,
0001
0010
0001
0000
1000
0100
1000
0000
,
0010
0100
0010
0000
0100
0010
0100
0000
,
0001
0010
0100
0000
1000
0100
0010
0000
,
0001
0100
0010
1000
0100
0010
0001
0100
;

//---------------dance-single - ----------------
#NOTES:
     dance-single:
     :
     Hard:
     13:
     0.607924,0.687770,0.205622,0.116221,0.500644,476.000000,453.000000,23.000000,13.000000,0.000000,0.000000,0.607924,0.687770,0.205622,0.116221,0.500644,476.000000,453.000000,23.000000,13.000000,0.000000,0.000000:
// measure 0
0000
0000
0000
0000
,  // measure 1
0000
0000
0000
0000
,  // measure 2
0000
0000
0000
0000
,  // measure 3
0000
0000
0000
0000
,  // measure 4
1000
0000
0010
1000
0000
0010
1000
0000
0001
0000
0100
0000
0010
0000
1000
0000
,  // measure 5
0001
0000
0100
0001
0000
0100
0001
0000
1000
0000
0100
0000
0010
0000
0001
0000
,  // measure 6
0100
0000
0010
0100
0000
0010
0100
0000
0001
0000
1000
0000
0100
0000
0010
0000
,  // measure 7
0001
0000
1000
0010
0000
1000
0001
0000
0100
0010
0000
0010
0000
0010
0000
0000
,  // measure 8
1000
0000
0000
0100
0000
0000
1000
0000
0001
0000
0000
0010
0000
0000
0001
0000
,  // measure 9
0100
0000
0000
0010
0000
0000
0100
0000
0001
0000
0000
1000
0000
0000
0100
0000
,  // measure 10
0010
0000
0000
0001
0000
0000
1000
0000
0010
0000
0000
1000
0000
0000
0001
0000
,  // measure 11
0100
0000
0000
0010
0000
0000
0100
0000
0001
0000
0000
0000
1001
0000
0000
0000
,  // measure 12
1000
0000
0000
0010
0000
0000
0100
0000
0001
0000
0000
0010
0000
0000
0100
0000
,  // measure 13
1000
0000
0000
0010
0000
0000
1000
0000
0001
0000
0000
0100
0000
0000
0001
0000
,  // measure 14
2000
0000
0000
0000
3010
0000
0000
0000
0100
0000
0000
0001
0000
0000
0010
0000
,  // measure 15
0001
0000
0000
0000
0101
0000
0000
0000
0010
0000
0000
0000
1000
0010
1000
0000
,  // measure 16
0001
0000
0000
0100
0000
0000
0010
0000
1000
0000
0000
0100
0000
0000
0010
0000
,  // measure 17
0100
0000
0000
1000
0000
0000
0001
0000
1001
0000
0000
0000
0010
0000
0100
0010
,  // measure 18
0100
0000
0000
0001
0000
0000
1000
0000
0010
0000
0000
0100
0000
0000
0010
0000
,  // measure 19
1000
0000
0001
0000
0010
0100
0000
0100
2000
0000
0000
0000
3001
0000
0100
0000
,  // measure 20
0010
0000
0000
1000
0000
0000
0001
0000
0100
0000
0000
0001
0000
0000
1000
0000
,  // measure 21
0010
0000
0000
0110
0000
0000
1000
0000
0001
0000
0000
0000
1000
0000
0010
0100
,  // measure 22
0002
0000
1003
0000
0010
0100
0001
1000
,  // measure 23
0100
0110
1000
1001
,  // measure 24
0010
0000
0001
0000
1000
0000
0100
0000
1000
0000
0010
0000
0100
0010
0100
0010
,  // measure 25
1000
0001
0000
0000
0110
0000
0110
0000
,  // measure 26
0001
0000
0000
0010
0000
0000
0001
0000
0100
0000
0000
0010
0000
0000
1000
0000
,  // measure 27
0100
1000
0100
0000
0010
0000
0001
0100
0001
0000
0100
0000
0010
0000
1000
0000
,  // measure 28
0001
0000
0000
0100
0000
0000
0010
0000
1000
0000
0000
0100
0000
0000
0010
0000
,  // measure 29
0100
0000
0000
1000
0000
0000
0001
0000
0020
0000
0000
0000
0130
0000
0000
0000
,  // measure 30
1000
0000
0000
0010
0000
0000
0100
0000
0001
0000
0000
0010
0000
0000
0100
0000
,  // measure 31
1000
0010
1000
0000
0100
0000
0010
0001
0010
0000
0001
0000
0100
0000
0010
0000
,  // measure 32
1000
0000
0000
0001
0000
0000
0100
0000
0010
0000
0000
1000
0000
0000
0010
0000
,  // measure 33
0100
0000
0000
1001
0000
0000
0010
0000
0200
0000
0000
0000
0301
0000
0000
0000
,  // measure 34
0010
0000
0000
0001
0000
0000
0010
0000
0001
0000
1000
0000
0100
0000
0010
0000
,  // measure 35
0100
0000
0000
1000
0000
0000
0100
0000
1000
0000
0100
0000
0010
0000
0001
0000
,  // measure 36
0100
0000
0000
0010
0000
0000
0100
0000
0001
0000
1000
0000
0100
0000
0010
0000
,  // measure 37
0001
0100
0010
1000
0100
0001
0100
0010
,  // measure 38
0001
0000
0000
1000
0000
0000
0100
0000
1000
0000
0010
0000
0100
0000
0001
0000
,  // measure 39
0010
0000
0000
0100
0000
0000
1000
0000
0001
0000
0010
0000
0001
0000
0100
0000
,  // measure 40
0010
0000
0000
1000
0000
0000
0100
0000
1000
0000
0100
0000
0010
0000
0001
0000
,  // measure 41
0100
0000
0010
0000
0100
0000
0010
0000
1000
0000
0001
0000
1000
0001
1000
0001
,  // measure 42
1000
0010
0000
0010
0100
0001
0000
0010
,  // measure 43
0001
0000
1000
0000
0000
0000
0100
0000
0020
0000
0000
0000
0130
0000
1000
0100
,  // measure 44
1000
0000
0000
0001
0000
0000
0010
0000
0001
0000
0000
1000
0000
0000
0010
0000
,  // measure 45
0100
0000
0000
0000
0110
0000
0000
0000
1001
0000
0000
0000
0100
0010
0100
0010
,  // measure 46
1000
0000
0000
0001
0000
0000
0010
0000
0001
0000
0000
1000
0000
0000
0100
0000
,  // measure 47
0010
0000
0000
0001
0000
0000
1000
0000
0020
0000
0000
0000
0130
0000
0001
1000
,  // measure 48
0001
0100
0000
0100
0000
0010
0100
0010
,  // measure 49
1000
1010
0001
0101
,  // measure 50
1000
0000
0010
0000
0100
0000
0001
0000
0010
0000
0100
0000
1000
0001
1000
0001
,  // measure 51
1000
0010
0000
0000
0110
0000
1001
0000
,  // measure 52
0010
0000
0000
0100
0000
0000
0001
0000
0010
0000
0000
0100
0000
0000
1000
0000
,  // measure 53
0010
0000
0000
0100
0000
0000
0001
0000
2001
0000
0000
0000
3010
0000
0000
0000
,  // measure 54
0100
0000
0000
0001
0000
0000
0010
0000
0001
0000
0000
1000
0000
0000
0100
0000
,  // measure 55
0010
0000
0000
0110
0000
0000
0100
0000
2000
0000
0000
0000
3001
0000
0000
0000
,  // measure 56
0100
0000
0000
0010
0000
0000
1000
0000
0001
0000
0000
0100
0000
0000
0010
0000
,  // measure 57
0100
0000
0000
0101
0000
0000
0010
0000
2000
0000
0000
0000
3100
0000
0000
0000
,  // measure 58
1000
0000
0000
0001
0000
0000
0010
0000
0001
0000
0000
1000
0000
0000
0010
0000
,  // measure 59
0100
0000
0001
0000
1000
0000
0010
0000
1000
0000
0001
0000
0100
0010
0100
0010
,  // measure 60
0100
0000
0001
0010
0000
0001
0100
0000
0010
0000
1000
0100
0000
1000
0010
0000
,  // measure 61
1000
0000
0100
0010
0000
0100
1000
0000
0002
0000
0000
0000
0103
0000
0000
0000
,  // measure 62
0010
0000
1000
0001
0000
1000
0010
0000
0100
0000
0001
0010
0000
0001
0100
0000
,  // measure 63
0010
0000
0000
1000
0000
0000
0100
0000
0020
0000
0000
0000
0031
0000
0000
0000
,  // measure 64
1000
0000
0000
0010
0000
0000
0110
0000
0100
0000
0000
0001
0000
0000
0011
0000
,  // measure 65
0001
0000
0000
1000
0000
0000
0100
0000
0210
0000
0000
0000
1300
0000
0000
0000
,  // measure 66
0001
0000
0000
0011
0000
0000
0001
0000
1000
0000
0000
1100
0000
0000
1000
0000
,  // measure 67
0010
0000
0100
0010
0000
0100
0010
0000
0100
0010
0000
0100
0010
0000
0100
0000
,  // measure 68
0001
0000
1000
0001
0000
1000
0001
0000
1000
0001
0000
1000
0001
0000
1000
0000
,  // measure 69
0010
0000
0100
0000
0001
0000
1000
0000
0010
0100
0010
0100
0001
1000
0001
1000
;
