#TITLE:T.R.O.L.L.;
#SUBTITLE:;
#ARTIST:Yuta Imai;
#TITLETRANSLIT:;
#SUBTITLETRANSLIT:;
#ARTISTTRANSLIT:;
#GENRE:RAWSTYLE;
#CREDIT:;
#BANNER:T.R.O.L.L._banner.png;
#BACKGROUND:T.R.O.L.L..png;
#LYRICSPATH:;
#CDTITLE:;
#MUSIC:T.R.O.L.L..ogg;
#OFFSET:-0.362000;
#SAMPLESTART:44.479000;
#SAMPLELENGTH:14.760000;
#LASTBEATHINT:278.970673;
#SELECTABLE:YES;
#DISPLAYBPM:100.000000:160.000000;
#BPMS:0.000000=160.000000
,101.000000=158.000000
,102.000000=156.000000
,103.000000=154.000000
,104.000000=152.000000
,105.000000=150.000000
,106.000000=148.000000
,107.000000=146.000000
,108.000000=144.000000
,109.000000=142.000000
,110.000000=140.000000
,111.000000=138.000000
,112.000000=136.000000
,113.000000=134.000000
,114.000000=132.000000
,115.000000=130.000000
,149.000000=128.000000
,150.000000=125.999992
,151.000000=124.000000
,152.000000=122.000000
,153.000000=120.000000
,154.000000=118.000000
,155.000000=116.000000
,156.000000=114.000000
,157.000000=112.000000
,158.000000=110.000000
,159.000000=108.000000
,160.000000=106.000000
,161.000000=104.000000
,162.000000=102.000000
,163.000000=100.000000
,196.500000=103.000000
,197.000000=105.000000
,197.500000=108.000000
,198.000000=110.000000
,198.500000=113.000000
,199.000000=115.000000
,199.500000=118.000000
,200.000000=120.000000
,200.500000=123.000000
,201.000000=124.999992
,201.500000=128.000000
,202.000000=130.000000
,202.500000=133.000000
,203.000000=135.000000
,203.500000=138.000000
,204.000000=140.000000
,204.500000=143.000000
,205.000000=145.000000
,205.500000=148.000000
,206.000000=150.000000
,206.500000=153.000000
,207.000000=155.000000
,207.500000=158.000000
,208.000000=160.000000
;
#STOPS:
;
#BGCHANGES:;
#KEYSOUNDS:;
#ATTACKS:;

//---------------dance-single - ----------------
#NOTES:
     dance-single:
     :
     Easy:
     7:
     0.228667,0.254876,0.065669,0.180588,0.000000,195.000000,187.000000,8.000000,22.000000,0.000000,0.000000,0.228667,0.254876,0.065669,0.180588,0.000000,195.000000,187.000000,8.000000,22.000000,0.000000,0.000000:
0000
0000
0000
0000
,
0000
0000
0000
0000
,
0000
0000
0000
0000
,
0000
0000
0000
0000
,
0000
0000
0000
0000
,
1000
0100
1000
0010
,
1000
0000
1001
0000
,
0010
0001
0100
0001
,
0220
0000
0330
0000
,
0001
0100
0001
0100
,
0010
0000
0010
0000
,
1000
0100
1000
0001
,
0010
0000
0100
0000
,
1000
0010
0100
0010
,
2000
0000
0100
3100
,
0010
0001
1000
0001
,
0200
0000
0310
0000
,
0001
0100
0001
0100
,
0010
1000
0010
0000
,
1000
0100
1000
0100
,
0010
0001
0010
0000
,
0001
1000
0010
0100
,
0001
0010
0100
0000
,
1000
0010
0100
0001
,
0020
0000
0230
0000
,
1300
0000
1000
0000
,
0001
0000
0001
0000
,
0200
0000
0300
0000
,
0020
0000
0030
0000
,
1000
0100
0010
0100
,
1000
0001
0100
0000
,
0010
0100
0001
0100
,
0010
1000
0100
0000
,
0010
0001
1000
0001
,
0010
0100
1000
0000
,
1001
0000
0100
0010
,
0220
0000
0330
0000
,
0001
0000
0001
0000
,
1000
0000
1000
0000
,
0020
0030
0200
0300
,
2002
0000
0000
3003
0000
0000
0000
0000
,
0010
0100
0010
0100
,
0001
0010
0001
0000
,
1000
0100
1000
0010
,
1000
0001
0100
0000
,
0001
0010
1000
0001
,
0100
1000
0010
0000
,
1000
0100
0001
1000
,
0010
0001
0220
0330
,
1000
0000
1000
0000
,
0001
0000
0001
0000
,
0200
0000
0000
0000
,
0310
0000
0000
0000
,
2002
0000
3003
0000
,
0010
0010
0010
0000
,
1000
0100
0010
0001
,
0010
0100
1000
0000
,
0010
0100
0001
1000
,
0010
0100
0001
0000
,
0010
0001
0100
0010
,
1000
0001
0010
0000
,
0100
1000
0010
0100
,
0001
0010
0100
0000
,
1000
0010
0100
0001
,
1000
0001
0020
0030
,
0001
0100
1000
0100
,
0002
0000
1003
0000
,
1000
0010
0001
0010
,
2000
0000
3001
0000
,
0110
0000
0000
0000
;

//---------------dance-single - ----------------
#NOTES:
     dance-single:
     :
     Medium:
     11:
     0.437399,0.424793,0.320134,0.246257,0.020521,373.000000,334.000000,39.000000,30.000000,0.000000,0.000000,0.437399,0.424793,0.320134,0.246257,0.020521,373.000000,334.000000,39.000000,30.000000,0.000000,0.000000:
// measure 0
0000
0000
0000
0000
,  // measure 1
0000
0000
0000
0000
,  // measure 2
0000
0000
0000
0000
,  // measure 3
0000
0000
0000
0000
,  // measure 4
0000
0000
0000
0001
0010
0100
1000
0000
,  // measure 5
1010
0000
0001
0000
0100
0000
0010
1000
,  // measure 6
0100
0000
1000
0010
0100
0001
0010
0000
,  // measure 7
0001
1000
0001
0000
0100
0010
1000
0001
,  // measure 8
0020
0000
0130
0110
,  // measure 9
0001
0101
0100
0101
,  // measure 10
0220
0000
0000
0330
0000
0000
0010
0000
1000
0000
0100
0000
1000
0000
0000
0000
,  // measure 11
1010
1000
1010
0010
,  // measure 12
0220
0000
0000
0330
0000
0000
0100
0000
0001
0000
0010
0000
0100
0000
0000
0000
,  // measure 13
0010
0000
0011
0000
1000
0000
1000
0001
,  // measure 14
0200
0000
0310
1000
0000
1000
0001
0000
,  // measure 15
0011
0100
1100
1000
,  // measure 16
2002
0000
0000
0000
0000
3003
0000
0000
,  // measure 17
0100
0010
1000
0000
0001
0010
0100
0000
,  // measure 18
1000
0010
0100
0001
0010
0000
1001
0000
,  // measure 19
0100
0001
0010
0000
0001
1000
0100
0000
,  // measure 20
1000
0010
1000
0001
2000
0000
3002
0000
,  // measure 21
0103
0110
0001
0011
,  // measure 22
1000
0100
1000
0000
1000
0010
1000
0100
,  // measure 23
1000
0001
0010
0000
0001
0010
0100
0000
,  // measure 24
0100
1000
0100
0001
0100
0000
0110
0000
,  // measure 25
1100
0001
0110
1000
,  // measure 26
0011
0100
1010
0001
,  // measure 27
2000
0000
3002
0000
0013
0100
1000
0001
,  // measure 28
0200
0000
0000
0300
,  // measure 29
0110
0000
0001
0100
0010
0100
0001
0000
,  // measure 30
1000
0100
0010
0100
1000
0000
0001
0000
,  // measure 31
1000
0000
0000
0010
0000
0000
1000
0000
0001
0000
0000
0010
0000
0000
0100
0000
,  // measure 32
1000
0001
0100
0000
0020
0000
0130
0000
,  // measure 33
1001
0000
0010
0001
1000
0001
0010
0000
,  // measure 34
0100
1000
0001
1000
0200
0000
0310
0000
,  // measure 35
0001
0000
0000
0100
0000
0000
0001
0000
0010
0000
0000
0100
0000
0000
1000
0000
,  // measure 36
0010
0000
0000
0100
0000
0000
0100
0000
0010
0000
1000
0000
0001
0000
0000
0000
,  // measure 37
0010
0011
0001
1001
,  // measure 38
1000
1010
0220
0330
,  // measure 39
0002
2003
3100
0010
,  // measure 40
0220
0000
0000
0330
0000
0000
0000
0000
,  // measure 41
1001
0000
0001
0010
0100
1000
0010
0000
,  // measure 42
1000
0100
1000
0010
1000
0100
0010
0000
,  // measure 43
0001
0100
0010
1000
0001
0010
0100
0000
,  // measure 44
1000
0010
0100
0001
2000
0000
3001
0000
,  // measure 45
0110
0000
0001
0010
0100
1000
0010
0000
,  // measure 46
1000
0100
0010
0001
0100
0000
0010
0000
,  // measure 47
1000
0100
0001
0000
0001
0100
1000
0000
,  // measure 48
0001
0010
0100
1000
0001
0000
1001
0000
,  // measure 49
0210
0010
0010
0310
,  // measure 50
0120
0100
0200
0330
,  // measure 51
1000
0100
0010
0001
,  // measure 52
2002
0000
0000
3003
,  // measure 53
0110
0001
0010
0100
,  // measure 54
1000
0010
0100
0001
0010
0000
1001
0000
,  // measure 55
0100
0010
1000
0000
0100
0000
1000
0010
,  // measure 56
0100
0010
1000
0000
0001
0010
0100
0000
,  // measure 57
0010
0001
0100
0000
0010
0000
0100
0001
,  // measure 58
0010
0001
0100
0000
0001
0000
1001
0000
,  // measure 59
0100
0010
1000
0000
0100
1000
0001
0000
,  // measure 60
0100
0010
0100
0010
2000
0000
3002
0000
,  // measure 61
0013
0100
1000
0100
0010
0000
0001
0000
,  // measure 62
0100
0010
1000
0010
0100
0000
0110
0000
,  // measure 63
0001
0010
0100
0010
0001
0000
1000
0000
,  // measure 64
0010
0100
0001
0100
0010
0000
1001
0000
,  // measure 65
0010
0001
0100
0000
0010
1000
0100
0000
,  // measure 66
1000
0010
0001
0000
0001
0010
1000
0000
,  // measure 67
0001
1000
0010
0100
0001
0010
0100
1000
,  // measure 68
0020
0000
0100
0130
,  // measure 69
1001
0000
0000
0000
;

//---------------dance-single - ----------------
#NOTES:
     dance-single:
     :
     Hard:
     16:
     0.724699,0.764628,0.328343,0.164171,0.615642,618.000000,578.000000,40.000000,20.000000,0.000000,0.000000,0.724699,0.764628,0.328343,0.164171,0.615642,618.000000,578.000000,40.000000,20.000000,0.000000,0.000000:
// measure 0
0000
0000
0000
0000
,  // measure 1
0000
0000
0000
0000
,  // measure 2
0000
0000
0000
0000
,  // measure 3
0000
0000
0000
0000
,  // measure 4
0000
0000
0000
1000
0100
0001
0100
1000
,  // measure 5
1001
0011
1100
1010
,  // measure 6
0100
0000
0010
0000
0100
0000
0001
0000
0010
0100
0010
0000
0001
1000
0100
1000
,  // measure 7
0010
0000
0100
0000
0010
0000
1000
0000
0100
1000
0010
0100
0001
0010
0100
1000
,  // measure 8
0020
0000
0000
0100
0130
0010
0100
0000
,  // measure 9
0011
0000
0101
0000
0011
0000
0001
1000
,  // measure 10
1100
0000
0000
0000
1010
0000
0000
0000
1100
0000
0000
0000
1000
0000
0001
0010
,  // measure 11
0100
1000
1001
0000
0110
0000
1010
0010
,  // measure 12
0110
0000
0101
0001
0011
0000
1001
0000
,  // measure 13
0100
0000
1000
0000
0001
0000
0100
0010
1000
0000
0100
0000
1000
0000
0001
0100
,  // measure 14
0010
0000
1000
0000
0001
0000
1000
0100
0010
0000
0001
0000
1001
0000
0000
0000
,  // measure 15
0010
0000
0100
0000
0001
0000
0010
0000
0001
1000
0010
0100
0001
0010
0100
1000
,  // measure 16
0020
0000
0000
0030
,  // measure 17
1000
0100
0010
0100
1000
0001
0100
0010
,  // measure 18
0100
0000
0001
0000
0010
0000
1000
0000
0001
0000
0100
0000
1000
0010
0100
0000
,  // measure 19
0001
0000
0010
0000
1000
0000
0010
0000
0100
0000
1000
0000
0001
0000
0100
0010
,  // measure 20
1000
0000
0001
0000
1000
0010
0100
0001
0010
0000
0000
0000
1001
0000
0000
0000
,  // measure 21
0100
0000
0010
0000
1000
0000
0100
0000
0001
0000
0100
0000
1000
0000
0010
0100
,  // measure 22
0001
0000
0010
0000
1000
0000
0010
0000
0001
0000
0100
0000
0010
1000
0100
0000
,  // measure 23
1000
0000
1000
0000
0001
0000
0001
0000
0100
0000
0010
0000
1000
0001
0020
0000
,  // measure 24
0031
0100
0010
1000
0100
0010
0001
0010
0100
0000
1000
0000
1001
0000
0000
0000
,  // measure 25
0010
0110
1000
1100
,  // measure 26
0001
0000
0011
0000
1000
0000
1001
0001
,  // measure 27
0100
0000
0010
0000
1000
0000
0001
0000
0010
0100
1000
0100
0010
0001
0100
0001
,  // measure 28
0020
0000
0000
0100
0100
0100
0130
0000
,  // measure 29
1100
0000
0000
0000
0010
0000
0100
0001
1000
0000
0100
0000
1000
0000
0010
0000
,  // measure 30
0100
0000
0001
0000
1000
0000
0100
1000
0010
0000
0100
0000
0002
0000
0000
0000
,  // measure 31
1003
0000
0100
0010
0000
0000
0100
1000
0001
0000
0100
0010
1000
0010
0100
0000
,  // measure 32
0001
0100
0000
0010
1000
0000
0100
0010
0000
0001
0100
0000
0010
1000
0100
0000
,  // measure 33
0010
0000
0001
0000
1000
0000
0001
0010
0100
0000
1000
0000
0010
0000
1000
0000
,  // measure 34
0001
0000
0100
0000
0010
0000
0100
0001
1000
0000
0100
0000
0010
0100
1000
0000
,  // measure 35
0001
0000
0100
0001
0000
0000
1000
0010
0100
0000
0001
0010
0100
0010
0001
0000
,  // measure 36
1000
0100
0000
1000
0010
0000
0100
0001
0000
0010
0001
0000
0020
0000
0000
0000
,  // measure 37
0130
0000
0000
1100
0000
0000
1000
0000
0001
0000
0010
0100
1000
0000
0001
0000
,  // measure 38
1001
0000
0000
0110
0000
0000
0010
1000
0100
0000
1000
0001
0100
0000
0000
0000
,  // measure 39
0001
0000
0001
0000
1000
0000
1000
0000
0001
0010
0100
1000
0001
0010
0100
1000
,  // measure 40
0020
1000
0001
1030
,  // measure 41
1001
0000
0000
0000
0110
0000
0010
1000
0010
0000
0100
0001
0100
0010
0100
0000
,  // measure 42
0001
0010
0000
0100
1000
0000
0010
1000
0000
0001
0100
0000
0010
0100
0001
0000
,  // measure 43
1000
0100
0000
0010
0100
0000
1000
0100
0000
0010
0100
0000
1000
0001
0100
0000
,  // measure 44
0010
0000
0000
0000
0000
0000
0100
0000
0000
0001
0000
0000
0000
0000
0000
0010
0000
0000
0001
0000
0000
0000
0000
0000
0100
0000
0000
0000
0110
0000
0000
0000
0010
0000
0000
0000
1000
0000
0000
0000
0000
0000
0001
0000
0010
0000
0100
0000
,  // measure 45
1000
0000
0001
0100
0000
0000
0010
0100
0001
0000
0010
0100
1000
0100
0010
0000
,  // measure 46
0001
0010
0000
0010
0100
0000
1000
0010
0000
0010
0100
0000
0001
0100
0010
0000
,  // measure 47
1000
0000
0100
0001
0000
1000
0010
0000
0001
0100
0000
1000
0001
0010
0100
0000
,  // measure 48
0010
0000
1000
0100
0000
0010
0001
0000
0100
0010
1000
0001
0010
0100
1000
0000
,  // measure 49
0002
0013
0002
0103
0020
0130
0020
1030
,  // measure 50
0200
1300
0200
0301
0200
1300
0020
0130
,  // measure 51
0001
0000
0010
0000
0100
0000
1000
0000
0010
0100
0010
1000
0001
1000
0100
0010
,  // measure 52
0002
0000
0000
1000
1000
1000
1003
0000
,  // measure 53
0110
1001
0110
1001
,  // measure 54
0010
0010
0010
0010
0010
0000
1001
0000
,  // measure 55
0100
0010
1000
0000
0001
0010
0100
0000
1000
0100
0010
0000
0001
0100
0010
0000
,  // measure 56
1000
0001
0010
0000
0001
1000
0010
0000
1000
0000
1000
0000
0001
0010
0001
0000
,  // measure 57
0100
0000
0010
0000
1000
0100
0010
0000
0100
0000
1000
0000
0001
0100
0010
0000
,  // measure 58
1000
0000
0001
0000
0010
0001
1000
0100
0010
0000
0010
0000
0220
0000
0330
0000
,  // measure 59
1000
0100
0010
0000
0010
0100
1000
0000
0001
0100
0010
0000
0010
0100
0001
0000
,  // measure 60
0010
0000
1000
0010
0000
0001
0010
0000
0001
0100
0000
1000
0100
0000
0001
0000
,  // measure 61
0010
0000
0010
0000
0100
1000
0001
0000
0100
0010
1000
0000
0001
0000
0010
0000
,  // measure 62
0001
1000
0100
0000
1000
0001
0100
0000
0010
0100
0010
1000
0100
0000
0010
0000
,  // measure 63
0001
0100
0010
0100
0001
0000
0010
0000
0100
1000
0001
1000
0100
0000
0010
0000
,  // measure 64
0001
0000
0001
0000
1000
0100
0010
0000
0001
1000
0000
0001
0200
0000
0300
0000
,  // measure 65
0010
1000
0100
0000
0010
0001
0000
0001
0100
0000
0110
0000
0100
0001
1000
0000
,  // measure 66
0100
1000
0001
0000
0100
0010
0000
0010
0100
0000
0001
0000
1001
0000
0000
0000
,  // measure 67
1000
0010
0100
0010
1000
0001
0010
0001
1000
0010
0100
0001
0010
0100
1000
0001
,  // measure 68
0200
0000
0000
0010
0010
0010
0310
0000
,  // measure 69
1001
0000
0000
0000
;
