#TITLE:Surf on the Light;
#SUBTITLE:;
#ARTIST:Tomoyuki Uchida;
#TITLETRANSLIT:;
#SUBTITLETRANSLIT:;
#ARTISTTRANSLIT:;
#GENRE:ELECTRO FUSION;
#CREDIT:;
#BANNER:Surf_on_the_Light_banner.png;
#BACKGROUND:Surf_on_the_Light.png;
#LYRICSPATH:;
#CDTITLE:;
#MUSIC:Surf on the Light.ogg;
#OFFSET:-0.640000;
#SAMPLESTART:74.139999;
#SAMPLELENGTH:12.000000;
#SELECTABLE:YES;
#DISPLAYBPM:60.000000:160.000000;
#BPMS:0.000000=160.000000
,272.000000=150.000000
,280.000000=147.000000
,284.000000=138.000000
,286.000000=130.000000
,287.000000=118.000000
,288.000000=116.000000
,289.000000=114.000000
,290.000000=101.000000
,291.000000=91.000000
,292.000000=111.000000
,293.000000=99.000000
,294.000000=90.000000
,295.000000=71.000000
,296.000000=30.000000
;
#STOPS:
;
#BGCHANGES:;
#KEYSOUNDS:;
#ATTACKS:;

//---------------dance-single - ----------------
#NOTES:
     dance-single:
     :
     Easy:
     6:
     0.224407,0.295780,0.079738,0.215294,0.000000,197.000000,187.000000,10.000000,27.000000,0.000000,0.000000,0.224407,0.295780,0.079738,0.215294,0.000000,197.000000,187.000000,10.000000,27.000000,0.000000,0.000000:
0000
0000
0000
0000
,
0000
0000
0000
0000
,
0000
0000
0000
0000
,
0000
0000
0000
0000
,
0000
0000
0000
0000
,
0020
0000
0030
0000
,
0200
0000
0300
0000
,
0001
0000
1000
0000
,
0001
1000
1001
0000
,
0100
0000
0001
0000
,
1000
0000
0010
0000
,
1000
0000
0001
0000
,
0100
0000
0010
0000
,
2000
0000
3010
0000
,
0002
0000
0103
0000
,
0220
0000
0000
0000
0000
0330
0000
0000
,
2002
0000
0000
0000
0000
3003
0000
0000
,
0100
1000
0100
0000
,
0010
0001
0010
0000
,
0001
0100
0001
0000
,
1000
0010
1000
0000
,
0001
0100
0010
0000
,
1000
0100
0010
0000
,
0001
1000
0010
0000
,
1000
0001
0100
0000
,
0001
0010
0001
0010
,
0100
1000
0100
0000
,
1000
0010
1000
0010
,
0100
0001
0100
0000
,
0010
1000
0100
1000
,
0001
0100
0001
0000
,
0100
0010
1000
0100
,
2002
0000
0000
0000
0000
3003
0000
0000
,
0001
0010
0001
0100
,
0010
1000
0100
0000
,
1000
0010
0100
0010
,
1000
0001
0010
0000
,
0001
0100
0010
1000
,
0001
0010
0100
0000
,
1000
0010
0100
0001
,
2002
0000
3003
0000
,
0010
0100
0010
1000
,
0001
0010
0001
0000
,
0100
0010
0100
0001
,
1000
0100
1000
0000
,
0001
0000
1000
0000
,
0110
0000
1000
0001
,
0100
0010
0100
0001
,
2020
0000
3030
0000
,
1000
0001
0010
0001
,
0100
0010
0100
0000
,
0001
1000
0100
1000
,
0010
0100
0010
0000
,
2000
0000
3200
0000
,
0320
0000
0032
0000
,
0103
0010
0100
0000
,
1001
0000
0110
0000
,
0001
0100
0001
0010
,
0001
1000
0001
0000
,
1000
0010
1000
0100
,
1000
0001
1000
0000
,
0002
0000
0013
0000
,
2000
0000
3010
0000
,
0200
0000
0301
0000
,
0020
0000
0130
0000
,
1000
0001
0100
0010
,
1000
0100
0010
0000
,
0001
0010
0100
1000
,
2002
0000
3003
0000
,
0100
0000
0010
0000
,
1000
0000
0001
0000
,
2000
0000
0000
0000
0000
3000
0000
0000
,
0002
0000
0000
0003
,
0100
0000
0010
0000
,
0200
0000
0000
0300
0000
0000
0000
0000
0000
0000
0000
0000
0000
0000
0000
0000
;

//---------------dance-single - ----------------
#NOTES:
     dance-single:
     :
     Medium:
     9:
     0.369075,0.473248,0.247189,0.119608,0.035882,324.000000,293.000000,31.000000,15.000000,0.000000,0.000000,0.369075,0.473248,0.247189,0.119608,0.035882,324.000000,293.000000,31.000000,15.000000,0.000000,0.000000:
0000
0000
0000
0000
,
0000
0000
0000
0000
,
0000
0000
0000
0000
,
0000
0000
0000
0000
,
0000
0000
0000
0000
,
1010
0000
0000
0100
0000
0000
0101
0000
,
0000
0010
0000
0000
0100
0000
1001
0000
,
1000
0010
1000
0000
0001
0010
0001
0000
,
1000
0001
0100
0001
1000
0000
0110
0000
,
0010
0000
0000
1100
0000
0000
0001
0000
,
0000
0011
0000
0000
1000
0000
1001
0000
,
0001
0000
0000
0110
0000
0000
0010
0000
,
0000
1001
0000
0000
0010
0000
0101
0000
,
1000
0000
0000
1100
0000
0000
0001
0000
,
0000
0011
0000
0000
1000
0000
0001
0000
,
2001
0000
3010
0000
,
0102
0000
1003
0000
,
1000
0010
0100
0010
,
1000
0001
0010
0001
,
0100
0010
1000
0001
,
0010
0100
1000
0100
,
0010
0100
0010
0001
,
1000
0010
0100
0001
,
1000
1001
0001
1001
,
0220
0000
0000
0330
,
1000
0000
0000
0000
0001
0000
0000
0000
0001
0000
0000
0100
0000
0000
0010
0000
,
0000
1000
0100
1000
,
0010
0000
0100
0001
0000
0000
1000
0010
,
0000
0000
1000
0001
0000
0000
0110
0000
,
0010
0000
0000
0000
1000
0000
0000
0000
0001
0000
0000
1000
0000
0000
0010
0000
,
0100
0001
0010
0001
,
1000
0000
1000
0010
0000
0000
0100
0001
,
0000
0000
0000
0001
0010
0100
1000
0100
,
1000
0000
0001
0000
0010
0100
1000
0000
,
0001
0000
0100
0000
0010
1000
0100
0000
,
0010
0000
0001
1000
0000
0000
0001
0010
,
0000
0000
0100
0200
0000
0000
0300
0000
,
1000
0000
0001
0000
0100
0010
0100
0000
,
0001
1000
0010
0000
0100
0000
0001
0000
,
1000
0000
0010
0100
0000
0000
0001
0020
,
0000
0000
0030
0000
0001
1000
0100
1000
,
0010
0000
0100
0000
0001
0010
0100
0000
,
1000
0000
0000
0001
0000
0000
1000
0000
0000
0000
0000
0000
0110
0000
0000
0000
,
1000
0000
0001
0000
0100
0001
0010
0000
,
0100
0000
0000
1000
0000
0000
1000
0000
0000
0000
0000
0000
0001
0000
0010
0000
,
0000
0000
0001
0100
0000
0000
0010
1000
,
0000
0000
0000
0000
1000
0100
0010
0001
,
1000
0000
0001
0000
0100
0010
0100
0001
,
0000
1000
0020
0000
0000
0000
0030
0000
,
1000
0100
1000
0010
0100
0000
0001
0000
,
0010
0000
0000
0001
0000
0000
0010
0000
0000
0000
0000
0000
1100
0000
0000
0000
,
1000
0001
0010
0001
0100
0000
0010
0000
,
1000
0000
0000
0001
0000
0000
0010
0000
0000
0000
0000
0000
0110
0000
0000
0000
,
0010
0000
0001
0010
0001
0000
1000
0100
,
1000
0000
0010
0000
0100
0001
1000
0000
,
0010
0000
0000
1000
0000
0000
0100
0000
0000
0000
0010
0000
0001
0000
0000
0000
,
0100
0010
0110
1001
,
1000
0001
0100
0001
0010
0000
0100
0000
,
1000
0000
0000
0100
0000
0000
1000
0000
0000
0000
0000
0000
0011
0000
0000
0000
,
0010
0001
0010
0000
0100
1000
0100
0000
,
1000
0010
0100
0101
,
0002
0000
0010
0013
0200
0000
1300
0000
,
0020
0000
0100
0130
0002
0000
1003
0000
,
0001
0000
0100
0010
0100
0000
0110
0000
,
1000
0010
0100
0000
0001
0010
0100
0000
,
1000
0000
0000
0001
0000
0000
1001
0000
0000
0000
0000
0000
1010
0000
0000
0000
,
0100
0001
0010
0001
1000
0000
0101
0000
,
0001
0010
0100
1000
0010
0100
0001
0000
,
0020
0000
0000
0000
0000
0030
0000
0000
,
1000
0001
0100
0010
,
1000
0010
0100
0001
,
2100
0000
0001
3000
,
0010
0100
0010
1000
,
0001
0010
0100
1000
,
2002
0000
0000
3003
0000
0000
0000
0000
0000
0000
0000
0000
0000
0000
0000
0000
;

//---------------dance-single - ----------------
#NOTES:
     dance-single:
     :
     Hard:
     11:
     0.502352,0.502826,0.223268,0.215294,0.047843,441.000000,413.000000,28.000000,27.000000,0.000000,0.000000,0.502352,0.502826,0.223268,0.215294,0.047843,441.000000,413.000000,28.000000,27.000000,0.000000,0.000000:
// measure 0
0000
0000
0000
0000
,  // measure 1
0000
0000
0000
0000
,  // measure 2
0000
0000
0000
0000
,  // measure 3
0000
0000
0000
0000
,  // measure 4
0000
0000
0000
0000
,  // measure 5
0011
0000
1000
1010
0000
0100
1100
0000
,  // measure 6
0001
0101
0000
0010
1000
0000
1001
0000
,  // measure 7
0001
0010
0100
1000
0001
0100
0010
1000
,  // measure 8
0001
0000
1001
0000
1000
0100
0010
0000
,  // measure 9
0011
0000
0001
0010
0000
0010
0100
0000
,  // measure 10
0100
1000
0000
1000
0001
0100
0001
0000
,  // measure 11
1010
0000
1000
0100
0000
0100
0010
0000
,  // measure 12
0010
0001
0000
0001
0100
0010
1000
0000
,  // measure 13
0001
0100
0010
1000
0000
1000
0010
0100
,  // measure 14
0001
0010
0000
0010
0001
0000
1001
0000
,  // measure 15
1000
0100
1000
0100
0010
0001
0010
0001
,  // measure 16
0100
0010
0100
0010
1000
0001
1000
0000
,  // measure 17
0001
0000
0101
0000
1000
0010
1000
0100
,  // measure 18
0000
0010
0100
0010
0000
0010
0110
0000
,  // measure 19
0001
0000
0001
1000
0000
1000
0010
0000
,  // measure 20
0110
0000
1000
0001
0010
0100
1000
0000
,  // measure 21
0001
0000
0011
0000
1000
0010
0100
0001
,  // measure 22
0000
0001
0100
0010
0000
0010
1000
0000
,  // measure 23
1100
0000
0001
0010
0000
0010
0001
2000
,  // measure 24
0000
0000
3000
0001
1000
0100
0010
0001
,  // measure 25
0010
0000
0001
0000
1000
0000
0100
0000
1000
0000
0000
0001
0000
0000
0010
0000
,  // measure 26
0000
0001
0001
1000
0000
0100
0010
0001
,  // measure 27
0000
1000
0010
0100
0000
0001
0100
0010
,  // measure 28
0000
1000
0100
0010
0001
0000
1001
0000
,  // measure 29
0000
0000
0100
0000
0001
0000
1000
0000
0010
0000
0000
1000
0000
0000
0100
0000
,  // measure 30
0000
0010
0001
1000
0000
1000
0010
0200
,  // measure 31
0000
0301
0010
0002
0000
1003
0100
0200
,  // measure 32
0000
0000
0300
1000
0100
0001
0100
1000
,  // measure 33
0010
0000
0100
0000
0010
0000
1000
0000
0001
0000
0000
1000
0000
0000
0100
0000
,  // measure 34
0000
0010
0010
0001
0000
0001
0100
1000
,  // measure 35
0000
0100
0001
1000
0000
1000
0100
0010
,  // measure 36
0000
0100
1000
0100
1000
0000
0110
0000
,  // measure 37
0001
0000
1000
0000
0100
0000
0010
0000
0001
0000
0000
1000
0000
0000
0001
0000
,  // measure 38
0000
0010
0100
1000
0000
0001
0010
1000
,  // measure 39
0000
1000
0010
0100
0000
1000
0001
2002
,  // measure 40
0000
0000
3003
0000
0001
0010
0100
1000
,  // measure 41
0000
1000
0001
0100
0010
1000
0001
0010
,  // measure 42
0001
0000
0000
1000
0000
0000
0010
0000
0000
0000
0220
0000
0000
0000
0330
0000
,  // measure 43
0000
0001
0100
0001
1000
0010
0100
1000
,  // measure 44
0100
0000
0000
0001
0000
0000
1001
0000
0000
0000
0100
0000
0001
0000
0010
0000
,  // measure 45
0000
0100
1000
0010
0000
0010
0100
0001
,  // measure 46
0000
1001
0000
1000
1000
0010
0100
0001
,  // measure 47
0000
0001
0010
0100
1000
0010
0000
0011
,  // measure 48
0000
2000
0200
0000
3300
1000
0001
0010
,  // measure 49
0000
0001
0010
0001
0100
0010
1000
0100
,  // measure 50
1000
0000
0000
0001
0000
0000
1001
0000
0000
0000
0010
0000
0100
0000
0010
0000
,  // measure 51
0000
1000
0100
1000
0010
0100
0001
0010
,  // measure 52
0001
0000
0000
1000
0000
0000
1100
0000
0000
0000
0001
0000
0010
0000
0001
0000
,  // measure 53
0000
0001
1000
0100
0000
1000
0010
0200
,  // measure 54
0000
0310
0000
0001
1000
0010
0100
0010
,  // measure 55
1000
0000
0000
0001
0000
0000
0011
0000
0000
0000
1000
0000
0100
0000
0020
0000
,  // measure 56
0000
0000
0000
0130
1000
0000
0001
0100
,  // measure 57
0001
0010
0001
0100
0010
1000
0100
1000
,  // measure 58
0001
0000
0000
0010
0000
0000
0110
0000
0000
0000
0010
0000
0001
0000
0100
0000
,  // measure 59
0010
1000
0100
1000
0010
0100
0001
0010
,  // measure 60
0001
0000
1001
0000
0110
0000
0010
2000
,  // measure 61
0010
3000
0001
0002
0000
0013
0100
0020
,  // measure 62
0000
0130
1000
0200
0000
1300
0010
2000
,  // measure 63
0000
3001
0100
0020
0000
0130
0001
2000
,  // measure 64
0000
3001
0010
0100
0010
0000
0101
0000
,  // measure 65
1000
0100
0010
0100
1000
0001
0010
0001
,  // measure 66
0100
0010
1000
0100
0001
0100
1000
0001
,  // measure 67
0100
0010
1000
0010
0001
0010
1000
0001
,  // measure 68
0200
0000
0000
0000
0000
0301
0010
0100
,  // measure 69
0000
0000
1000
0100
0000
0010
0001
0200
,  // measure 70
0000
0010
0300
0010
1000
0100
0010
0001
,  // measure 71
2000
0000
0000
0000
0000
0000
0100
0000
3100
0000
0000
0000
0000
0000
0010
0001
,  // measure 72
0020
0032
0203
0320
,  // measure 73
1030
0001
0010
0100
1000
0010
0100
0001
,  // measure 74
0020
0000
0000
0130
0000
0000
0000
0000
0000
0000
0000
0000
0000
0000
0000
0000
;

//---------------dance-double - ----------------
#NOTES:
     dance-double:
     :
     Hard:
     12:
     0.518300,0.502826,0.207320,0.231242,0.051830,455.000000,429.000000,26.000000,29.000000,0.000000,0.000000,0.518300,0.502826,0.207320,0.231242,0.051830,455.000000,429.000000,26.000000,29.000000,0.000000,0.000000:
00000000
00000000
00000000
00000000
,
00000000
00000000
00000000
00000000
,
00000000
00000000
00000000
00000000
,
00000000
00000000
00000000
00000000
,
00000000
00000000
00000000
00000000
,
10100000
00000000
00100000
01000000
00000000
01000000
00001000
00000000
,
00001000
00010000
00000000
00010000
00000010
00000000
00000110
00000000
,
00000001
00000010
00000001
00001000
00000100
00000010
00000001
00001000
,
00000100
00010000
00001000
01000000
00100000
10000000
01000000
00000000
,
10100000
00000000
10000000
00010000
00000000
00010000
00100000
00000000
,
00100000
00001000
00000000
00001000
00010000
00000100
00000020
00000000
,
00000031
00000000
00000001
00001000
00000000
00001000
00000100
00000000
,
00000100
00010000
00000000
00010000
00001000
01000000
00100000
00000000
,
11000000
00000000
01000000
10000000
00000000
10000000
00100000
00000000
,
00100000
01000000
00000000
01000000
00001000
00010000
00002000
00000000
,
00013000
00000010
00000100
00000010
00001000
00000001
00000010
00000100
,
00010000
00001000
00100000
00010000
10000000
00010000
02000000
00000000
,
03100000
00000000
01010000
00000000
10000000
01000000
00100000
00010000
,
00000000
01000000
00001000
00010000
00000000
00010000
00000100
00000000
,
00001100
00000000
00001000
00000001
00000000
00000001
00000010
00000000
,
00000101
00000000
00000010
00001000
00000100
00010000
00001000
00100000
,
00010000
00000000
10010000
00000000
10000000
00100000
01000000
00100000
,
00000000
01000000
00010000
00100000
00000000
00001000
00010000
00000000
,
00011000
00000000
00000010
00000100
00000000
00000001
00000010
00000002
,
00000000
00001003
00000010
00000100
00000010
00010000
00001000
00100000
,
01000000
00000000
10000000
00000000
01000000
00000000
00100000
00000000
00010000
00000000
00000000
10000000
00000000
00000000
00100000
00000000
,
00000000
01000000
00010000
00100000
00000000
00001000
00010000
00000010
,
00000000
00001000
00000100
00010000
00000000
00000100
00001000
00000001
,
00000000
00000000
00000100
00000000
00000010
00000000
00000100
00000000
00000001
00000000
00000000
00001000
00000000
00000000
00000100
00000000
,
00010000
00000000
00001000
00000000
00100000
00000000
00001000
00000000
00010000
00000000
00000000
00100000
00000000
00000000
01000000
00000000
,
00010000
10000000
00010000
00100000
00000000
01000000
10000000
01000000
,
00000000
10000000
00010000
00100000
00000000
00001000
01000000
00020000
,
00000000
00130000
00001000
00010000
00000010
00001000
00000001
00000010
,
00000100
00000000
00000010
00000000
00000001
00000000
00001000
00000000
00000100
00000000
00000000
00010000
00000000
00000000
00011000
00000000
,
00000000
00000100
00000100
00010000
00000000
00001000
00100000
00010000
,
10000000
00100000
10000000
00010000
00000000
01000000
00001000
00010000
,
00000000
00000000
00000100
00000000
00001000
00000000
00000001
00000000
00000010
00000000
00000000
00000100
00000000
00000000
00001000
00000000
,
00000010
00000000
00001000
00000000
00000100
00000000
00010000
00000000
00001000
00000000
00000000
00100000
00000000
00000000
00001000
00000000
,
00010000
00000010
00001000
00000100
00000000
00001000
00000001
00000010
,
00000000
00000001
00000010
00000100
00000000
00010000
00001000
00022000
,
00000000
00033000
00000000
00000000
00010000
00100000
01000000
00100000
,
10000000
00010000
00100000
00010000
10000000
01000000
00100000
00010000
,
00001000
00000000
00000000
00000010
00000000
00000000
00000100
00000000
00000000
00000000
00002002
00000000
00000000
00000000
00003003
00000000
,
00000010
00000100
00000001
00000100
00001000
00010000
00100000
01000000
,
00100000
00000000
00000000
10000000
00000000
00000000
10010000
00000000
00000000
00000000
00100000
00000000
01000000
00000000
00010000
00000000
,
10000000
00000000
01000000
00100000
00000000
00001000
00010000
00000100
,
00000000
00001010
00000000
00000100
00000001
00000100
00000010
00001000
,
00000200
00000000
00010300
00001000
00000000
00011000
00000000
00101000
,
00000000
00010000
02000000
00000000
00000000
03100000
10000000
01000000
,
10000000
00010000
00100000
00001000
00010000
00000010
00000100
00000001
,
00000010
00000000
00000000
00000100
00000000
00000000
00001100
00000000
00000000
00000000
00010000
00000000
00001000
00000000
00000100
00000000
,
00000001
00000010
00000100
00010000
00001000
00100000
00010000
10000000
,
01000000
00000000
00000000
00100000
00000000
00000000
00110000
00000000
00000000
00000000
10000000
00000000
00100000
00000000
01000000
00000000
,
00010000
00000000
10000000
02000000
00000000
03100000
00001000
00010000
,
00000000
00010100
00000000
00001000
00000001
00000010
00000001
00001000
,
00000010
00000000
00000000
00000100
00000000
00000000
00000101
00000000
00000000
00000000
00000010
00000000
00001000
00000000
00000100
00000000
,
00020000
00000000
00031000
00100000
00001000
00000000
01000000
00100000
,
10000000
01000000
00100000
00010000
00001000
00000100
00000010
00000001
,
00001000
00000000
00000000
00000010
00000000
00000000
00000110
00000000
00000000
00000000
00001000
00000000
00000010
00000000
00000100
00000000
,
00000001
00000100
00000010
00001000
00000100
00010000
00001000
00100000
,
00010000
00000000
10010000
00000000
01100000
00000000
00010000
00100000
,
00002000
00000000
00010000
00013000
00000200
00000000
00001000
00001300
,
00000002
00000000
00000010
00000013
00000200
00000000
00010300
00001000
,
00100000
00000000
00010000
10000000
00100000
00000000
01000000
00010000
,
00100000
00001000
00100000
00010000
10000000
01000000
00100000
00000000
,
00001000
00010000
00000100
00001000
00000001
00000010
00000100
00001000
,
00000010
00010000
00001000
00010000
00000100
00001000
00010000
00000000
,
00100000
00010000
10000000
01000000
10000000
00010000
00100000
00000000
,
00022000
00000000
00000000
00033000
00000000
00000010
00000100
00000010
,
00002000
00000000
00003001
00000020
00000000
00000031
00001000
00000100
,
00000000
00010100
00000000
00001000
00100000
00010000
01000000
00100000
,
20000000
00000000
00000000
00000000
00000000
00000000
31000000
00000000
02000000
00000000
00000000
00000000
03000000
00000000
00100000
00010000
,
00200000
00302000
00023000
00030020
,
00000130
00000001
00000010
00000100
00010000
00001000
00100000
00000000
,
00022000
00000000
00000000
00033000
00000000
00000000
00000000
00000000
00000000
00000000
00000000
00000000
00000000
00000000
00000000
00000000
;
