#TITLE:Summerblue;
#SUBTITLE:;
#ARTIST:Toby Fox & Camellia;
#TITLETRANSLIT:;
#SUBTITLETRANSLIT:;
#ARTISTTRANSLIT:;
#GENRE:GAME MUSIC;
#CREDIT:;
#BANNER:Summerblue_banner.png;
#BACKGROUND:Summerblue.png;
#LYRICSPATH:;
#CDTITLE:;
#MUSIC:Summerblue.ogg;
#OFFSET:-0.230000;
#SAMPLESTART:71.400002;
#SAMPLELENGTH:15.000000;
#LASTBEATHINT:296.000000;
#SELECTABLE:YES;
#BPMS:0.000000=145.000000
;
#STOPS:
;
#BGCHANGES:;
#KEYSOUNDS:;
#ATTACKS:;

//---------------dance-single - ----------------
#NOTES:
     dance-single:
     :
     Easy:
     5:
     0.215512,0.264900,0.071837,0.143675,0.000000,189.000000,180.000000,9.000000,18.000000,0.000000,0.000000,0.215512,0.264900,0.071837,0.143675,0.000000,189.000000,180.000000,9.000000,18.000000,0.000000,0.000000:
0000
0000
0000
0000
,
0000
0000
0000
0000
,
0000
0000
0000
0000
,
0000
0000
0000
0000
,
0000
0000
0000
0000
,
0100
0000
0100
0000
,
0010
0000
0010
0000
,
1000
0001
1000
0001
,
2200
0000
3300
0000
,
0001
0100
0010
0000
,
1000
0100
0010
0000
,
1000
0001
0100
0000
,
0010
0000
0110
0000
,
0001
0010
0100
0000
,
0100
0010
1000
0000
,
0001
1000
0010
0100
,
0020
0000
0000
0030
0000
0000
0000
0000
,
1000
0000
1000
0100
,
0020
0000
0031
0000
,
0001
0000
0100
0010
,
1000
0000
0100
0010
,
0001
0000
0001
1000
,
0200
0000
1300
0000
,
0010
0100
0010
0000
,
0001
0000
0000
0001
0000
0000
0000
0000
,
2000
0000
3100
0000
,
1000
0010
0100
0000
,
0010
1000
0001
0000
,
0010
0001
0100
0000
,
0010
1000
1000
0100
,
1000
0001
0010
0000
,
0001
0100
0010
0000
,
2000
0000
3001
0100
,
0110
0000
0000
0000
,
0001
0000
0010
0000
,
0001
0000
0100
0000
,
0020
0000
0030
0000
,
1000
0000
0100
0000
,
0010
0000
0001
0000
,
1000
0001
1000
0000
,
0010
0100
0010
0100
,
2002
0000
3003
0000
,
0220
0000
0330
0000
,
1000
0010
0100
0000
,
0001
0010
0100
0000
,
1000
0001
0100
0010
,
2010
0000
3100
0000
,
0001
0010
0100
0000
,
0010
0100
1000
0000
,
0001
0100
0010
1000
,
0100
0000
1000
0100
,
0010
0000
0001
0100
,
0010
0000
1000
0001
,
0100
0000
0110
0000
,
0001
1000
0100
0000
,
1000
0010
0100
0000
,
0001
0000
1000
0000
,
0010
0100
0001
1000
,
0100
1000
0100
0000
,
1000
0010
1000
0000
,
0001
0010
0001
0000
,
0100
0001
0200
0300
,
0010
0100
0010
0000
,
1000
0100
0010
0000
,
0001
0100
0010
0000
,
1000
0001
1001
0000
,
0010
0100
0010
0000
,
1000
0100
0010
0000
,
0001
0100
0001
0010
,
0100
0000
1100
0000
,
0002
0000
0003
0000
,
2000
0000
3000
0000
,
0020
0000
0030
0000
,
0200
0000
0000
0300
;

//---------------dance-single - ----------------
#NOTES:
     dance-single:
     :
     Medium:
     12:
     0.444707,0.472131,0.111747,0.223494,0.514834,390.000000,376.000000,14.000000,28.000000,0.000000,0.000000,0.444707,0.472131,0.111747,0.223494,0.514834,390.000000,376.000000,14.000000,28.000000,0.000000,0.000000:
0000
0000
0000
0000
,
0020
0030
0000
0000
,
0010
0000
0000
0010
0000
0000
0000
0000
0000
0000
0000
0000
0000
0000
0000
0000
,
0220
0330
0000
0000
,
1000
0000
0000
1000
0000
0000
0000
0000
0000
0000
0000
0000
0001
0000
0000
0000
,
0022
0033
1000
0000
,
0100
0000
0000
1100
0000
0000
0000
0000
0000
0000
0000
0000
0000
0000
0000
0000
,
0220
0000
0330
0000
0001
1000
0001
0000
,
1000
0000
0000
0010
0000
0000
0100
0000
0000
0000
0001
0000
0010
0000
0000
0000
,
0001
0000
0000
0100
0000
0001
0000
0000
0000
0000
1000
0000
0010
0000
0000
0000
,
1000
0000
0000
0100
0000
1000
0000
0000
0000
0000
0001
0000
0100
0000
0000
0000
,
0010
0000
0000
1000
0000
0100
0000
0000
0000
0000
0010
0000
0001
0000
0000
0000
,
1000
0000
0000
0001
0000
0010
0000
0000
0000
0000
0100
0000
1000
0000
0000
0000
,
0010
0000
0000
0100
0000
0001
0000
0010
0000
0000
0100
0000
1000
0000
0000
0000
,
0100
0000
0000
1000
0000
0010
0000
0100
0000
0000
0001
0000
1000
0000
0000
0000
,
0010
0000
0000
0100
0000
0010
0000
0000
0100
0000
0010
0000
0100
0000
0000
0000
,
2001
0000
0000
0002
0000
0000
0000
0000
0000
0000
0000
0000
3003
0000
0000
0000
,
0100
0000
0000
0000
0000
1000
0000
0100
0000
0000
0000
0000
1010
0000
0000
0000
,
0100
0000
0000
0002
0000
0000
0000
0000
0000
0000
0000
0000
0013
0000
0000
0000
,
0100
0000
0000
1000
0000
0000
0000
0001
0000
0000
0000
0000
0110
0000
0000
0000
,
0001
0000
0000
0010
0000
0000
0100
0000
1000
0000
0000
0001
0000
1000
0000
0000
,
0010
0000
0000
1000
0000
0001
0000
0001
0000
0000
0000
0000
0010
0000
0100
0000
,
1000
0000
0000
0010
0000
0020
0000
0000
0000
0000
0000
0000
0130
0000
0000
0000
,
0001
0000
0000
1000
0000
0000
2002
0000
0000
0000
0000
0000
3003
0000
0000
0000
,
0010
0000
0000
0100
0000
0000
0202
0000
0000
0000
0000
0000
0303
0000
0000
0000
,
0010
0100
1100
1001
,
0010
0000
0000
0100
0000
0100
0000
0010
0000
0000
1000
0000
0100
0000
0000
0000
,
0010
0000
0000
0100
0000
1000
0000
0001
0000
0000
0000
0000
0200
0000
0000
0000
,
0310
0000
0000
1000
0000
0001
0000
1000
0000
0000
0001
0000
0010
0000
0000
0000
,
0001
0000
0000
0200
0000
0000
0000
0000
0000
0000
0000
0000
0310
0000
0000
0000
,
0010
0000
0000
1000
0000
0100
0000
0100
0000
0000
1000
0000
0001
0000
0000
0000
,
0010
0000
0000
0001
0000
1000
0000
0000
0010
0000
0100
0000
0010
0000
0000
0000
,
2000
0000
0000
3100
0000
0100
0000
0200
0000
0000
0000
0000
0310
0000
0000
0000
,
0001
0001
0001
0001
,
1000
1000
1000
1000
,
0010
0010
0010
0010
,
0100
0100
0100
0100
,
0001
0000
0000
0010
0000
0000
0001
0000
0000
0000
1000
0000
0100
0000
0000
0000
,
1000
0000
0000
0010
0000
0000
1000
0000
0000
0000
0001
0000
0100
0000
0000
0000
,
0010
0000
0000
0100
0000
0000
0001
0000
1000
0000
0000
0100
0000
0000
0010
0000
,
0001
0100
0001
1000
0100
0010
0001
0000
,
2002
0000
0000
3003
,
0100
0000
0000
0110
0000
0000
0100
0000
0000
0001
0000
0000
0020
0000
0000
0000
,
0031
0000
0000
0100
0000
0100
0000
0010
0000
0000
1000
0000
0100
0000
1000
0000
,
0001
0000
0000
0100
0000
0010
0000
0100
0000
0000
0000
0000
0010
0000
1000
0000
,
0100
0000
0000
0010
0000
0000
0100
0000
1000
0000
0010
0000
0100
0000
0001
0000
,
0010
0000
0000
0220
0000
0000
0000
0000
0000
0000
0000
0000
0330
0000
0000
0000
,
1000
0000
0000
0001
0000
0010
0000
0001
0000
0000
0100
0000
0010
0000
1000
0000
,
0001
0000
0000
1000
0000
0100
0000
0010
0000
0000
0001
0000
1000
0000
0000
0000
,
0001
0000
0000
0010
0000
0001
0000
2000
0000
0000
0100
0000
3100
0000
0000
0000
,
1000
0010
1000
0000
0001
0010
0001
0000
,
1000
0100
0010
0001
0010
0100
1000
0000
,
0010
0100
0001
0000
1000
0010
0100
0000
,
0001
0010
0100
1000
0100
0010
0001
0000
,
0100
0010
1000
0000
0001
0010
0100
0000
,
1000
0010
0100
0010
1000
0001
0010
0000
,
0001
0100
0010
0100
0001
1000
0100
0000
,
1000
0000
0000
0010
0000
0100
0000
0000
0001
0000
0000
0000
0010
0000
0001
0000
,
1000
0000
0000
0010
0000
1000
0000
0010
0000
0000
0100
0000
0100
0000
0000
0000
,
0001
0000
0000
0010
0000
0001
0000
0010
0000
0000
0100
0000
0100
0000
0000
0000
,
1000
0000
0000
0100
0000
0001
0000
0100
0000
0000
1000
0000
0001
0000
0000
0000
,
1000
0000
0000
0010
0000
0001
0000
0010
0000
0000
1000
0000
0001
0000
0000
0000
,
0010
0000
0000
0001
0000
0100
0000
0001
0000
0000
0010
0000
0001
0000
0000
0000
,
0100
0000
0000
0010
0000
0100
0000
0010
0000
0000
1000
0000
0100
0000
2000
0000
,
0000
0000
0000
3010
0000
1000
0000
0010
0000
0000
0100
0000
0001
0000
0000
0000
,
0010
0000
0000
0100
0000
1000
0000
0001
0000
0000
0100
0000
0200
0000
0000
0000
,
0310
0000
0000
1000
0000
0001
0000
1000
0000
0000
0100
0000
0100
0000
0000
0000
,
0010
0000
0000
0001
0000
1000
0000
0100
0000
0000
1000
0000
0001
0000
1000
0000
,
0010
0000
0000
0100
0000
0001
0000
0010
0000
0000
0001
0000
0010
0000
0100
0000
,
1000
0000
0100
1000
0000
0001
0000
1000
0000
0001
0000
0000
0200
0000
0000
0000
,
0310
0000
0000
1000
0000
1000
0000
1000
0000
0000
0001
0000
0010
0000
0001
0000
,
0100
0000
0000
0001
0000
0001
0000
0001
0000
0000
0010
0000
0100
0000
1000
0000
,
0010
0000
0000
0100
0000
0100
0000
0100
0000
0000
0001
0000
1000
0000
0100
0000
,
0010
0000
0000
0100
0000
1000
0000
0001
0000
0000
1000
0000
0001
0000
0010
0100
;

//---------------dance-single - ----------------
#NOTES:
     dance-single:
     :
     Hard:
     16:
     0.768546,0.796721,0.367169,0.143675,1.081551,674.000000,628.000000,46.000000,18.000000,0.000000,0.000000,0.768546,0.796721,0.367169,0.143675,1.081551,674.000000,628.000000,46.000000,18.000000,0.000000,0.000000:
// measure 0
0000
0000
0000
0000
,  // measure 1
1001
0000
0000
0000
,  // measure 2
0110
0000
0000
1001
0000
0000
0000
0000
0000
0000
0000
0000
0000
0000
0000
0000
,  // measure 3
1100
0000
0000
0000
,  // measure 4
0101
0000
0000
0110
0000
0000
0000
0000
0000
0000
0000
0000
0002
0000
0000
0000
,  // measure 5
1003
0000
0100
1000
0000
0010
0000
0010
0000
0010
0100
0000
0001
0010
0001
0000
,  // measure 6
0100
0000
0010
1000
0000
1000
0000
1000
0000
0001
1000
0000
0010
0100
0010
0000
,  // measure 7
1000
0000
0100
0010
0000
0001
0000
1001
0000
0001
0100
0000
0010
1000
0100
0000
,  // measure 8
1000
0000
0001
0010
0000
0001
0000
0100
0000
0001
0010
0000
0100
0000
1000
0000
,  // measure 9
0001
0000
0100
0010
0000
0100
0000
0001
0000
0001
0010
0000
0001
0000
1000
0000
,  // measure 10
0100
0000
1000
0010
0000
1000
0000
0100
0000
1000
0001
0000
1000
0000
0100
0000
,  // measure 11
0010
0000
0100
0001
0000
0100
0000
1000
0000
0010
0100
0000
0001
0000
1000
0000
,  // measure 12
0010
0000
0100
0010
0000
0100
0000
0001
0000
0010
0001
0000
1000
0000
0100
0000
,  // measure 13
1000
0000
0001
0100
0000
0010
0000
1000
0000
0100
1000
0000
0001
0000
0100
0000
,  // measure 14
0010
0100
0001
1000
0000
0001
0000
0010
0000
0001
1000
0000
0100
0000
0010
0000
,  // measure 15
0100
0000
1000
0001
0000
0100
0000
0010
0000
0100
0001
0010
0100
1000
0001
0000
,  // measure 16
0011
0000
0000
0101
0000
0000
1100
0000
0000
1010
0000
0000
0200
0000
0000
0000
,  // measure 17
0301
0000
0010
0001
0000
0010
0000
1100
0000
0000
0000
1000
0010
0000
0100
0000
,  // measure 18
0001
0000
1000
0200
0000
0010
0000
0010
0000
0010
0000
0310
0000
0001
0100
0000
,  // measure 19
0010
0000
1000
0100
0000
1000
0000
1010
0000
0000
0000
0100
0001
0000
0010
0000
,  // measure 20
0001
0000
0000
0110
0000
0000
0010
0000
1000
0100
0000
0010
0000
1100
0000
0000
,  // measure 21
0001
0000
1000
0010
0000
1000
0000
0101
0000
0000
0000
0010
0100
0000
0001
0000
,  // measure 22
1000
0000
0100
0010
0000
0002
0000
0100
0000
0100
0000
0103
0000
0010
1000
0000
,  // measure 23
0100
0000
0010
0100
0000
0000
0220
0000
0000
0000
0330
0000
1000
0000
0001
0010
,  // measure 24
0100
0000
0000
1100
0000
0000
0201
0000
0000
0000
0010
0000
0310
0000
1000
0000
,  // measure 25
0001
0000
0010
0001
0020
0000
0000
0000
0130
1000
0100
0000
2000
0000
0000
0000
,  // measure 26
3010
0000
0100
0001
0000
0100
0000
0010
0000
0000
0010
1000
0001
0000
0100
0000
,  // measure 27
0001
0000
1000
0001
0000
0010
0000
0110
0000
0000
0100
0000
1000
0000
0010
0000
,  // measure 28
1000
0000
0001
0010
0000
0001
0000
0100
0000
0000
0010
0000
1000
0000
0001
0000
,  // measure 29
1000
0010
0100
0020
0000
0000
1030
0000
0001
0000
0100
0010
0100
0000
0001
0000
,  // measure 30
0010
0000
0100
1000
0000
0100
0000
0010
0000
0000
0001
0010
0001
0000
1000
0000
,  // measure 31
0010
0000
0100
0001
0000
1000
0000
1000
0000
0010
0100
0000
0001
1000
0001
0000
,  // measure 32
0100
0000
0001
0010
0000
0011
0000
2100
0000
0000
3010
0000
0100
0010
1000
0001
,  // measure 33
1000
0000
0000
1001
0000
0000
0010
0000
0100
0000
0010
0000
1000
0000
0001
0000
,  // measure 34
0010
0000
0000
0110
0000
0000
0001
0000
1000
0000
0100
0000
0010
0000
0001
0000
,  // measure 35
0100
0000
0000
0011
0000
0000
1000
0000
0010
0000
0100
0000
1000
0000
0100
0000
,  // measure 36
0001
0000
0000
1100
0000
0000
1000
0000
0010
0000
0100
0000
0002
0000
0000
0000
,  // measure 37
1003
0000
0000
0100
1000
0000
0001
0000
0000
0010
0000
0000
0001
1000
0001
0000
,  // measure 38
1000
0000
0000
0010
1000
0000
0001
0000
0000
0100
0000
0000
0010
0100
0010
0000
,  // measure 39
1000
0000
0000
0001
0010
0000
0001
0000
0000
0100
0000
0000
0010
1000
0010
0000
,  // measure 40
1000
0000
1000
0000
0001
0000
0001
0000
0010
0000
0010
0000
0100
0010
0100
0010
,  // measure 41
0200
0000
0000
0300
,  // measure 42
1100
0000
0000
0011
0000
0000
0101
0000
0000
1010
0000
0000
2002
0000
3003
0000
,  // measure 43
0100
0000
0010
0100
0000
0001
0000
0010
0000
0001
1000
0000
0010
0000
0100
0000
,  // measure 44
0001
0010
0001
1000
0000
0100
0000
1001
0000
0000
0010
0000
0100
0010
0100
0000
,  // measure 45
0001
0000
1000
0100
0000
1000
0000
0110
0000
0000
0010
0000
1000
0000
0100
0000
,  // measure 46
1000
0100
0010
0002
0000
0000
0100
0000
0103
0000
0010
1000
0001
1000
0010
0000
,  // measure 47
0100
0000
0001
0010
0000
0001
0000
1000
0000
0000
0010
0100
0010
0000
1000
0000
,  // measure 48
0001
0000
0100
0010
0000
0100
0000
0001
0000
0010
0001
0000
1000
0100
1000
0000
,  // measure 49
0010
0000
0100
0001
0000
0011
0000
1001
0000
0000
1000
0000
0010
0100
0010
0000
,  // measure 50
1000
0000
0100
0000
0010
0100
1000
0000
0001
0000
0100
0000
0010
0100
0001
0000
,  // measure 51
0010
0001
0000
0001
0100
0010
0000
0010
1000
0000
0100
0000
1000
0010
0100
0010
,  // measure 52
1000
0000
1000
0000
1000
0000
0001
0000
0010
0000
0001
0000
0100
0010
0100
0000
,  // measure 53
0001
0010
0000
0010
0001
0000
1000
0000
0100
1000
0000
1000
0010
0100
0010
0000
,  // measure 54
1000
0000
0001
0010
0001
0000
1000
0000
0100
0010
0100
0000
1000
0001
0000
0001
,  // measure 55
0100
0000
0010
0100
0001
0000
1000
0000
0100
0000
0010
0100
1000
0000
0001
0000
,  // measure 56
0100
0000
0010
0100
0001
0000
1000
0000
0001
0000
0010
0000
0100
0000
1000
0000
,  // measure 57
0010
0000
0100
0000
0000
1001
0000
0110
0000
0000
1000
0000
0100
0010
0100
0010
,  // measure 58
0001
0000
0010
0001
0000
0010
0000
0001
0000
1000
0100
0000
1000
0000
0010
0000
,  // measure 59
0100
0001
1000
0001
0000
0100
0000
0010
0000
1000
0100
0000
1000
0002
0000
0000
,  // measure 60
0013
0000
0100
1000
0000
0100
0000
1000
0000
0010
0100
0000
0001
0000
1000
0000
,  // measure 61
0010
0000
0100
0001
0000
1000
0000
0001
0000
0010
0100
0000
1000
0000
0100
0000
,  // measure 62
1000
0000
0001
0010
0000
0001
0000
1000
0000
0010
0100
0000
0010
1000
0001
0000
,  // measure 63
0010
0001
1000
0001
0000
0100
0000
0010
0000
1000
0001
0000
1000
0100
2000
0000
,  // measure 64
0000
3010
0100
0001
0000
0011
0000
0010
0000
0001
1000
0000
0010
0000
0100
0000
,  // measure 65
0010
0000
1000
0100
0000
1000
0000
0001
0000
0100
0001
0000
1000
0100
0010
0001
,  // measure 66
0010
0000
0001
1000
0000
0010
0000
0100
0000
0010
1000
0000
0001
1000
0100
0000
,  // measure 67
1000
0010
0100
0010
0000
1000
0000
0001
0000
0010
0001
0000
1000
0001
0010
0100
,  // measure 68
0010
0001
1000
0001
0000
0100
0000
0110
0000
0010
1000
0000
0001
0100
0001
0000
,  // measure 69
1000
0010
0000
1010
0000
0101
0000
0110
0000
0010
1000
0000
1000
0100
0010
0000
,  // measure 70
0001
0000
0100
0001
0000
0010
0000
0011
0000
0001
1000
0000
0100
0000
0010
0000
,  // measure 71
0100
1000
0001
1000
0000
0100
0000
0110
0000
0001
0010
0000
0001
1000
0010
0000
,  // measure 72
0100
0000
0010
1000
0000
0010
0000
0110
0000
0100
0001
0000
0010
0100
1000
0000
,  // measure 73
0001
1000
0100
1000
0000
0001
0000
0011
0000
0010
0100
0000
1000
0001
0100
0010
;
