#TITLE:Sulk;
#SUBTITLE:;
#ARTIST:SYUNN;
#TITLETRANSLIT:;
#SUBTITLETRANSLIT:;
#ARTISTTRANSLIT:;
#GENRE:;
#CREDIT:;
#BANNER:Sulk_banner.png;
#BACKGROUND:Sulk.png;
#LYRICSPATH:;
#CDTITLE:;
#MUSIC:Sulk.ogg;
#OFFSET:-0.206000;
#SAMPLESTART:51.400002;
#SAMPLELENGTH:12.800000;
#LASTBEATHINT:321.000000;
#SELECTABLE:YES;
#BPMS:0.000000=150.000000
;
#STOPS:126.750000=0.400000
;
#BGCHANGES:;
#KEYSOUNDS:;
#ATTACKS:;

//---------------dance-single - ----------------
#NOTES:
     dance-single:
     :
     Easy:
     5:
     0.179277,0.207849,0.067229,0.141928,0.000000,168.000000,159.000000,9.000000,19.000000,0.000000,0.000000,0.179277,0.207849,0.067229,0.141928,0.000000,168.000000,159.000000,9.000000,19.000000,0.000000,0.000000:
// measure 0
0000
0000
0000
0000
,  // measure 1
0000
0000
0000
0000
,  // measure 2
0000
0000
0000
0000
,  // measure 3
0000
0000
0000
0000
,  // measure 4
0010
0000
0001
0000
,  // measure 5
1000
0000
0100
0000
,  // measure 6
1000
0000
0010
0000
,  // measure 7
0100
0000
1001
0000
,  // measure 8
0010
0000
0001
0000
,  // measure 9
1000
0000
0010
0000
,  // measure 10
1000
0000
0001
0000
,  // measure 11
0100
0000
0001
0000
,  // measure 12
0010
0000
0001
0000
,  // measure 13
1000
0000
0010
0000
,  // measure 14
0100
0000
0001
0000
,  // measure 15
1000
0000
0110
0000
,  // measure 16
0002
0000
0003
0000
,  // measure 17
2000
0000
3000
0000
,  // measure 18
0200
0000
0300
0000
,  // measure 19
0020
0000
0030
0000
,  // measure 20
0100
0000
0100
0000
,  // measure 21
1000
0000
1000
0000
,  // measure 22
0001
0000
0001
0000
,  // measure 23
0010
0000
0110
0000
,  // measure 24
0010
0000
0001
0000
,  // measure 25
0100
0000
0010
0000
,  // measure 26
1000
0000
0010
0000
,  // measure 27
0100
0000
0002
0003
,  // measure 28
0010
0001
0010
0000
,  // measure 29
0100
1000
0100
0000
,  // measure 30
1000
0010
1000
0000
,  // measure 31
0001
0000
1001
0000
,  // measure 32
0000
0100
0000
0010
,  // measure 33
0100
0010
0000
1000
,  // measure 34
0000
0100
0000
1000
,  // measure 35
0001
1000
0000
0001
,  // measure 36
0000
0010
0000
0001
,  // measure 37
0100
0001
0000
0100
,  // measure 38
0000
0010
0000
1000
,  // measure 39
0100
1000
0000
0002
,  // measure 40
0000
0103
0000
0010
,  // measure 41
0000
1000
0000
0200
,  // measure 42
0000
1300
0000
0010
,  // measure 43
0000
0100
0000
0001
,  // measure 44
0010
0001
0000
1000
,  // measure 45
0010
1000
0000
0010
,  // measure 46
0000
0100
0000
0001
,  // measure 47
0000
1001
0000
0200
,  // measure 48
0000
0310
0000
0010
,  // measure 49
0100
0010
0000
2000
,  // measure 50
0000
3001
0000
0001
,  // measure 51
0010
0001
0000
0020
,  // measure 52
0000
0130
0000
1000
,  // measure 53
0100
1000
0000
0010
,  // measure 54
0000
0110
0000
2000
,  // measure 55
0000
3000
0000
0010
,  // measure 56
0100
0010
0000
1000
,  // measure 57
0100
1000
0000
0010
,  // measure 58
0100
0010
0000
0100
,  // measure 59
0001
0100
0000
0001
,  // measure 60
0010
0100
0000
1000
,  // measure 61
0010
0100
0000
0010
,  // measure 62
0000
1001
0000
0010
,  // measure 63
0100
0010
0000
2000
,  // measure 64
0000
0000
3000
0020
,  // measure 65
0000
0000
0030
0200
,  // measure 66
0000
0000
0300
0002
,  // measure 67
0000
0000
0003
0010
,  // measure 68
0000
0100
0000
1000
,  // measure 69
0000
0001
0000
1000
,  // measure 70
0000
0100
0000
0220
,  // measure 71
0000
0000
0000
0330
0000
0000
0001
0000
,  // measure 72
0000
0010
0000
0000
,  // measure 73
0010
0000
0001
1000
,  // measure 74
0000
0100
0000
0000
,  // measure 75
0100
0000
1000
0010
,  // measure 76
0000
0100
0000
0001
,  // measure 77
0000
1000
0000
0100
,  // measure 78
0000
0010
0000
2002
,  // measure 79
0000
0000
3003
0000
;

//---------------dance-single - ----------------
#NOTES:
     dance-single:
     :
     Medium:
     10:
     0.396971,0.416352,0.104578,0.186747,0.026145,372.000000,358.000000,14.000000,25.000000,0.000000,0.000000,0.396971,0.416352,0.104578,0.186747,0.026145,372.000000,358.000000,14.000000,25.000000,0.000000,0.000000:
// measure 0
0000
0000
0000
0000
,  // measure 1
0000
0000
0000
0000
,  // measure 2
0000
0000
0000
0000
,  // measure 3
0000
0000
0000
0000
,  // measure 4
0002
0010
0000
0103
,  // measure 5
2000
0010
0000
3100
,  // measure 6
0020
1000
0000
0130
,  // measure 7
0200
0001
0300
0110
,  // measure 8
1000
0000
0100
1000
0001
0000
0100
0000
,  // measure 9
0010
0100
0001
0010
,  // measure 10
0001
0000
0100
0001
0010
0000
0100
0000
,  // measure 11
1000
0001
2002
3003
,  // measure 12
0100
0000
0010
1000
0001
0000
0100
0000
,  // measure 13
0001
0010
0001
0100
,  // measure 14
0010
0000
1000
0100
0010
0000
0100
0000
,  // measure 15
1000
0001
0220
0330
,  // measure 16
1000
0010
0100
0010
,  // measure 17
0000
0010
0100
0001
,  // measure 18
0010
0001
0100
0001
,  // measure 19
0000
0001
0010
0100
,  // measure 20
1000
0000
0010
0000
1000
0100
0010
0000
,  // measure 21
0001
0000
0100
0000
0001
0100
0010
0000
,  // measure 22
0100
0000
0001
0000
1000
0001
1000
0000
,  // measure 23
0220
0000
0000
0000
0000
0330
0000
0000
,  // measure 24
0001
0000
0000
0010
0000
0000
0001
0000
0000
0000
1000
0000
0100
0000
0000
0000
,  // measure 25
1000
0000
0000
0010
0000
0000
1000
0000
0000
0000
0001
0000
0100
0000
0000
0000
,  // measure 26
0010
0000
0000
0100
0000
0000
0010
0000
0000
0000
0100
0000
0010
0000
0000
0000
,  // measure 27
1000
0000
0000
0001
0000
0000
1000
0000
0200
0000
0000
0000
0310
0000
0000
0000
,  // measure 28
0001
0000
0100
0000
0001
1000
0001
0000
,  // measure 29
1000
0000
0010
0000
1000
0001
1000
0000
,  // measure 30
0001
0100
0010
0000
1000
0100
0010
0000
,  // measure 31
0001
0000
0000
0000
1000
0000
0000
0000
0220
0000
0000
0330
1000
0000
0000
0000
,  // measure 32
0010
1000
0100
0000
0010
0000
0001
0000
,  // measure 33
0100
0001
0010
0000
0001
0000
1000
0000
,  // measure 34
0001
0010
0100
0000
0010
0000
0001
0000
,  // measure 35
1000
0010
0100
0000
0110
0000
1000
0000
,  // measure 36
0001
0010
0100
0000
0010
0000
0001
0000
,  // measure 37
1000
0001
0100
0000
0010
0000
1000
0001
,  // measure 38
1000
0000
0000
0000
0010
0000
0100
0000
0010
0000
0000
0000
1000
0000
0000
0010
,  // measure 39
0000
1000
0001
0000
0101
0000
0010
0000
,  // measure 40
0100
1000
0001
1000
0100
0000
1000
0000
,  // measure 41
0010
0100
0001
0100
0010
0000
1000
0000
,  // measure 42
0001
1000
0010
0100
0001
0000
0010
0000
,  // measure 43
0001
0100
0010
1000
0100
0000
1000
0010
,  // measure 44
1000
0000
0001
0010
0001
0000
0100
0010
,  // measure 45
0100
0000
0010
1000
0010
0000
1000
0001
,  // measure 46
0100
0000
0000
0000
0001
0000
1000
0000
0100
0000
0000
0000
0010
0000
0000
0100
,  // measure 47
0000
0010
0100
0000
0110
0000
2000
0000
,  // measure 48
3010
0100
0010
0100
0010
0000
2000
0000
,  // measure 49
3001
0010
0001
0010
0001
0000
0200
0000
,  // measure 50
0310
1000
0001
1000
0010
0000
2000
0000
,  // measure 51
3100
0010
0001
0010
0100
0000
1001
0000
,  // measure 52
0100
0001
1000
0001
0100
0000
0010
0000
,  // measure 53
1000
0001
0010
0100
1000
0000
0010
1000
,  // measure 54
0010
0000
0000
0000
0100
0000
0001
0000
0100
0000
0000
0000
0001
0000
0000
1000
,  // measure 55
0000
0001
1000
0000
0110
0000
0001
1000
,  // measure 56
0010
1000
0001
0000
0010
0000
0100
1000
,  // measure 57
0001
1000
0100
0000
0010
0000
0100
1000
,  // measure 58
0010
1000
0010
0000
0100
0000
0001
0010
,  // measure 59
0001
0010
0100
0000
1000
0000
0010
0100
,  // measure 60
0000
0100
0010
1000
0100
0000
0010
0001
,  // measure 61
0000
0001
0100
0010
0100
0000
0001
1000
,  // measure 62
0010
0000
1000
0001
0010
0000
0100
1000
,  // measure 63
0000
0001
1000
0000
0110
0000
0002
0000
,  // measure 64
0000
0103
0010
2000
,  // measure 65
0000
3100
0010
0200
,  // measure 66
0000
1300
0001
0200
,  // measure 67
0000
0301
0010
0001
,  // measure 68
1000
0000
0100
1000
0001
0000
1000
0000
,  // measure 69
0010
0000
0100
0001
1000
0000
0100
0010
,  // measure 70
0001
0000
0001
0010
0100
0000
2002
0000
,  // measure 71
0000
0000
0000
3003
0000
0000
0100
0000
,  // measure 72
0010
0100
0010
0000
1000
0000
0000
0000
,  // measure 73
1000
0000
0100
1000
0100
0000
0010
0000
,  // measure 74
0001
0100
0001
0000
0010
0000
0100
0000
,  // measure 75
0000
1001
0000
1000
,  // measure 76
0010
0000
0100
0010
0100
0000
0001
0000
,  // measure 77
0010
0000
0100
0010
0100
0000
0010
0000
,  // measure 78
0001
0000
1000
0001
1000
0000
0220
0000
,  // measure 79
0000
0000
0000
0000
0000
0330
0000
0000
;

//---------------dance-single - ----------------
#NOTES:
     dance-single:
     :
     Hard:
     15:
     0.696833,0.744653,0.276385,0.074699,0.422048,653.000000,616.000000,37.000000,10.000000,0.000000,0.000000,0.696833,0.744653,0.276385,0.074699,0.422048,653.000000,616.000000,37.000000,10.000000,0.000000,0.000000:
// measure 0
0000
0000
0000
0000
,  // measure 1
0000
0000
0000
0000
,  // measure 2
0000
0000
0000
0000
,  // measure 3
0000
0000
0000
0000
,  // measure 4
0100
0000
0010
0000
1000
0100
0000
0000
1000
0000
0001
0000
0010
0001
0000
0000
,  // measure 5
0010
0000
0001
0000
0100
0001
0000
0000
0100
0000
0010
0000
1000
0100
0000
0000
,  // measure 6
1000
0000
0010
0000
1000
0100
0000
0000
1000
0000
0010
0000
0100
0001
0000
0000
,  // measure 7
0010
0000
0001
0000
1000
0001
0000
0001
0010
0000
0100
0000
0110
0000
0000
0000
,  // measure 8
1000
0010
1000
0000
0001
0000
0010
0000
0100
0000
0010
0000
0001
0000
1000
0010
,  // measure 9
0100
0000
0000
0001
0010
0000
0001
0000
1000
0000
0001
0010
0100
0000
1000
0000
,  // measure 10
0010
0000
0100
0001
0000
0000
1000
0000
0100
0000
1000
0000
0010
0000
0100
0001
,  // measure 11
0010
0000
0001
0000
0010
0100
0010
0000
0001
0000
1000
0000
1010
0000
0000
0000
,  // measure 12
0100
0001
0100
0000
0010
0000
0100
0001
0000
0000
1000
0000
0010
0000
1000
0100
,  // measure 13
0020
0000
0000
0230
0000
0000
1300
0000
0001
0000
0100
0010
0100
0000
0001
0000
,  // measure 14
0010
0000
0001
1000
0000
0000
0010
0000
0100
0000
0010
0000
1000
0000
0001
0010
,  // measure 15
0100
0000
1000
0000
0010
1000
0010
1000
0010
0000
0100
0000
0101
0000
0000
0000
,  // measure 16
0010
0100
0001
0000
0010
0000
0100
0000
1000
0000
0100
0000
0010
0000
0100
0000
,  // measure 17
0000
0000
1000
0010
1000
0000
0001
0010
0001
0000
0100
0000
0010
0000
0100
0000
,  // measure 18
0000
0000
0001
0000
0010
0000
0100
0000
0010
0001
0010
0000
0100
0000
1000
0000
,  // measure 19
0000
0000
0010
1000
0001
0000
0010
0000
0001
0000
0100
0000
1000
0000
0100
0000
,  // measure 20
0001
0000
1000
0000
0100
0000
0010
0000
0000
0000
0010
0100
0010
0000
0001
0000
,  // measure 21
0000
0000
1000
0010
0100
0000
0001
0000
0010
0000
1000
0000
0010
0000
0001
0000
,  // measure 22
0000
0000
0100
0001
0010
0000
0100
0000
1000
0000
0010
0000
0100
0000
0001
0000
,  // measure 23
0000
0000
0001
1000
0100
0000
1000
0000
0010
0000
0100
0000
1001
0000
0000
0000
,  // measure 24
0011
0000
0000
1001
0000
0000
1010
0000
0000
0110
0000
0000
0200
0000
0301
0000
,  // measure 25
1001
0000
0000
1010
0000
0000
1001
0000
0000
0101
0000
0000
2000
0000
3001
0000
,  // measure 26
0011
0000
0000
0110
0000
0000
1100
0000
0000
1001
0000
0000
0200
0000
0310
0000
,  // measure 27
1010
0000
0000
1001
0000
0000
0101
0000
0000
0011
0000
0000
1000
0000
1000
0000
,  // measure 28
0001
0000
0100
0010
0000
0100
0010
0000
0100
0010
0000
0100
0010
1000
0010
0000
,  // measure 29
1000
0000
0100
0010
0000
0100
0010
0000
0100
0010
0000
0100
0010
0001
0010
0000
,  // measure 30
0001
1000
0100
0000
1000
0001
0100
0000
0010
1000
0001
0000
0010
0001
1000
0000
,  // measure 31
0010
0100
0010
0100
0010
0000
1000
0000
0100
0000
0001
0000
0100
1000
0010
0000
,  // measure 32
0100
0000
0001
0000
0010
0000
1000
0000
0010
0000
0001
0000
0000
0000
0001
0100
,  // measure 33
0001
0010
0100
1000
0100
0001
0000
0001
,  // measure 34
0100
0000
1000
0000
0010
0100
0001
0000
0010
0000
0100
0000
0000
0000
1000
0001
,  // measure 35
0100
0010
0100
0001
1001
0000
0100
0001
,  // measure 36
0010
0000
0001
0000
0000
0000
0100
0010
1000
0000
0100
0000
0000
0000
0100
1000
,  // measure 37
0001
0000
0100
0000
0010
0000
0100
0000
1000
0000
0100
0000
0000
0000
0001
0010
,  // measure 38
0001
0000
1000
0000
0010
0000
0001
0000
0010
0000
1000
0000
0001
0000
0010
0100
,  // measure 39
1000
0010
0100
0010
1010
0000
1000
0100
,  // measure 40
0010
0000
0100
1000
0000
0000
0001
0100
0010
0000
0100
0000
0001
0010
0000
0010
,  // measure 41
0100
1000
0000
1000
0010
0000
0001
0000
0010
0000
1000
0000
0001
0000
1000
0100
,  // measure 42
0010
0000
0001
0000
0000
1000
0010
0000
0100
0000
0001
0000
0010
0000
0001
0000
,  // measure 43
0100
0010
0100
0010
0100
0000
0001
0000
0011
0000
0000
0000
1000
0000
0100
0000
,  // measure 44
1000
0001
1000
0000
0010
0000
0100
0000
1000
0000
0100
0000
0001
0000
0000
0101
,  // measure 45
0000
0000
1000
0010
0100
0000
0010
0000
1000
0000
0100
0010
0001
0000
1000
0000
,  // measure 46
0001
0100
0001
0100
0001
0000
1000
0000
0010
1000
0100
0000
0010
0000
0001
0000
,  // measure 47
1000
0100
1000
0100
1000
0000
0010
0000
0110
0000
0000
0000
1010
0000
0000
0000
,  // measure 48
1000
0100
0001
0100
1000
0010
1000
0100
,  // measure 49
0001
0000
1000
0000
0010
0000
0001
0000
0010
0000
0001
0100
0001
0000
0010
0000
,  // measure 50
1000
0001
0100
1000
0010
0100
0001
0100
,  // measure 51
1000
0000
0100
0000
0001
0000
0010
0001
0000
0000
0001
0000
0100
0000
1000
0000
,  // measure 52
0100
0010
1000
0010
0001
1000
0100
0001
,  // measure 53
0010
0000
1000
0000
0001
0000
0100
1000
0000
0000
1000
0000
0010
0000
0100
0000
,  // measure 54
0010
0000
1000
0000
0001
0000
0010
0000
0100
0000
1000
0000
0010
0000
0000
0110
,  // measure 55
0000
0000
0101
0000
0000
0011
0000
1000
0000
0000
0100
1000
0001
0000
0010
0000
,  // measure 56
0100
0000
0010
0000
0001
0000
0010
0000
0100
0000
1000
0010
0100
0000
0010
0000
,  // measure 57
1000
0000
0100
0000
1000
0000
0010
0000
1000
0000
0100
1000
0010
0000
1000
0000
,  // measure 58
0010
0000
0001
0000
0010
0000
1000
0000
0010
0000
0100
0001
0010
0000
1000
0000
,  // measure 59
0010
0001
0010
1000
0020
0000
0031
0100
,  // measure 60
1000
0000
0100
0000
0010
0000
0100
0000
0001
0000
1000
0100
0010
0000
0100
0000
,  // measure 61
1000
0000
0100
0000
0001
0000
0100
0000
1000
0000
0100
0010
0001
0000
1000
0000
,  // measure 62
0010
0000
0100
0000
0001
0000
0010
0000
0100
0000
1000
0010
0100
0000
0001
0010
,  // measure 63
0100
0000
1000
0010
0100
0000
0010
0000
1001
0000
0000
0000
0210
0000
0000
0000
,  // measure 64
0000
0301
0010
0012
,  // measure 65
0000
1003
0100
0210
,  // measure 66
0000
1300
0001
0102
,  // measure 67
0000
0000
1003
0000
0010
0000
1000
0001
,  // measure 68
0100
0000
0001
0000
0000
0000
0010
0001
0010
0000
0100
0000
0000
0000
1000
0010
,  // measure 69
1000
0000
0001
0000
0100
0000
0010
0000
0001
0000
0010
0000
0000
0000
1000
0100
,  // measure 70
1000
0000
0010
0000
1000
0000
0100
0000
0010
0000
0001
0000
0000
0000
0001
0100
,  // measure 71
0001
0000
0010
0000
0001
0000
1000
0000
1001
0000
0000
0000
0010
0100
0001
0000
,  // measure 72
0010
0000
0001
0000
0010
0000
0100
0000
0010
0000
0001
0000
0000
0000
0001
1000
,  // measure 73
0100
0010
0100
0001
0100
0010
0000
0001
,  // measure 74
0010
0000
1000
0000
0010
0001
0010
0000
0100
0000
1000
0000
0000
0000
1000
0100
,  // measure 75
1000
0100
0001
0100
1000
0000
0010
1000
,  // measure 76
0100
0000
0010
0000
0000
0000
0100
1000
0001
0000
0100
0000
0000
0000
0010
0100
,  // measure 77
0001
0000
0010
0000
0001
0000
0100
0000
0010
0000
0100
0000
0000
0000
0001
1000
,  // measure 78
0100
0000
0010
0000
0100
1000
0001
0000
0100
0000
0010
0000
0000
0000
1000
0001
,  // measure 79
0010
0000
0100
0000
0010
0001
1000
0000
1001
0000
0000
0000
0110
0000
0000
0000
;
