#TITLE:水月鏡花のコノテーション;
#SUBTITLE:;
#ARTIST:日向美ビタースイーツ♪;
#TITLETRANSLIT:Suigetsukyouka no connotation;
#SUBTITLETRANSLIT:;
#ARTISTTRANSLIT:Hinatabi Bitter Sweets;
#GENRE:;
#CREDIT:;
#BANNER:Suigetsukyouka_no_connotation_banner.png;
#BACKGROUND:Suigetsukyouka_no_connotation.png;
#LYRICSPATH:;
#CDTITLE:;
#MUSIC:Suigetsukyouka no connotation.ogg;
#OFFSET:-0.560000;
#SAMPLESTART:74.500000;
#SAMPLELENGTH:12.000000;
#LASTBEATHINT:380.500000;
#SELECTABLE:YES;
#BPMS:0.000000=185.000000
;
#STOPS:
;
#BGCHANGES:;
#KEYSOUNDS:;
#ATTACKS:;

//---------------dance-single - ----------------
#NOTES:
     dance-single:
     :
     Easy:
     6:
     0.213697,0.297593,0.102891,0.229527,0.000000,189.000000,176.000000,13.000000,29.000000,0.000000,0.000000,0.213697,0.297593,0.102891,0.229527,0.000000,189.000000,176.000000,13.000000,29.000000,0.000000,0.000000:
0000
0000
0000
0000
,
0000
0000
0000
0000
,
0000
0000
0000
0000
,
0000
0000
0000
0000
,
0000
0000
0000
0000
,
0100
0000
0010
0000
,
1000
0000
0001
0000
,
0010
0000
0100
0000
,
2002
0000
3003
0000
,
0010
0000
0100
0000
,
0001
0000
1000
0000
,
0100
0000
1000
0000
,
0010
0000
0100
0000
,
0001
0000
0010
0000
,
0100
0000
1000
0000
,
0220
0000
0000
0000
,
0330
0000
0000
0000
,
0001
0000
0000
1000
0000
0000
0002
0000
,
0000
0003
0000
0000
,
1000
0000
0000
0001
0000
0000
2000
0000
,
0000
3000
0000
0000
,
0100
0000
0000
0010
0000
0000
0200
0000
,
0000
0300
0000
0000
,
0010
0000
0000
0100
0000
0000
0020
0000
,
0000
0030
0000
0000
,
0001
0000
1000
0010
,
1000
0000
0100
0000
,
1000
0000
0001
0010
,
0001
0000
0100
0000
,
0010
0000
0100
0000
,
0001
1000
0001
0000
,
1000
0000
0010
0000
,
0100
0010
0100
0000
,
0001
0000
1000
0100
,
0010
0000
0001
0000
,
0010
0000
0001
0010
,
0100
0000
1000
0000
,
0020
0000
0130
0000
,
0200
0000
0310
0000
,
1000
0000
0100
0000
,
0010
0000
0001
0000
,
0220
0000
0000
0000
0000
0330
0000
0000
,
0000
0000
1000
0000
,
2200
0000
3300
0000
,
0001
0000
0010
0000
,
0022
0000
0033
0000
,
0001
0000
1000
0000
,
0010
0000
0100
0000
,
0001
0000
0010
0100
,
1000
0000
0000
0010
0000
0000
2000
0000
,
0000
3000
0000
0000
,
0001
0000
0000
0010
0000
0000
0002
0000
,
0000
0003
0000
0000
,
0100
0000
0000
0010
0000
0000
0200
0000
,
0000
0300
0000
0000
,
0001
0000
1000
0000
,
0010
0000
0100
0000
,
0002
0000
0013
0100
,
0010
0000
0001
0000
,
2000
0000
3010
0100
,
0010
0000
1000
0000
,
0020
0000
0130
0001
,
0100
0000
0010
0000
,
2000
0000
3100
0010
,
0100
0000
1000
0000
,
0001
0000
0011
0000
,
1000
0000
1010
0000
,
0001
0000
0101
0000
,
1000
0000
1100
0000
,
0010
0100
0010
0000
,
1000
0001
1000
0000
,
0001
0000
0010
0001
,
1000
0000
0010
0000
,
0200
0000
0000
0300
,
0001
0000
0010
0000
,
0200
0000
0000
0300
,
1000
0000
0010
0000
,
1000
0000
0001
0010
,
0001
0000
1000
0000
,
0010
0000
0100
0001
,
1000
0000
0100
0000
,
0010
0000
0001
1000
,
0010
0000
0110
0000
,
1000
0000
0100
0010
,
0001
0000
1001
0000
,
0010
1000
0010
0000
,
0100
0001
0100
0000
,
0001
0000
0010
0100
,
1000
0000
0010
0000
,
2002
0000
0000
0000
,
0000
0000
3003
0000
,
0100
0000
0000
0000
,
0010
0000
0000
0000
,
0220
0000
0000
0000
,
0330
0000
0000
0000
;

//---------------dance-single - ----------------
#NOTES:
     dance-single:
     :
     Medium:
     11:
     0.433048,0.487447,0.213697,0.237441,0.000000,383.000000,356.000000,27.000000,30.000000,0.000000,0.000000,0.433048,0.487447,0.213697,0.237441,0.000000,383.000000,356.000000,27.000000,30.000000,0.000000,0.000000:
// measure 0
0000
0000
0000
0000
,  // measure 1
0000
0000
0000
0000
,  // measure 2
0000
0000
0000
0000
,  // measure 3
0000
0000
0000
0000
,  // measure 4
0000
0000
0000
0000
,  // measure 5
2000
0000
0000
0000
3010
0000
0100
0001
,  // measure 6
0000
0000
0010
0000
0100
0000
1000
0001
,  // measure 7
0100
0220
0000
0000
,  // measure 8
0330
0000
0001
0010
,  // measure 9
0001
0000
1000
0000
0100
0000
1000
0020
,  // measure 10
0000
0130
0001
0010
,  // measure 11
0100
0000
1000
0000
0010
0100
0020
0000
,  // measure 12
0000
0000
1030
0000
0100
0000
0010
0001
,  // measure 13
0200
0000
0000
0000
0310
0000
1000
0100
,  // measure 14
0000
1000
0010
0100
,  // measure 15
0001
2200
0000
0000
,  // measure 16
0000
0000
3300
0000
,  // measure 17
0001
0000
0100
0010
0000
1000
0100
0000
,  // measure 18
1000
0010
0000
0100
0001
0000
1001
0000
,  // measure 19
0010
0001
0000
1000
0100
0000
1000
0001
,  // measure 20
0000
0010
0100
0000
1000
0000
1010
0000
,  // measure 21
0100
0001
0000
0010
0001
0000
1000
0010
,  // measure 22
0000
0100
0001
0000
0010
0000
0110
0000
,  // measure 23
0100
1000
0000
0001
0100
0000
0010
1000
,  // measure 24
0000
0001
0020
0000
0000
0000
0031
0000
,  // measure 25
1000
0000
0100
0000
1000
0000
0010
0100
,  // measure 26
0000
0010
0100
0000
0001
0000
0010
0000
,  // measure 27
0001
1000
0000
0001
1000
0000
0100
0010
,  // measure 28
0000
0100
0010
0000
0001
0000
1001
0000
,  // measure 29
1000
0100
0000
0010
0001
0000
1000
0001
,  // measure 30
0000
0010
0100
0000
1000
0000
0010
0000
,  // measure 31
1000
0000
1100
0000
0010
0100
0010
0100
,  // measure 32
0000
0001
0010
0000
0001
2000
0000
0000
,  // measure 33
3010
0000
0100
0000
0010
1000
0010
1000
,  // measure 34
0000
0000
0001
0000
0010
0001
0010
0000
,  // measure 35
0001
0000
1000
0000
0100
0000
1000
0010
,  // measure 36
0000
0000
0010
0000
0100
0000
0010
1000
,  // measure 37
0100
0000
0010
0000
0001
0000
1000
0100
,  // measure 38
0000
1000
0010
0000
0100
0000
0010
0000
,  // measure 39
1000
0000
0110
0000
0001
0010
0100
2000
,  // measure 40
0000
0000
3001
0000
0100
0000
0010
1000
,  // measure 41
0000
0000
0100
0000
1000
0100
1000
0000
,  // measure 42
0001
0000
0100
0000
0001
0010
0001
0000
,  // measure 43
1000
0000
0010
0000
1000
0001
1000
0000
,  // measure 44
0001
0000
0010
0000
0001
1000
0001
0000
,  // measure 45
0200
0000
0010
0000
0301
0000
0010
0001
,  // measure 46
0000
0000
1000
0000
0010
0100
0010
0000
,  // measure 47
2000
0000
0001
0000
3010
0000
0100
0010
,  // measure 48
0000
0000
1000
0000
0001
0010
0100
0000
,  // measure 49
1000
0000
0000
1100
0000
0000
2002
0000
,  // measure 50
0000
0000
3003
0000
,  // measure 51
0001
0000
0000
0011
0000
0000
2002
0000
,  // measure 52
0000
0000
3003
0000
,  // measure 53
0010
0000
0000
0110
0000
0000
2002
0000
,  // measure 54
0000
3003
0000
0000
0100
0000
0010
0000
,  // measure 55
1000
0000
0100
0010
0000
0001
1000
0000
,  // measure 56
0010
0100
0000
0000
0001
0000
0010
0000
,  // measure 57
0001
0000
0100
0000
0010
0100
0010
0100
,  // measure 58
0000
0000
0001
0000
1000
0100
1000
0000
,  // measure 59
0010
0000
0100
0000
0010
1000
0010
0000
,  // measure 60
0100
0010
0100
0002
0000
0000
0013
0000
,  // measure 61
0110
0000
1000
0000
0001
0000
0100
0010
,  // measure 62
0000
0010
0100
0000
0001
0000
1000
0100
,  // measure 63
0000
1000
0100
0000
1000
0000
0001
0000
,  // measure 64
0010
0001
1000
0020
0000
0000
0130
0000
,  // measure 65
0001
0000
1000
0100
0000
1000
0010
1000
,  // measure 66
0000
0001
0010
0001
0000
0000
1001
0000
,  // measure 67
0100
0010
1000
0100
,  // measure 68
1000
0000
0001
0020
0000
0000
0031
0000
,  // measure 69
0100
0000
0001
1000
0000
0001
0100
0001
,  // measure 70
0000
1000
0100
1000
0000
0000
0110
0000
,  // measure 71
0001
0010
0100
1000
,  // measure 72
0010
0100
0010
0000
1000
0000
0100
0000
,  // measure 73
2000
0000
0000
0010
0000
0000
3100
0000
,  // measure 74
0000
1000
0000
0010
0100
0000
0001
0000
,  // measure 75
0020
0000
0000
0001
0000
0000
0130
0000
,  // measure 76
0000
1000
0000
0001
0100
0000
0001
0000
,  // measure 77
1000
0000
0000
0110
0000
0000
0001
0000
,  // measure 78
0000
0011
0000
1000
0100
0000
1000
0000
,  // measure 79
0010
0000
0000
1001
0000
0000
0100
0000
,  // measure 80
0000
1010
0000
0001
0100
0000
0001
0000
,  // measure 81
0010
0000
0000
1001
0000
0000
0010
0000
,  // measure 82
0000
0110
0000
0000
1000
0000
0100
0000
,  // measure 83
1000
0000
0000
1001
0000
0000
0010
0000
,  // measure 84
0000
0101
0000
0000
0010
0000
0110
0000
,  // measure 85
1000
0000
0100
1000
0000
0010
1000
0000
,  // measure 86
0001
0010
0000
0001
1000
0000
0001
0000
,  // measure 87
0100
0000
0010
0100
0000
0010
0100
0000
,  // measure 88
0001
1000
0000
0001
1000
0000
0001
0000
,  // measure 89
0200
0000
0010
0000
,  // measure 90
0302
0000
0010
0000
,  // measure 91
2003
0000
0100
0000
,  // measure 92
3020
0000
0130
0000
,  // measure 93
2002
0000
0000
0000
,  // measure 94
0000
0000
0000
3003
;

//---------------dance-single - ----------------
#NOTES:
     dance-single:
     :
     Hard:
     13:
     0.658052,0.749919,0.348247,0.205782,0.071232,582.000000,538.000000,44.000000,26.000000,0.000000,0.000000,0.658052,0.749919,0.348247,0.205782,0.071232,582.000000,538.000000,44.000000,26.000000,0.000000,0.000000:
// measure 0
0000
0000
0000
0000
,  // measure 1
0000
0000
0000
0000
,  // measure 2
0000
0000
0000
0000
,  // measure 3
0000
0000
0000
0000
,  // measure 4
0000
0000
0000
0000
0001
0100
1000
0100
,  // measure 5
0002
0000
0000
0000
0013
0000
0100
2000
,  // measure 6
0000
0001
3001
0000
0010
0000
1000
0000
,  // measure 7
0010
0022
0000
0000
,  // measure 8
0033
0000
0000
0000
1000
0010
0100
0001
,  // measure 9
0020
0000
0130
0000
0100
0010
0001
1000
,  // measure 10
0000
1000
0010
0000
0100
0010
1000
0000
,  // measure 11
1100
0000
0001
0000
0100
0010
1000
0001
,  // measure 12
0000
0000
0011
0000
1000
0100
0001
0100
,  // measure 13
2000
0000
0000
0000
3010
0000
0100
0001
,  // measure 14
0000
0010
1000
0000
0010
0000
0001
0000
,  // measure 15
0100
2002
0000
0000
,  // measure 16
3003
0000
0000
0000
0000
0000
0000
0000
0000
0000
0010
0100
0010
0000
0000
0000
,  // measure 17
1000
0100
0100
0001
0100
0100
1000
0100
,  // measure 18
0000
0000
0100
0000
1000
0000
0001
0000
0100
0010
0100
0000
0002
0000
0000
0000
,  // measure 19
1003
0010
0010
0001
0010
0010
1000
0010
,  // measure 20
0000
0000
0010
0000
1000
0000
0001
0000
1000
0000
0010
0100
0010
0000
0000
0000
,  // measure 21
1000
0010
0010
1000
0100
0100
1000
0001
,  // measure 22
0000
0000
0010
0000
0001
0000
1000
0000
0010
0100
0010
0000
2000
0000
0000
0000
,  // measure 23
3001
0100
0100
0001
0010
0010
0001
1000
,  // measure 24
0000
1000
0220
0000
0000
0000
0330
0000
,  // measure 25
0001
1000
0000
0001
1000
0010
0100
0010
,  // measure 26
0000
0100
0001
0010
0100
0000
1100
0000
,  // measure 27
1000
0001
0000
1000
0001
0000
0010
0100
,  // measure 28
1000
0000
0001
0000
1000
0000
0010
0000
0100
0000
0001
0010
0001
0000
0000
0000
,  // measure 29
1000
0100
0010
0100
1000
0100
0001
0100
,  // measure 30
0000
0100
1000
0001
0100
0010
0100
0001
,  // measure 31
0010
0000
1001
0000
0010
0100
0001
0100
,  // measure 32
0000
0100
0010
1000
0001
2002
3003
0000
,  // measure 33
0110
0000
1000
0100
1000
0001
0010
0100
,  // measure 34
0000
0100
0010
0001
1000
0010
0200
0000
,  // measure 35
0301
1000
0010
0100
0001
0010
0100
1000
,  // measure 36
0000
1000
0010
0100
0010
1000
0100
0010
,  // measure 37
0001
0000
1100
0000
0010
1000
0100
1000
,  // measure 38
0000
1000
0001
1000
0010
0001
0010
0000
,  // measure 39
0100
0010
0010
0100
0010
0100
0100
0001
,  // measure 40
0000
0000
0001
0010
0100
0000
1000
0000
0010
0000
1000
0000
0001
0000
0010
0000
,  // measure 41
0000
0010
0001
1000
0001
0010
0100
1000
,  // measure 42
0000
0010
0100
0001
1000
0010
0001
0010
,  // measure 43
1000
0001
0100
0010
1000
0100
0010
1000
,  // measure 44
0000
1000
0010
0001
0100
0010
0001
0000
,  // measure 45
0110
0000
1000
0000
0010
0100
0001
0010
,  // measure 46
0000
0010
0001
0100
0010
0001
0010
1000
,  // measure 47
0001
0000
1100
0000
0010
0100
0010
1000
,  // measure 48
0000
0000
1000
0000
0001
0000
0010
0000
0001
1000
0001
0000
0100
0000
0010
0000
,  // measure 49
1000
0000
0100
1100
0000
1000
1020
0000
,  // measure 50
0000
0100
0000
1000
1030
0000
1010
0000
,  // measure 51
0101
0000
0010
0011
0000
0001
0201
0000
,  // measure 52
0000
0010
0000
0001
0301
0000
0011
0000
,  // measure 53
1200
0000
0010
0010
0300
1000
1100
0000
,  // measure 54
0000
0101
0000
0010
0100
0010
2000
0000
,  // measure 55
3001
0100
0100
1000
0100
0100
0001
0100
,  // measure 56
0100
1000
0100
0001
0100
0010
0100
0000
,  // measure 57
1001
0000
0010
1000
0100
0001
0100
0010
,  // measure 58
0000
0001
0010
0100
1000
0010
0100
0001
,  // measure 59
1000
0010
0001
0000
0001
0010
1000
0000
,  // measure 60
0001
0010
1000
0001
0100
1000
0010
0000
,  // measure 61
0110
0000
0001
1000
0100
0010
0100
1000
,  // measure 62
0000
1000
0010
0100
0001
0010
0100
1000
,  // measure 63
0001
0100
1000
0000
1000
0100
0001
0000
,  // measure 64
1000
0010
0001
1000
0100
0001
0010
1000
,  // measure 65
0000
0010
0001
1000
0000
0001
0100
1000
,  // measure 66
0000
0010
0001
1000
0000
0010
0110
0000
,  // measure 67
1000
0100
0010
0001
0010
0100
1000
0010
,  // measure 68
0100
0001
0010
0100
1000
0001
0010
1000
,  // measure 69
0000
0010
0001
1000
0000
0001
0100
1000
,  // measure 70
0000
0100
0001
0010
0000
0100
1100
0000
,  // measure 71
0001
1000
0010
0100
0001
1000
0100
0010
,  // measure 72
0001
0000
0000
1000
0000
0000
0001
0000
0000
1000
0000
0000
0010
0000
0100
0000
0010
0000
1000
0000
0100
0000
0010
0000
,  // measure 73
0001
0000
1000
1100
0000
0001
0010
0001
,  // measure 74
0000
0100
0010
0100
0001
0000
1001
0000
,  // measure 75
0110
0000
0010
1010
0000
1000
0001
0100
,  // measure 76
0000
0010
1000
0001
0010
0100
0110
0000
,  // measure 77
1200
1000
0000
0010
0010
0000
1000
1000
,  // measure 78
0000
0010
0010
0000
1300
0000
1100
0000
,  // measure 79
0201
0001
0000
0010
0010
0000
0001
0001
,  // measure 80
0000
0010
0010
0000
0301
0000
0101
0000
,  // measure 81
0010
0010
1000
0001
0001
0010
0100
0100
,  // measure 82
1000
0000
0010
0000
0010
0000
0100
0000
0001
1000
0001
0000
0100
0010
0100
0000
,  // measure 83
0001
0001
1000
0100
0100
1000
0010
0010
,  // measure 84
1000
0000
0001
0000
0001
0000
0010
0000
0100
1000
0100
0000
1000
0010
1000
0000
,  // measure 85
0001
0000
0100
0110
0000
0010
1010
0000
,  // measure 86
1000
1100
0000
0001
0011
0000
1001
0000
,  // measure 87
0110
0000
0001
0101
0000
1000
1010
0000
,  // measure 88
0010
0000
0110
0000
0000
0000
1000
0000
0001
0000
1000
0001
1000
0001
1000
0001
,  // measure 89
0200
0000
0010
0000
,  // measure 90
0302
0000
0010
0000
,  // measure 91
2003
0000
0100
0000
,  // measure 92
3020
0000
0001
0000
,  // measure 93
0200
0000
0000
0000
,  // measure 94
0000
0000
0000
0330
;
