#TITLE:Storm Buster;
#SUBTITLE:;
#ARTIST:P*Light;
#TITLETRANSLIT:;
#SUBTITLETRANSLIT:;
#ARTISTTRANSLIT:;
#GENRE:;
#CREDIT:;
#BANNER:Storm_Buster_banner.png;
#BACKGROUND:Storm_Buster.png;
#LYRICSPATH:;
#CDTITLE:;
#MUSIC:Storm Buster.ogg;
#OFFSET:-0.560000;
#SAMPLESTART:81.070000;
#SAMPLELENGTH:12.000000;
#LASTBEATHINT:322.998840;
#SELECTABLE:YES;
#BPMS:0.000000=193.000000
,93.000000=96.500000
,109.000000=193.000000
,173.000000=96.500000
,189.000000=193.000000
;
#STOPS:92.000000=0.933000
;
#BGCHANGES:;
#KEYSOUNDS:;
#ATTACKS:;

//---------------dance-single - ----------------
#NOTES:
     dance-single:
     :
     Easy:
     7:
     0.298843,0.349740,0.235339,0.191758,0.000000,240.000000,213.000000,27.000000,22.000000,0.000000,0.000000,0.298843,0.349740,0.235339,0.191758,0.000000,240.000000,213.000000,27.000000,22.000000,0.000000,0.000000:
0000
0000
0000
0000
,
0000
0000
0000
0000
,
0000
0000
0000
0000
,
0000
0000
0000
0000
,
1000
0000
0001
0000
,
0010
0000
0100
0000
,
1000
0001
0100
0010
,
2002
0000
3003
0000
,
0100
0010
1000
0000
,
0100
1000
0001
0000
,
0010
0001
1000
0000
,
0010
0100
0202
0303
,
0010
1000
0100
0000
,
0010
0001
1000
0000
,
0001
1000
0010
0000
,
0100
0100
0200
0300
,
0010
0100
0001
0000
,
0010
0001
1000
0000
,
0010
1000
0100
0000
,
1000
0010
0100
0001
,
0011
0000
1100
0000
,
1001
0000
0110
0000
,
1000
0001
0010
0100
,
1001
0100
0010
1000
,
0000
0001
0100
0010
,
0000
1000
0100
0010
,
0001
0100
0010
0220
,
0330
1000
0000
0010
,
0100
0002
0000
0013
,
0000
0001
0000
0010
,
0100
2000
0000
3010
,
0000
0100
0010
1000
,
0000
0100
0010
0001
,
0000
0010
0100
1000
,
0000
0010
0010
0020
,
0030
1000
0100
1000
,
0000
0001
0100
0001
,
0000
0010
0001
0010
,
0000
0100
1000
0100
,
0000
1010
0000
0100
,
0001
0011
0000
0001
,
1000
0010
0100
0001
,
0010
0200
0000
0000
,
0300
0000
2002
0000
0000
0000
0000
3003
,
0000
0000
0000
0000
,
0000
0010
0000
0100
,
0000
0001
0000
1000
,
0000
0011
0000
1000
,
0000
0010
1000
0010
,
0000
0110
0000
1000
,
0000
0001
0010
0001
,
0000
1000
0010
1000
,
0000
0001
0010
0001
,
0000
1001
0000
0110
,
0000
1000
0001
1001
,
0000
0220
0000
0330
,
0000
0010
0000
0010
,
0100
0001
0100
0010
,
0000
1000
0100
0010
,
0100
1000
0001
0001
,
0000
0100
0010
2000
,
0000
3100
1000
0010
,
0000
0110
0000
0101
,
0000
0010
0010
0020
,
0030
0100
0001
0010
,
0001
0100
0010
0010
,
0000
1000
0001
0010
,
0001
1000
0100
0100
,
0000
1000
0100
0002
,
0000
0103
1000
0010
,
0000
1010
0000
0110
,
0000
0001
0001
0002
,
0003
1000
0010
1000
,
0001
0010
0001
0100
,
0100
0110
0000
2000
,
0000
3002
0000
0013
,
0000
1100
0000
0101
,
0000
0011
0000
1010
,
0000
0100
0010
1000
,
0001
0010
0100
2000
,
3000
1001
0000
0000
;

//---------------dance-single - ----------------
#NOTES:
     dance-single:
     :
     Medium:
     12:
     0.588971,0.839377,0.357367,0.339934,0.122028,473.000000,432.000000,41.000000,39.000000,0.000000,0.000000,0.588971,0.839377,0.357367,0.339934,0.122028,473.000000,432.000000,41.000000,39.000000,0.000000,0.000000:
0000
0000
0000
0000
,
0000
0000
0000
0000
,
0000
0000
0000
0000
,
0000
0000
0000
0000
,
0010
0110
1000
1100
,
0001
0011
2002
3003
,
0100
0010
1000
0001
0010
0100
1000
0001
,
0200
0000
0300
0110
,
0001
0000
0010
0000
0001
0000
1000
0000
0010
0000
0000
0100
0000
0000
0010
0000
,
1000
0000
0100
0000
0010
0000
0100
0000
1000
0000
0000
0001
0000
0000
0010
0000
,
0001
0000
0100
0000
0010
0000
0100
0000
0001
0000
0000
1000
0000
0000
0100
0000
,
1000
1001
0220
0330
,
0001
0000
0100
0000
0010
0000
0100
0000
0010
0000
0000
1000
0000
0000
0100
0000
,
0010
0000
0001
0000
0010
0000
0001
0000
1000
0000
0000
0001
0000
0000
0100
0000
,
0010
0000
1000
0000
0010
0000
1000
0000
0001
0000
0000
0010
0000
0000
0100
0000
,
1000
0100
0001
0100
1000
0000
1001
0000
,
0010
0000
0100
0000
0001
0000
0000
0000
0010
0000
0000
0100
0000
0000
1000
0000
,
0100
0000
0010
0000
0001
0000
0000
0000
0100
0000
0000
0010
0000
0000
1000
0000
,
0001
0000
1000
0000
0100
0000
0000
0000
0010
0000
0000
0001
0000
0000
0100
0000
,
0010
0110
2002
3003
,
0100
0010
1000
0000
0100
0010
0001
0000
,
0010
0100
1000
0000
0001
0100
0010
0000
,
1000
0010
0100
0001
0010
0100
1000
0001
,
0100
0000
0000
0000
1010
0000
0001
0000
0010
0100
0010
0000
0001
0000
1000
0100
,
1000
0000
0010
0000
0100
0000
0001
0000
1000
0100
0010
0000
0001
0000
0100
0000
,
0220
0330
1010
1000
1001
0001
0011
0010
,
0110
0000
0100
0000
1000
0010
1000
0000
0001
0010
0100
1000
0020
0000
0000
0000
,
0000
0000
0030
0000
0100
0000
0001
0000
1000
0000
0000
0000
0100
0000
0000
1000
,
0000
0010
2000
0000
3010
0100
0020
0000
,
2030
0000
0000
0000
3001
0000
0000
0000
0010
0000
0001
0000
0100
0000
0000
0001
,
0000
0010
0002
0023
0230
2300
3001
0000
,
1001
0000
0100
0001
1000
0000
0010
1000
,
0001
0000
0020
0000
0230
0000
1300
0010
,
1000
0000
0001
0000
0010
0000
0000
0000
0001
0000
0100
0000
0010
0000
0000
1000
,
0000
0000
0000
0100
0000
0000
1000
0000
0000
0000
0001
0000
1000
0000
0000
0000
0001
0000
1000
0000
0000
0000
0000
0000
,
0110
0000
0000
0001
0000
0001
0010
0000
0000
0100
0000
0100
,
1000
0000
0000
0010
0000
0100
0010
0000
0100
0010
0000
0000
,
0101
0000
0000
1000
0000
0001
0010
0000
0000
0100
0000
1000
,
0001
0000
0000
1000
0000
0010
1000
0000
0000
0001
0000
0100
,
0001
0000
0011
0000
1000
0000
0010
0100
,
0010
1000
0100
0000
1001
0000
1000
0010
,
0100
0010
1000
0100
0010
0001
1000
0100
,
0010
0001
0100
0010
0100
0001
0010
0100
,
1000
2020
3000
0200
,
0030
0002
0300
0020
,
0033
2200
0300
0002
,
3000
0200
0003
0020
,
0330
0000
1001
0000
0100
0010
0100
0000
,
0001
0000
0010
0100
1000
0100
0010
0000
,
0001
0000
1001
0000
0100
0010
0100
0000
,
0001
0000
1000
0001
0010
0001
1000
0000
,
0010
1010
0100
1010
,
0000
0011
0100
0011
,
0000
0000
1000
0010
0100
0001
0010
0100
,
1000
0000
0001
0100
1000
0100
0002
0000
,
0003
1010
1001
1010
,
0200
0000
0301
0000
0010
0001
1000
0000
,
0001
0010
0100
1000
0100
0010
0001
0000
,
1000
0000
0010
0100
0001
0100
0010
0000
,
1000
0000
0001
0100
0010
0100
0001
0000
,
0010
0000
0100
1000
0100
0010
0100
0000
,
1000
0000
0001
1000
0010
1000
0001
0000
,
0010
0000
0001
0000
1000
0100
0010
0100
,
1000
0000
0010
1000
0001
1000
0010
0000
,
0110
0000
0002
0000
0013
0100
2000
0000
,
3010
0100
0020
0000
1030
0100
0010
0000
,
0011
0000
1000
0010
0001
0010
1000
0000
,
0001
0000
1000
0100
0001
0100
1000
0000
,
0010
0000
1000
0001
0010
0100
2000
0000
,
3010
0000
1000
0100
0010
0001
0200
0000
,
0310
0101
0000
1010
,
0000
0000
0100
0001
0010
0100
1000
0000
,
0110
0000
0001
0010
0100
0010
0001
0000
,
1000
0000
0010
1000
0100
1000
0010
0100
,
0001
0000
1002
0000
0003
0100
0020
0000
,
0030
1000
0200
0000
0310
0000
0110
0000
,
1000
0000
0001
0000
0010
0100
1000
0000
,
0010
0100
0001
0000
1000
0010
0100
0000
,
0001
0000
1000
0001
0010
0001
0100
0010
,
1000
0100
1000
0010
0001
0010
1000
0000
,
0110
1001
0000
0000
;

//---------------dance-single - ----------------
#NOTES:
     dance-single:
     :
     Hard:
     16:
     0.826800,1.259065,0.470678,0.339934,0.540409,664.000000,610.000000,54.000000,39.000000,0.000000,0.000000,0.826800,1.259065,0.470678,0.339934,0.540409,664.000000,610.000000,54.000000,39.000000,0.000000,0.000000:
// measure 0
0000
0000
0000
0000
,  // measure 1
0000
0000
0000
0000
,  // measure 2
0000
0000
0000
0000
,  // measure 3
0000
0000
0000
0000
,  // measure 4
0010
1000
1100
0000
0010
0001
0101
0000
,  // measure 5
0100
0010
1010
0000
1000
0001
0011
0000
,  // measure 6
0010
0000
0100
0000
1000
0000
0001
0000
0100
0010
1000
0001
0010
0100
0010
0001
,  // measure 7
1000
1010
2002
3003
,  // measure 8
0010
0000
0001
0000
1000
0000
0001
0000
0010
0000
0100
1000
0000
0010
1000
0000
,  // measure 9
0010
0000
0100
0000
1000
0000
0100
0000
0010
0000
1000
0100
0000
0010
0001
0000
,  // measure 10
1000
0000
0100
0000
0001
0000
0100
0000
1000
0000
0001
1000
0000
0010
0100
0000
,  // measure 11
0001
0011
2002
3003
,  // measure 12
0100
0000
0010
0000
1000
0000
0001
0000
0010
0000
0001
0100
0000
0001
1000
0000
,  // measure 13
0100
0000
0010
0000
0001
0000
0010
0000
0100
0000
1000
0010
0000
0100
0001
0000
,  // measure 14
0010
0000
0001
0000
1000
0000
0010
0000
0001
0000
0010
1000
0000
0100
0010
0000
,  // measure 15
0100
0100
0100
0100
0100
0000
1001
0000
,  // measure 16
0010
0100
0001
0000
0010
0000
0100
0000
1000
0000
0010
0100
0000
0010
1000
0000
,  // measure 17
0001
0100
0010
0000
1000
0000
0100
0000
0010
0000
0001
1000
0000
0010
0100
0000
,  // measure 18
0001
1000
0100
0000
1000
0000
0010
0000
0100
0000
0010
1000
0000
0100
1000
0000
,  // measure 19
0001
0011
2200
3300
,  // measure 20
0010
0100
0001
0000
0010
0000
0100
0000
1000
0010
0100
0000
0001
0000
0010
0000
,  // measure 21
0001
1000
0010
0000
1000
0000
0001
0000
0100
0001
1000
0000
0100
0000
1000
0000
,  // measure 22
0010
0100
0001
0000
0010
0100
1000
0000
0010
0100
0001
1000
0001
0010
0100
1000
,  // measure 23
0020
0030
0000
0000
0000
0000
0000
0000
1100
0000
0000
0000
0001
0000
0100
0000
0020
0000
0100
0000
0100
0000
0130
0000
0001
0000
0010
0000
1000
0000
0010
0000
,  // measure 24
0001
0100
0010
0000
1010
0000
1000
0001
0010
0100
1000
0000
0001
0100
1000
0100
,  // measure 25
0010
0100
0001
0000
0010
0100
1100
0000
0010
0100
0101
0000
0010
1000
1010
0000
,  // measure 26
0100
0000
0001
0000
0011
0000
0000
0000
1000
0000
0001
0000
0010
0000
0001
0000
1000
0010
0100
0001
1000
0100
0010
0001
0200
0000
0000
0000
0000
0000
0000
0000
,  // measure 27
0300
0000
0110
0000
0001
0000
0010
0000
0100
0000
0010
0000
0001
0000
1000
0010
,  // measure 28
0000
0100
0010
0000
2000
0000
0000
0000
3001
0000
0010
0000
1000
0000
0001
0000
,  // measure 29
0100
0000
1000
0000
0010
0000
1000
0000
0001
0000
0100
0000
0010
0000
0100
0001
,  // measure 30
0000
0010
0001
0000
2000
0000
3200
0000
0302
0000
2003
0000
3020
0000
0031
0000
,  // measure 31
1001
0000
0000
0000
0100
0000
0010
0000
1000
0000
0001
0000
1000
0000
0100
0010
,  // measure 32
0000
0001
1000
0000
0020
0000
0000
0000
1030
0000
0100
0000
0001
0000
1000
0000
,  // measure 33
0001
0000
1000
0000
0010
0000
0001
0000
0100
0000
1000
0000
0100
0000
0010
0100
,  // measure 34
0000
0000
0000
0001
0000
0000
0010
0000
0000
0000
0000
0000
0001
0000
0000
0000
0000
0000
0000
0000
0001
0000
0000
0000
1000
0000
0000
0000
0000
0000
0000
0000
1000
0000
0000
0000
0100
0000
0000
0000
0000
0000
0000
0000
0010
0000
0000
0000
,  // measure 35
0100
0000
0000
0110
0000
0100
1000
0000
0000
1010
0000
0010
,  // measure 36
0100
0000
0000
0001
0100
1000
0100
0001
0010
0100
0000
0100
,  // measure 37
1000
0000
0000
1010
0000
0010
0100
0000
0000
0011
0000
0010
,  // measure 38
0100
0000
0000
1000
0010
0001
0010
1000
0001
0010
0000
0010
,  // measure 39
0200
0000
0000
0000
0310
0001
1000
0000
0010
0000
0100
0000
0001
0000
0010
0100
,  // measure 40
0000
1000
0001
0000
1000
0010
0100
0000
0001
0000
0010
0000
0100
0000
1000
0010
,  // measure 41
0000
1000
0001
0000
0010
0001
0010
0000
0100
1000
0100
0000
1000
0010
0100
0000
,  // measure 42
0001
0010
0100
0000
1000
0100
0001
0000
0001
0100
1000
0000
0001
0100
0010
1000
,  // measure 43
0001
1000
0100
0010
0002
0000
0000
0000
0100
0000
0000
0000
2003
0000
0000
0000
,  // measure 44
0100
3020
0130
2002
,  // measure 45
3003
0200
0010
0302
,  // measure 46
0010
0000
0000
0000
2003
0000
0000
0000
3100
0000
0000
0000
0202
0000
0000
0303
,  // measure 47
0000
0000
0010
1000
1100
0000
0000
0000
0010
0000
0001
0000
0101
0000
0000
0000
,  // measure 48
0010
0000
1000
0000
0001
0000
0010
0000
0001
1000
0100
0000
0010
0000
0000
0000
,  // measure 49
1100
0000
0000
0000
0010
0000
0100
0000
0010
1000
0001
0000
0100
0000
0001
0000
,  // measure 50
0100
1000
0100
0001
0100
1000
0110
0000
,  // measure 51
0001
0000
0000
0000
1000
0000
0010
0000
1000
0100
0010
0000
0001
0000
0000
0000
,  // measure 52
0001
0000
0100
0000
0010
0000
1000
0000
0010
1000
0100
0000
0010
0000
0000
0000
,  // measure 53
0010
0100
1000
0010
1000
0001
0010
1000
,  // measure 54
0100
0001
0010
0110
1000
1001
0220
0000
,  // measure 55
0330
1001
0110
2002
,  // measure 56
3003
0000
0011
0000
1000
0100
0011
0000
,  // measure 57
1000
0000
0100
0000
0001
0000
0010
0000
0001
1000
0010
0000
1010
0000
0000
0000
,  // measure 58
0100
0000
0001
0000
0100
0000
1000
0000
0100
0000
0010
0000
0100
0001
0010
0000
,  // measure 59
0100
1000
0010
0001
0100
1000
0010
0000
,  // measure 60
0100
0000
0010
0000
1000
0000
0001
0000
0010
0100
1000
0000
0020
0000
0000
0000
,  // measure 61
1030
0000
0001
0000
0010
0000
0001
0000
1000
0001
0010
0000
0200
0000
0000
0000
,  // measure 62
0310
0000
0001
0000
1000
0000
0100
0000
0001
0000
0100
0000
1000
0001
0100
0000
,  // measure 63
0010
1000
0010
0010
0010
0010
0010
0000
,  // measure 64
0110
0000
1100
0000
0001
0010
1100
0000
,  // measure 65
0001
0000
0010
0000
1000
0000
0100
0000
1000
0001
0100
0000
0101
0000
0000
0000
,  // measure 66
0010
0000
1000
0000
0010
0000
0001
0000
0010
0000
0100
0000
0010
1000
0100
0000
,  // measure 67
0010
0001
0100
1000
0010
0001
0100
0000
,  // measure 68
1010
0000
0000
0000
0001
0000
1000
0000
0100
0010
0001
0000
0200
0000
0000
0000
,  // measure 69
0310
0000
1000
0000
0001
0000
1000
0000
0010
1000
0100
0000
0020
0000
0000
0000
,  // measure 70
0031
0100
0010
1000
0010
0001
0010
1000
,  // measure 71
0100
0010
0100
0100
0100
0100
0100
0000
,  // measure 72
1001
0000
1100
0000
0100
1000
1010
0000
,  // measure 73
0100
0001
0010
0100
0001
0010
0100
0001
,  // measure 74
1000
0000
0001
0000
0201
0000
0000
0000
0310
0000
1000
0100
0020
0000
0000
0000
,  // measure 75
0130
0000
1000
0010
0200
0000
0000
0000
0301
0000
0000
0000
1001
0000
1000
0000
,  // measure 76
1100
0000
0000
0000
0011
0000
1000
0000
0000
0000
0010
0100
0001
0000
1001
0000
,  // measure 77
0000
0000
0100
0010
1000
0000
1100
0000
0000
0000
0010
0100
0001
0000
0011
0000
,  // measure 78
0000
0000
1000
0001
0100
0000
0010
0000
1000
0000
0001
0000
0010
0001
0100
0010
,  // measure 79
1000
0100
0010
0001
1000
0000
0010
0000
1000
0001
0010
0000
0200
0000
0000
0000
,  // measure 80
0310
1001
0000
0000
;
