#TITLE:Spider Dance/スパイダーダンス;
#SUBTITLE:;
#ARTIST:Toby Fox;
#TITLETRANSLIT:Spider Dance;
#SUBTITLETRANSLIT:;
#ARTISTTRANSLIT:;
#GENRE:;
#CREDIT:「UNDERTALE」より;
#BANNER:Spider Dance_banner.png;
#BACKGROUND:Spider Dance.png;
#LYRICSPATH:;
#CDTITLE:;
#MUSIC:Spider Dance.ogg;
#OFFSET:-0.050000;
#SAMPLESTART:0.050000;
#SAMPLELENGTH:16.500000;
#SELECTABLE:YES;
#DISPLAYBPM:230.000000;
#BPMS:0.000000=230.000000
,32.000000=231.000000
,64.000000=230.000000
;
#STOPS:
;
#BGCHANGES:;
#KEYSOUNDS:;
#ATTACKS:;

//---------------dance-single - ----------------
#NOTES:
     dance-single:
     :
     Easy:
     7:
     0.268078,0.320061,0.095256,0.190512,0.000000,197.000000,187.000000,10.000000,20.000000,0.000000,0.000000,0.268078,0.320061,0.095256,0.190512,0.000000,197.000000,187.000000,10.000000,20.000000,0.000000,0.000000:
0000
0000
0000
0000
,
0000
0000
0000
0000
,
0000
0000
0000
0000
,
0000
0000
0000
0000
,
0001
0000
0001
0000
,
0010
0000
0010
0000
,
0200
0000
0000
0000
0000
0300
0000
0000
,
2000
0000
0000
0000
0000
3000
0000
0000
,
0010
0000
0010
0000
,
0100
0000
0100
0000
,
0001
0000
0001
0000
,
1000
0000
1000
0000
,
0001
0000
0100
0000
,
0010
0000
1000
0000
,
0220
0000
0330
0000
,
2002
0000
3003
0000
,
0010
0000
0001
0000
,
1000
0000
0100
0000
,
1000
0000
0010
0000
,
0100
0000
0001
0000
,
1000
0000
1000
0000
,
0100
0000
0100
0000
,
0020
0000
0030
0000
,
0002
0000
0003
0000
,
1000
0000
0010
0000
,
1000
0000
0010
0000
,
0100
0000
0001
0000
,
0100
0000
0001
0000
,
0010
0000
0100
0000
,
0010
0000
0100
0000
,
2002
0000
3003
0000
,
0220
0000
0330
0000
,
0001
0000
0001
0000
,
0001
0010
0001
0000
,
1000
0000
1000
0000
,
1000
0100
1000
0000
,
0100
0000
0100
0000
,
0100
0010
0100
0000
,
0010
0000
0001
0000
,
0202
0000
0303
0000
,
0010
0000
0010
0000
,
0010
1000
0010
0000
,
1000
0000
1000
0000
,
1000
0001
1000
0000
,
0010
0000
0100
0000
,
0010
0100
0010
0000
,
1000
0000
0001
0000
,
2002
0000
3003
0000
,
0010
0000
0100
0000
,
0010
0000
0100
0000
,
0001
0000
0010
0000
,
0001
0000
1000
0000
,
0100
0000
1000
0000
,
0010
0000
0100
0000
,
0001
0000
0010
0000
,
0100
0000
1000
0000
,
0010
0000
0100
0000
,
0010
0000
1000
0000
,
0001
0000
0100
0000
,
0010
0000
1000
0000
,
0001
0000
1000
0000
,
0100
0000
0010
0000
,
0001
0000
0001
0000
,
2020
0000
3030
0000
,
0100
0000
0100
0000
,
0100
0000
0100
0000
,
0010
0000
0010
0000
,
0010
0000
0010
0000
,
1000
0000
1000
0000
,
1000
0000
1000
0000
,
0001
0000
0001
0000
,
0001
0000
0001
0000
,
1000
0000
0100
0000
,
1000
0000
0100
0000
,
0010
0000
0001
0000
,
0010
0000
0001
0000
,
1000
0000
0001
0000
,
0100
0000
0010
0000
,
1000
0000
0001
0000
,
0010
0000
0100
0000
,
1000
0010
0000
0010
,
1000
0010
0000
0010
,
1000
0000
1000
0000
,
0001
0000
0001
0000
,
0001
0010
0000
0010
,
0001
0010
0000
0010
,
0001
0000
1000
0000
,
0010
0000
0100
0000
,
0010
0100
0000
0100
,
0010
0100
0000
0100
,
0010
0000
1000
0000
,
0001
0000
1001
0000
,
1000
0100
0000
0100
,
0010
0100
0000
0100
,
1000
0000
1000
0000
,
0022
0000
0033
0000
,
1001
0000
0000
0000
;

//---------------dance-single - ----------------
#NOTES:
     dance-single:
     :
     Medium:
     10:
     0.484446,0.502953,0.161936,0.419127,0.000000,356.000000,339.000000,17.000000,44.000000,0.000000,0.000000,0.484446,0.502953,0.161936,0.419127,0.000000,356.000000,339.000000,17.000000,44.000000,0.000000,0.000000:
0000
0000
0000
0000
,
0000
0000
0000
0000
,
0000
0000
0000
0000
,
0000
0000
0000
0000
,
0100
0010
0100
0010
,
1000
0001
1000
0001
,
0220
0000
0330
0000
,
2002
0000
3003
0000
,
1000
0100
1000
0010
,
0100
0010
1000
0000
,
0100
0010
0100
0001
,
0010
0001
0100
0000
,
0011
0000
0101
0000
,
1010
0000
1100
0000
,
0002
0023
0230
2300
,
3200
0320
0032
0000
,
0103
0010
0100
0001
,
0010
0100
0010
0000
,
1000
0100
0010
0100
,
1000
0010
0100
0000
,
0020
0130
0200
0310
,
0002
1003
2000
3001
,
0020
0230
0302
0203
,
0320
2030
3020
0000
,
0031
0100
0001
0010
,
0100
1000
0010
0100
,
0010
1000
0001
1000
,
0010
0100
0110
0000
,
1100
0000
0101
0000
,
0011
0000
1010
0000
,
0200
0320
2030
3002
,
0023
0230
0302
0000
,
0103
1000
0100
1000
,
0010
0000
1000
0001
0000
0000
1000
0000
,
0001
0100
0010
0100
,
0001
0000
0010
0001
0000
0000
1000
0000
,
0010
0100
1000
0100
,
0010
0000
1000
0001
0000
0000
0001
0000
,
0100
0010
0001
0010
,
0100
0000
0001
1000
0000
0000
0010
0000
,
1000
0100
0001
0100
,
1000
0000
0001
0010
0000
0000
0001
0000
,
1000
0010
0001
0010
,
1000
0000
0001
0100
0000
0000
0010
0000
,
0001
0010
0100
1000
,
0100
0001
0100
0010
,
1000
0100
0010
0100
,
1000
0001
2002
3003
,
0010
0100
0010
1000
,
0001
0000
1000
0001
0000
0000
0001
0000
,
0010
0100
1000
0100
,
0010
0001
0010
0100
,
1000
0010
0001
0010
,
1000
0100
0001
0100
,
0010
0001
0010
1000
,
0010
0001
2000
0000
,
3010
0100
0001
1000
,
0001
0000
0010
0100
0000
0000
0100
0000
,
1000
0000
0010
0100
0000
0000
0100
0000
,
0001
0000
0100
0010
0000
0000
0010
0000
,
1000
0001
0010
0100
,
0010
0001
1000
0001
,
0100
0010
0100
0010
,
1000
0001
2002
3003
,
0100
0001
0100
1000
,
0100
0001
0100
0010
,
1000
0010
0001
0010
,
1000
0010
0001
1000
,
0100
0001
0010
0100
,
1000
0010
0100
0001
,
1000
0100
0010
0001
,
0100
0010
1000
0001
,
0020
0001
0000
0031
,
1000
0001
1000
0010
,
0200
0001
0000
0301
,
1000
0010
0100
0010
,
1000
0001
0010
0100
,
0010
0001
1000
0010
,
0100
0001
1000
0001
,
0022
0000
0033
0000
,
1000
0000
0100
1000
0000
0100
1000
0000
,
0010
0000
0100
0010
0000
0100
0010
0000
,
1000
0001
1000
0100
,
0020
0000
0000
0002
0000
0000
0033
0000
,
0001
0000
0100
0001
0000
0100
0001
0000
,
1000
0000
0010
1000
0000
0010
1000
0000
,
0001
0010
0100
1000
,
0020
0000
0000
0200
0000
0000
0330
0000
,
0001
0000
1000
0100
0000
1000
0001
0000
,
1000
0000
0010
0100
0000
0001
1000
0000
,
0010
0100
0001
1000
,
0200
0000
0000
0020
0000
0000
0330
0000
,
0001
0000
0010
0100
0000
0010
0100
0000
,
1000
0000
0010
0100
0000
0010
0100
0000
,
0100
0010
1000
0001
,
1001
0000
0110
0000
,
1001
0000
0000
0000
;

//---------------dance-single - ----------------
#NOTES:
     dance-single:
     :
     Hard:
     12:
     0.646382,0.685845,0.209564,0.781101,0.000000,475.000000,453.000000,22.000000,82.000000,0.000000,0.000000,0.646382,0.685845,0.209564,0.781101,0.000000,475.000000,453.000000,22.000000,82.000000,0.000000,0.000000:
0000
0000
0000
0000
,
0000
0000
0000
0000
,
0000
0000
0000
0000
,
0000
0000
0000
0000
,
2000
3100
0002
0103
,
2000
3010
0002
0013
,
0200
0320
2030
3002
,
0203
0310
2002
3003
,
0100
0010
0100
0000
0001
0000
0010
0000
,
0001
1000
0010
0000
0100
0000
0001
0000
,
1000
0100
1000
0000
0001
0000
0010
0000
,
0001
1000
0100
0000
1000
0000
0010
0000
,
0100
0101
0010
1010
,
1000
1100
0001
0011
,
2000
3002
0023
0230
,
0320
2030
0002
3003
,
0010
0001
1000
0010
,
0100
0010
0100
0000
0001
0010
0100
0000
,
1000
0010
1000
0000
0001
0000
0100
0000
,
0010
1000
0010
0100
0000
0100
0001
0000
,
0020
0031
2000
3100
,
0002
0013
2000
3010
,
0020
2030
3002
0203
,
0320
0032
2000
3003
,
0100
0010
0100
0000
0001
0000
0010
0000
,
0001
1000
0010
0000
1000
0000
0100
0000
,
1000
0001
0010
0000
0100
0000
1000
0000
,
0001
0000
0010
0001
0000
1000
0001
0000
,
0200
0310
0020
1030
,
2000
3001
0022
0033
,
0200
2300
3200
0320
,
0032
0000
0203
0000
0310
1000
0010
0000
,
0110
0001
1000
0001
,
1000
0000
0100
0010
0000
0010
0100
0000
,
1000
0000
0001
0010
0000
0010
0001
0000
,
1000
0000
0010
0100
0000
0100
0001
1000
,
0010
1000
0001
0010
,
0100
0000
1000
0001
0000
0001
0100
0000
,
0010
0000
1000
0001
0000
0001
0010
0000
,
0001
0000
1000
0010
0000
1000
0100
0010
,
0002
2003
3020
0130
,
0110
0000
1000
0001
0000
1000
0001
0000
,
0101
0000
1000
0010
0000
1000
0001
0000
,
1100
0000
0010
0001
0000
1000
0001
0010
,
0100
1000
0100
0000
1000
0010
1000
0000
,
0001
0010
0001
0000
1000
0100
1000
0000
,
0001
0010
0100
0000
0010
0100
1000
0000
,
0010
0100
0102
0000
,
0023
2030
3020
0031
,
1000
0000
0010
0100
0010
0100
0010
0000
,
1000
0100
1000
0000
0100
0010
0100
0000
,
0010
0001
0010
0000
0001
0100
0001
0000
,
1000
0010
0100
0010
1000
0010
0100
0000
,
0001
0010
0100
0010
0001
0010
0100
0000
,
0020
0032
2003
3020
,
0230
0000
0310
1000
0002
0000
0000
0000
,
2003
3200
0302
0203
,
2300
0000
3010
0100
0000
0001
0010
0000
,
0002
0000
0103
1000
0000
0100
0010
0000
,
2000
0000
3001
0010
0000
0100
1000
0100
,
0010
0001
0010
0000
0001
0100
0001
0000
,
1000
0010
1000
0000
0100
1000
0100
0000
,
2000
0010
3020
0100
,
0130
0001
2002
3003
,
0001
0010
0001
0000
0001
0010
0001
0000
,
1000
0010
1000
0000
1000
0010
1000
0000
,
0001
0100
0001
0000
0001
0100
0001
0000
,
1000
0100
1000
0000
1000
0100
1000
0000
,
0001
0100
0010
0000
0100
0010
1000
0000
,
0010
0100
0001
0000
0010
0100
1000
0000
,
0010
1000
0001
0000
1000
0100
0010
0000
,
0001
1000
0100
0000
1000
0001
0010
0000
,
0002
0100
0100
0203
,
0320
1000
1000
2030
,
3200
0010
0010
0320
,
0032
1000
2003
0010
,
3020
0100
0100
0230
,
0001
0302
1000
1003
,
0100
0010
0100
0000
0001
0010
0001
0000
,
1000
0100
0010
0002
0000
0000
1003
0000
,
1010
0000
0100
0001
0000
1000
0001
0000
,
0110
0000
1000
0001
0000
0010
0001
0000
,
0010
0100
1000
0000
0010
0100
0001
0000
,
1000
0100
1000
0200
0000
0000
0310
0000
,
0011
0000
1000
0100
0000
1000
0001
0000
,
0101
0000
1000
0001
0000
0010
0100
0000
,
0020
0000
0230
0000
0301
1000
0000
0001
,
0200
0010
0310
1001
,
0010
0000
1000
0010
0000
0100
0001
0000
,
0011
0000
0001
0010
0000
0100
1000
0000
,
0010
0100
0001
0000
1000
0100
0010
0000
,
0001
0100
0010
0200
0000
0000
0301
0000
,
1001
0000
1000
0010
0000
0100
0020
0000
,
1030
0000
0001
0010
0000
0001
1000
0100
,
1000
0000
1010
0000
0001
0010
0000
0001
,
1000
0010
0100
0001
0010
0000
1100
0000
,
0101
0000
0000
0000
;

//---------------dance-single - ----------------
#NOTES:
     dance-single:
     :
     Challenge:
     16:
     0.862749,0.829444,0.371499,0.876357,0.066679,634.000000,595.000000,39.000000,92.000000,0.000000,0.000000,0.862749,0.829444,0.371499,0.876357,0.066679,634.000000,595.000000,39.000000,92.000000,0.000000,0.000000:
0000
0000
0000
0000
,
0000
0000
0000
0000
,
0000
0000
0000
0000
,
0000
0000
0000
0000
,
0012
1003
2010
3001
,
2100
3001
0012
1003
,
0210
2300
3200
0302
,
0023
1030
2002
3003
,
0100
0010
0100
0010
1000
0100
0010
0001
,
1000
0010
0000
0010
1000
0001
0010
0000
,
0001
0100
0000
0100
0010
1000
0100
1000
,
0010
0100
0010
1000
0000
1000
0002
0000
,
0103
1010
0100
0011
,
1000
0101
0010
1100
,
0102
0023
2030
3002
,
0203
0000
2300
0000
3010
0100
0010
0000
,
1000
0000
1010
0000
0001
0010
0100
0020
,
0000
0031
1000
0001
0100
0010
1000
0200
,
0000
1300
0010
0100
0001
1000
0001
0010
,
0100
0000
1000
0000
0001
0000
1000
0000
0000
0000
1000
0000
0001
0100
0010
0000
,
1000
0201
0310
2010
,
3100
0120
0031
1002
,
0203
2300
3020
0032
,
0023
0000
0230
0000
1300
0001
0100
0010
,
1000
0100
1000
0001
1000
0010
0200
0000
,
0301
0010
0000
0010
0001
1000
0010
0100
,
0001
1000
0000
1000
0010
1000
0100
0010
,
0001
0000
0100
0000
0001
0000
0010
0000
0000
0000
0001
0000
1000
0010
0100
0000
,
0010
1001
0010
1001
,
0012
1003
2010
3100
,
0021
2030
3200
0302
,
0023
0000
2030
0000
3010
0100
0001
0100
,
0010
1000
0010
1000
0001
0010
0100
0010
,
0001
0100
2000
0100
3000
0100
1000
0100
,
0001
0010
2000
0010
3000
0010
1000
0010
,
0001
0100
2000
0100
3000
0100
0001
0100
,
0010
1000
0100
0010
0001
1000
0100
1000
,
0010
1000
0020
0001
0030
0001
0010
1000
,
0100
0001
0200
1000
0300
1000
0100
0001
,
0100
1000
0010
0001
0010
1000
0100
0010
,
0001
0100
0001
1000
0010
1000
0100
0010
,
0002
0010
2003
0010
3000
0010
0001
0010
,
0002
0100
2003
0100
3000
0100
0001
0100
,
0010
1000
0100
1000
0001
0010
0100
1000
,
0010
0100
0020
0000
1030
0100
0020
0000
,
0031
0100
0010
1000
0100
0010
0100
1000
,
0001
0010
0200
0000
0310
0001
1000
0100
,
1000
0001
0010
0000
2002
0000
3003
0000
,
0100
0000
1010
0000
0100
0001
0010
0001
,
1000
0100
0001
0100
1000
0010
0200
0000
,
0310
0100
0002
0000
1003
0010
0200
0000
,
0301
0010
0100
0010
0001
1000
0100
0000
,
2000
3020
0230
0320
2030
3020
0230
0320
,
2030
3002
0023
0032
2003
3020
0230
0320
,
1030
0100
0010
0001
1000
0010
0100
0001
,
1000
0010
0001
1000
0200
0000
0301
0000
,
0012
0000
1003
0000
0010
0100
0001
0010
,
0001
1000
0020
0100
0030
0100
0001
0010
,
0100
1000
0002
0010
0003
0010
0100
0010
,
0001
1000
0100
1000
0010
0001
0010
1000
,
0001
0010
0011
0000
1000
0010
1010
0000
,
0100
0001
0010
0001
1000
0010
0001
0000
,
0002
1000
0003
1000
0100
0010
1000
0001
,
0010
0100
0001
0000
2200
0000
3300
0000
,
0001
0010
1000
0010
0001
0010
1000
0010
,
0001
0010
1000
0010
0001
0010
1000
0010
,
0001
0100
1000
0100
0001
0100
1000
0100
,
0001
0100
1000
0100
0001
0100
1000
0000
,
0100
0001
0100
1000
0100
0001
0100
1000
,
0100
0001
0100
1000
0100
0001
0100
1000
,
0001
0010
1000
0010
0001
0010
1000
0010
,
0001
0010
1000
0010
0001
0010
1000
0000
,
1000
0100
0010
0100
1000
0100
0010
0100
,
1000
0001
0010
0100
0010
0001
0010
0000
,
0001
1000
0010
1000
0001
1000
0010
1000
,
0001
0100
0010
0100
0001
0100
0010
0000
,
1000
0001
0100
0001
1000
0001
0100
0001
,
1000
0010
0100
0010
1000
0100
0010
0000
,
0001
0100
0010
1000
0100
0001
0100
1000
,
0001
0100
1000
0001
0010
1000
0001
0000
,
2001
0000
3010
0100
0000
0010
0100
0000
,
0012
0000
1003
0100
0000
1000
0020
0000
,
1030
0200
0001
0300
0001
0100
1000
0010
,
0100
0000
0000
0001
0100
0010
0100
0001
0100
0010
0000
0000
,
0201
0000
0310
2000
0000
3001
0010
0000
,
1100
0000
0001
2000
0000
3010
0100
0001
,
0010
0000
0101
0000
1000
0100
0000
0001
,
0100
0000
0000
1000
0010
0100
0010
1000
0010
0100
0000
0000
,
0012
0000
0103
0020
0000
1030
0001
0000
,
0110
0000
0001
2000
0000
3100
0010
0000
,
1000
0002
1000
0003
0010
0100
0001
0010
,
0100
0000
0000
1000
0001
0010
0100
1000
0100
0010
0000
0000
,
1100
0000
0010
1000
0001
1000
0010
0000
,
0110
0000
0001
1000
0100
1000
0001
0010
,
0100
0000
1010
0000
0001
0010
0000
0001
,
1000
0010
0001
0010
1000
0000
0110
0000
,
2002
0000
0000
3003
;

//---------------dance-double - ----------------
#NOTES:
     dance-double:
     :
     Challenge:
     18:
     0.828729,0.777291,0.371499,0.609640,0.047628,609.000000,570.000000,39.000000,64.000000,320.000000,0.000000,0.828729,0.777291,0.371499,0.609640,0.047628,609.000000,570.000000,39.000000,64.000000,320.000000,0.000000:
// measure 0
00000000
00000000
00000000
00000000
,  // measure 1
00000000
00000000
00000000
00000000
,  // measure 2
00000000
00000000
00000000
00000000
,  // measure 3
00000000
00000000
00000000
00000000
,  // measure 4
00201000
00310000
00010020
00001030
,  // measure 5
02001000
03010000
00010200
00001300
,  // measure 6
00020000
02030000
23000000
30200000
,  // measure 7
00302000
00013000
00011000
MMMMMMMM
,  // measure 8
00000010
00001000
00000001
00001000
00000010
00010000
00000100
00001000
,  // measure 9
00000001
00000010
00000000
00000010
00000100
00010000
00001000
00000000
,  // measure 10
00100000
00001000
00000000
00001000
01000000
00010000
10000000
00100000
,  // measure 11
10000000
01000000
00100000
00001000
00000000
00010000
00001000
00000000
,  // measure 12
00012000
01003000
00021000
00030100
,  // measure 13
00102000
00013000
00020010
00031000
,  // measure 14
00002000
00003200
00000302
00000023
,  // measure 15
00002030
00013000
00011000
MMMMMMMM
,  // measure 16
00100000
01000000
10000000
00010000
00100000
00001000
00010000
00001000
,  // measure 17
MMMMMMMM
00010000
00000010
00010000
00000100
00001000
00000001
00000010
,  // measure 18
MMMMMMMM
00000010
00000100
00010000
00001000
00010000
00000100
00001000
,  // measure 19
00000010
00000000
00010000
00000000
00001000
00000000
01000000
00000000
00000000
00000000
01000000
00000000
00100000
10000000
00010000
00000000
,  // measure 20
00100000
00101000
00010000
00010100
,  // measure 21
00000010
00001010
00000001
00000101
,  // measure 22
00000002
00002003
00023000
20030000
,  // measure 23
30020000
00000000
00031000
00000000
00022000
00000000
00033000
MMMMMMMM
,  // measure 24
00010000
00001000
00000100
00000010
00010000
00000100
00001000
00000010
,  // measure 25
MMMMMMMM
00000010
00000100
00010000
00001000
00100000
00010000
01000000
,  // measure 26
MMMMMMMM
01000000
00010000
10000000
00100000
10000000
01000000
00100000
,  // measure 27
00010000
00000000
00100000
00000000
00000100
00000000
00010000
00000000
00000000
00000000
00000010
00000000
00001000
00000001
00000100
00000000
,  // measure 28
00000010
00001010
00000100
00010100
,  // measure 29
00100000
00101000
10000000
11000000
,  // measure 30
20000000
30020000
00032000
00003002
,  // measure 31
00002003
00013000
00011000
MMMMMMMM
,  // measure 32
00010000
01000000
00100000
10000000
00010000
00100000
00001000
00010000
,  // measure 33
00000100
00010000
00001000
00000010
00000000
00000010
00001000
00010000
,  // measure 34
00001000
00100000
01000000
10000000
00000000
10000000
00010000
00100000
,  // measure 35
00001000
00010000
00000010
00000100
00000000
00000100
00000001
00000010
,  // measure 36
00000001
00001000
00000100
00000010
00000100
00010000
00001000
00100000
,  // measure 37
00010000
01000000
20000000
01000000
30000000
01000000
00001000
00010000
,  // measure 38
00001000
00010000
00000200
00000010
00000300
00000010
00000100
00010000
,  // measure 39
00001000
00000100
00000010
00000100
00001000
00000100
00000001
00000000
,  // measure 40
00000001
00000010
00000100
00010000
00001000
00100000
10000000
00100000
,  // measure 41
00001000
00010000
00000020
00000001
MMMM0030
00000001
00000010
00001000
,  // measure 42
00000100
00100000
00020000
01000000
0003MMMM
01000000
00100000
10000000
,  // measure 43
00010000
00100000
00001000
00010000
01000000
10000000
00020000
00000000
,  // measure 44
00130000
00000100
00001000
MMMMMMMM
00010000
00000010
00000100
MMMMMMMM
,  // measure 45
00001000
00000001
00000010
MMMMMMMM
00000010
00000100
00001000
MMMMMMMM
,  // measure 46
00010000
00001000
00000000
00001000
00100000
01000000
10000000
00000000
,  // measure 47
20000000
30001000
00011000
MMMMMMMM
,  // measure 48
00010020
00000000
00000130
00000001
00001000
00000100
00010000
00000000
,  // measure 49
00000010
00001000
00000100
00010000
00001000
01000000
00100000
00000000
,  // measure 50
10000000
01000000
00010000
00000000
00001000
00000100
00000001
00000000
,  // measure 51
00000001
00000010
00001000
00000000
00010000
00100000
10000000
00000000
,  // measure 52
00020000
0013MMMM
MMMM1000
0010MMMM
MMMM0020
00002030
MMMM3200
00010300
,  // measure 53
MMMM0002
00020003
00030010
0020MMMM
00301000
0200MMMM
03020000
2003MMMM
,  // measure 54
30100000
01000000
00001000
00010000
01000000
00100000
00001000
00010000
,  // measure 55
00000100
00000010
00000001
00000010
00000100
00000000
MMMMMMMM
00000000
,  // measure 56
00012000
00000000
01003000
00000000
00100000
10000000
00010000
00100000
,  // measure 57
00001000
00010000
01000000
0001MMMM
00000000
0001MMMM
00000010
0001MMMM
,  // measure 58
00001000
00010000
00000100
MMMM1000
00000000
MMMM1000
01000000
MMMM1000
,  // measure 59
00000100
00010000
00001000
00100000
00010000
10000000
00010000
00000000
,  // measure 60
00100000
00000000
00011000
00000000
00000010
00001000
00000001
00000000
,  // measure 61
00010000
00001000
00000000
00001000
00000100
00000010
00000001
00000000
,  // measure 62
00000001
00000010
00000000
00000010
00001000
00010000
00200000
00000000
,  // measure 63
20300000
31000000
00011000
MMMMMMMM
,  // measure 64
00001000
00000100
00000001
00000100
00001000
00000100
00000001
00000100
,  // measure 65
00001000
00000100
00000001
00000100
00001000
00000100
00000001
00000100
,  // measure 66
00001000
00010000
01000000
00010000
00001000
00010000
01000000
00010000
,  // measure 67
00001000
00010000
01000000
00010000
00001000
00010000
01000000
00000000
,  // measure 68
00100000
00001000
01000000
00010000
00100000
00001000
01000000
00010000
,  // measure 69
00100000
00001000
00010000
00000100
00100000
00001000
00010000
00000100
,  // measure 70
00001000
00000001
00000010
00000100
00001000
00000001
00000010
00000100
,  // measure 71
00001000
00000010
00010000
00000100
00001000
00000010
00010000
00000000
,  // measure 72
00001000
00100000
01000000
10000000
00001000
00100000
01000000
10000000
,  // measure 73
00001000
00010000
00000010
00000100
00001000
00010000
00000010
MMMMMMMM
,  // measure 74
00010000
00000100
00000010
00000001
00010000
00000100
00000010
00000001
,  // measure 75
00001000
00000010
00010000
00000100
00100000
00001000
00010000
MMMMMMMM
,  // measure 76
00000100
MMMM0010
00001000
MMMM0001
00000100
MMMM0010
00001000
MMMM0001
,  // measure 77
00010000
00000100
00100000
00001000
00010000
00000100
00100000
00000000
,  // measure 78
0100MMMM
10000000
0001MMMM
00100000
0100MMMM
10000000
0001MMMM
00100000
,  // measure 79
00001000
00010000
00000001
00000010
00000100
00001000
00010000
00000000
,  // measure 80
00012000
00000000
01003000
00001000
00000000
00010000
00001000
00000000
,  // measure 81
00021000
00000000
00030010
00010000
00000000
00001000
00010000
00000000
,  // measure 82
00000100
00010000
00001000
00000000
00011000
00000000
00010000
00000010
,  // measure 83
MMMM0100
00000000
00000000
MMMM0001
00000010
00000001
MMMM1000
00000001
00000010
MMMM0001
00000000
00000000
,  // measure 84
00001100
00000000
00010000
00001000
00000000
00001000
00100000
00000000
,  // measure 85
00012000
00000000
00013000
00001000
00000000
00001000
00010000
00001000
,  // measure 86
0010MMMM
00000000
1100MMMM
00000000
0001MMMM
01000000
0000MMMM
00100000
,  // measure 87
01000000
00010000
10010000
MMMM0000
,  // measure 88
00021000
00000000
00030010
00010000
00000000
00001000
00010000
00000000
,  // measure 89
00012000
00000000
01003000
00001000
00000000
00010000
00001000
00000000
,  // measure 90
00100000
00001000
00010000
00000000
00011000
00000000
00001000
01000000
,  // measure 91
0010MMMM
00000000
00000000
1000MMMM
01000000
10000000
0001MMMM
10000000
01000000
1000MMMM
00000000
00000000
,  // measure 92
00110000
00000000
MMMM2000
00003200
MMMM0302
00000023
MMMM1030
00000000
,  // measure 93
00011000
00000000
0002MMMM
00230000
2030MMMM
32000000
0301MMMM
00001000
,  // measure 94
00010000
00000000
00011000
00000000
00000010
00000100
00000000
00000100
,  // measure 95
MMMM0001
00001000
00010000
10000000
0002MMMM
00000000
00031000
00000000
,  // measure 96
00011000
00000000
00000000
00000000
;
