#TITLE:Soul On Fire;
#SUBTITLE:;
#ARTIST:L.E.D.-G VS GUHROOVY fw NO+CHIN;
#TITLETRANSLIT:;
#SUBTITLETRANSLIT:;
#ARTISTTRANSLIT:;
#GENRE:LOUD MIXTURE RAGGA;
#CREDIT:;
#BANNER:Soul_On_Fire_banner.png;
#BACKGROUND:Soul_On_Fire.png;
#LYRICSPATH:;
#CDTITLE:;
#MUSIC:Soul On Fire.ogg;
#OFFSET:-0.600000;
#SAMPLESTART:96.860001;
#SAMPLELENGTH:10.400000;
#LASTBEATHINT:366.000000;
#SELECTABLE:YES;
#BPMS:0.000000=182.000000
;
#STOPS:
;
#BGCHANGES:;
#KEYSOUNDS:;
#ATTACKS:;

//---------------dance-single - ----------------
#NOTES:
     dance-single:
     :
     Easy:
     7:
     0.276625,0.398830,0.175310,0.167341,0.000000,243.000000,221.000000,22.000000,21.000000,0.000000,0.000000,0.276625,0.398830,0.175310,0.167341,0.000000,243.000000,221.000000,22.000000,21.000000,0.000000,0.000000:
0000
0000
0000
0000
,
0000
0000
0000
0000
,
0000
0000
0000
0000
,
0000
0000
0000
0000
,
0000
0000
0000
0000
,
0100
0000
0010
0000
,
1000
0000
0001
0000
,
0020
0000
0031
0000
,
0010
0000
0011
0000
,
1000
0000
0010
0000
,
0100
0000
0001
0000
,
0010
0000
0001
0000
,
1000
0000
0100
0000
,
1000
0000
0001
0000
,
0010
0000
0100
0000
,
1000
0000
0010
0000
,
0100
0000
0001
0000
,
2002
0000
0000
3003
,
0000
0000
0000
0000
,
0010
0010
0000
0000
,
0200
0000
0000
0300
,
0001
1001
0000
0000
,
0020
0000
0000
0030
,
2000
0000
3100
0000
,
1000
0000
1100
0000
,
0001
0010
0001
0000
,
1000
0010
1000
0001
,
0100
0000
0001
0000
,
1000
0000
1001
0000
,
0010
0100
0001
0000
,
0100
0010
1000
0010
,
1000
0000
0101
0000
,
0010
0000
1100
0000
,
0001
0010
0001
0000
,
1000
0010
0100
0010
,
1000
0000
0001
0000
,
0010
0000
0110
0000
,
1000
0100
1000
0000
,
0001
0010
0100
1000
,
0002
0100
0103
0000
,
1000
0000
0110
0000
,
0001
0000
0010
0001
,
0010
0000
0100
0000
,
1000
0000
0010
1000
,
0010
0000
0100
0000
,
0001
1000
0001
0000
,
0100
0010
0100
0000
,
0010
1000
0001
1000
,
0100
0010
0001
0000
,
1000
0010
0001
0000
,
0001
0010
1000
0000
,
0001
0100
1000
0000
,
1000
0100
0001
0000
,
1000
0010
1000
0100
,
0010
0000
0110
0000
,
0001
0010
0100
0010
,
0001
0000
0110
0000
,
2000
0001
3001
0000
,
0002
1000
1003
0000
,
0010
0100
0001
0000
,
1000
0010
0100
0000
,
0001
0010
1000
0010
,
0001
0000
0100
0000
,
0001
0100
1000
0100
,
0001
0000
0010
0000
,
0100
0000
0000
0000
1000
0000
0000
0100
,
0000
0000
1000
0000
0000
0100
0000
0000
,
0010
0000
0000
0000
0001
0000
0000
0010
,
0000
0000
0001
0000
0000
0010
0000
0000
,
0001
0000
0000
0000
1000
0000
0000
0001
,
0000
0000
1000
0000
0000
0001
0000
0000
,
0200
0000
0310
0000
,
2002
0000
0000
0000
0000
3003
0000
0000
,
0020
0100
0130
0000
,
0002
0000
0000
0013
0000
0000
0100
0000
,
1000
0010
1000
0001
,
0100
0000
0110
0000
,
0020
1000
1030
0001
,
0010
0000
0000
0001
0000
0000
0100
0000
,
1001
0000
0110
0000
,
1001
0000
0110
0000
,
2000
0100
3100
0010
,
0002
0000
0000
0103
0000
0000
0010
0000
,
1000
0100
0001
0100
,
1000
0000
1001
0000
,
0020
0100
0130
0001
,
0020
0000
0000
1030
0000
0000
0010
0000
,
0110
0000
1001
0000
,
0110
1000
0001
0010
,
0220
0000
0000
0330
,
0000
0000
0000
0000
0000
0000
0000
1000
,
0001
0000
0000
0000
;

//---------------dance-single - ----------------
#NOTES:
     dance-single:
     :
     Medium:
     11:
     0.519100,0.543859,0.175310,0.270934,0.000000,456.000000,434.000000,22.000000,34.000000,0.000000,0.000000,0.519100,0.543859,0.175310,0.270934,0.000000,456.000000,434.000000,22.000000,34.000000,0.000000,0.000000:
0000
0000
0000
0000
,
0000
0000
0000
0000
,
0000
0000
0000
0000
,
0000
0000
0000
0000
,
0000
0000
0000
0000
,
0001
1000
0100
0000
1000
0001
0100
0000
,
0010
1000
0001
0000
1000
0001
0010
0000
,
0002
0000
0000
1003
0020
0000
0000
0130
,
0010
1000
0001
0000
1001
0000
0000
0000
,
0100
0010
0100
0000
0001
0000
0010
0000
,
0001
1000
0100
0000
1000
0000
0010
0000
,
1000
0000
0100
1000
0000
0001
1000
0100
,
0010
0001
2002
3003
,
0010
0000
1000
0100
1000
0000
0001
0000
,
0010
0100
0010
0000
0001
0000
1000
0000
,
0010
0000
0100
0010
1000
0001
0010
0000
,
0001
0010
0100
0000
0010
0000
0100
0000
,
2200
0000
3300
0000
,
0000
0010
0100
0000
0010
0100
0010
0000
,
0110
0220
0000
0330
,
0000
0000
0001
0010
0001
0000
0010
0001
,
0010
0110
0000
1000
,
0001
1000
0001
0000
0100
0010
0100
0000
,
0001
0000
1000
0010
0100
0000
0001
0000
,
1000
0100
0010
0100
1000
0000
0001
0000
,
0100
0010
0100
0000
0001
1000
0000
0001
,
0000
0010
0000
0001
1000
0010
0100
0000
,
0101
0000
0010
1000
0200
0000
1300
0001
,
0010
0100
1000
0000
2002
0000
3003
0000
,
0100
0010
0100
0000
0001
0010
0000
0100
,
0000
1000
0000
0010
0100
0001
0100
0000
,
0010
1000
0001
0000
2002
0000
3003
0000
,
0100
0010
1000
0000
0022
0000
0033
0000
,
1000
0100
1000
0000
0001
0010
0000
0001
,
0000
1000
0000
0010
0100
0010
1000
0000
,
0002
0000
0013
0100
0020
0000
0130
1000
,
0100
1000
0001
0000
1001
0000
0110
0000
,
0010
1000
0001
0000
0010
0001
0000
1000
,
0000
0100
0000
0010
0100
1000
0001
0000
,
0100
0000
0220
0000
0330
0000
0001
1000
,
0001
0010
0100
0000
2200
0000
3300
0000
,
1000
0000
0010
0100
0010
0000
1000
0000
,
0001
0010
0000
0010
0000
0001
1000
0000
,
0010
0100
0010
0000
1000
0000
0100
1000
,
0001
0010
0001
0000
2002
0000
3003
0000
,
0010
0000
0100
0010
1000
0000
0001
0010
,
0100
0000
1000
0001
1000
0000
0010
0000
,
0100
0000
0001
1000
0010
0100
0001
0000
,
0010
0001
1000
0100
0020
0000
0130
0000
,
1000
0000
0100
0000
1000
0001
1000
0010
,
0000
0100
0000
0010
1000
0001
1000
0000
,
0001
0000
0010
0001
0010
0100
0000
1000
,
0000
0010
0000
0100
0001
1000
0001
0000
,
0010
0000
0100
0010
0001
0100
0010
0000
,
1000
0000
0100
1000
0010
0100
0001
0000
,
1000
0010
0000
0010
0100
0001
1000
0000
,
0100
1000
0001
1000
0020
0000
0130
0000
,
0001
0000
0010
0001
0010
0000
0001
1000
,
0000
0100
0000
1000
0010
1000
0010
0000
,
0100
0000
0010
1000
0010
0000
0100
0001
,
0000
0010
0000
0001
1000
0010
0100
0000
,
0001
0100
1000
0100
0001
0000
1000
0000
,
0100
1000
0010
1000
0100
0000
0010
0000
,
0001
0100
0010
0000
1000
0001
0100
0000
,
0001
1000
0100
0010
0001
0000
0100
0000
,
0000
0010
0010
0000
1000
1000
0000
0001
,
0001
0000
0100
0100
0000
0001
0000
1000
,
0000
0100
0100
0000
1000
1000
0000
0001
,
0001
0000
0010
0010
0000
0001
0000
0010
,
0000
0001
1000
0000
0010
0100
0000
0010
,
1000
0000
0100
1000
0000
0001
0010
0000
,
0002
0000
0103
0001
2000
0000
3010
1000
,
0001
1000
0001
1000
0010
0000
0110
0000
,
2000
0010
0010
3100
,
0010
0000
0001
0020
0000
0130
1000
0000
,
0001
1000
0010
0000
0100
0010
0000
1000
,
0000
0001
1000
0010
0100
0010
1000
0000
,
0002
0010
0010
0103
,
0010
0000
1000
0100
0000
1000
0001
0000
,
0011
0000
1100
0000
,
1000
0001
0010
0000
0220
0000
0330
0000
,
0001
0010
0001
0000
1000
0000
0010
0100
,
0000
0010
0000
1000
0001
0010
0100
0000
,
1000
0010
1000
0000
0001
0100
0000
0010
,
0000
1000
0010
0001
0010
1000
0000
0001
,
0010
0001
1000
0000
0100
1000
0000
0001
,
0000
0010
0100
1000
0100
0010
0001
0000
,
1010
0000
0101
0000
,
0010
1000
0100
0001
0100
1000
0010
0000
,
0220
0000
0000
0000
,
0000
0000
0000
0000
0330
0000
0000
0001
,
1000
0000
0000
0000
;

//---------------dance-single - ----------------
#NOTES:
     dance-single:
     :
     Hard:
     15:
     0.795725,0.833918,0.533899,0.135467,0.231090,699.000000,632.000000,67.000000,17.000000,0.000000,0.000000,0.795725,0.833918,0.533899,0.135467,0.231090,699.000000,632.000000,67.000000,17.000000,0.000000,0.000000:
// measure 0
0000
0000
0000
0000
,  // measure 1
0000
0000
0000
0000
,  // measure 2
0000
0000
0000
0000
,  // measure 3
0000
0000
0000
0000
,  // measure 4
0000
0000
0000
0000
,  // measure 5
0001
0100
0010
1000
0010
0100
0001
0010
,  // measure 6
0100
1000
0100
0001
0100
0010
0100
1000
,  // measure 7
2100
0000
3001
0010
0012
0000
1003
0100
,  // measure 8
0010
0000
0100
0010
0100
0000
0010
0000
1001
0000
0000
0000
0110
0000
0000
0000
,  // measure 9
0010
1000
0001
0200
0000
0310
1000
0001
,  // measure 10
0010
0001
0010
0200
0000
1300
0001
1000
,  // measure 11
0010
0100
0001
0020
0000
0031
1000
0100
,  // measure 12
1000
0000
0010
0000
1000
0000
0001
0000
1000
0000
0100
0010
0001
0000
0000
0000
,  // measure 13
0001
0000
0010
0001
0010
0000
0100
0000
1000
0000
0010
0000
1000
0000
0100
0000
,  // measure 14
1000
0000
0010
0100
0010
0000
1000
0000
0001
0000
0010
0000
0100
0000
1000
0000
,  // measure 15
0010
0000
0100
0000
0010
1000
0001
0100
0010
0000
1000
0000
0001
0000
0010
0000
,  // measure 16
0100
1000
0001
1000
0100
0010
0001
0000
,  // measure 17
1001
0000
0210
0000
0000
0310
0110
0000
,  // measure 18
1000
0100
0001
0100
1000
0010
0100
0001
,  // measure 19
0011
0000
2100
0000
0000
3100
1100
0000
,  // measure 20
0001
0010
0001
0000
1000
0000
0010
0000
0100
0000
0001
0000
0100
0000
0010
0000
,  // measure 21
1000
0000
1002
0000
0000
0013
0011
0000
,  // measure 22
0100
1000
0100
0000
1000
0000
0001
0000
0010
0001
0010
0000
0001
0000
1000
0000
,  // measure 23
0120
0000
0130
0010
1000
0001
1001
0000
,  // measure 24
0010
0100
0010
0000
1000
0100
1000
0000
0001
0010
0001
0010
0100
1000
0100
0000
,  // measure 25
1000
0000
0010
0000
0100
0000
0010
0000
1000
0000
0001
0100
0010
0000
1000
0000
,  // measure 26
0000
0000
1000
0000
0001
0000
0010
0100
1000
0100
0010
0000
0001
0000
0100
0000
,  // measure 27
0110
0000
0001
0010
0011
0000
1000
0100
,  // measure 28
0010
0100
0001
0100
1100
0000
0011
0000
,  // measure 29
0001
0000
0100
0000
0001
0000
0010
0001
1000
0001
0010
0000
0100
0000
0010
0000
,  // measure 30
0000
0000
0010
0000
0100
0000
1000
0001
0100
0000
0010
0000
1000
0000
0010
0000
,  // measure 31
0100
0010
1000
0000
0101
0000
0010
1000
,  // measure 32
0001
0000
0010
0000
0100
0000
0000
0000
1010
0000
0000
0000
0100
0010
0100
0000
,  // measure 33
0001
0000
1000
0000
0010
0100
0010
0000
1000
0000
0100
0000
1000
0000
0001
0000
,  // measure 34
0000
0000
0001
0000
0010
0000
0100
1000
0010
0000
1000
0000
0001
0000
0100
0000
,  // measure 35
0010
1000
0100
0100
1000
0001
0010
0010
,  // measure 36
0001
1000
0010
0100
0010
0010
0110
0000
,  // measure 37
1000
0100
1000
0000
0001
0000
0010
0000
0001
0000
0100
0010
1000
0000
0001
0000
,  // measure 38
0000
0000
0001
0000
1000
0000
0100
0010
0100
0000
1000
0000
0001
0000
0100
0000
,  // measure 39
0010
1000
1100
0000
0001
0100
0010
1010
,  // measure 40
0000
0000
0001
0100
0001
0000
0100
0000
0010
0000
1000
0000
1001
0000
0000
0000
,  // measure 41
0010
0100
0001
0010
0001
0000
1000
0010
,  // measure 42
0100
0010
1000
0100
0000
0100
0010
0000
,  // measure 43
0001
0000
0010
0000
0001
0000
1000
0100
0010
0000
0100
0000
1000
0000
0010
0000
,  // measure 44
0000
0010
1000
0100
0001
0100
1000
0000
,  // measure 45
0001
0010
1000
0010
0001
0000
0100
0010
,  // measure 46
1000
0010
0001
0010
1000
0001
0010
0000
,  // measure 47
0001
0000
1000
0000
0010
0000
0100
0010
0100
0000
0001
0000
0010
0000
0100
0000
,  // measure 48
0000
0000
1000
0000
0010
0000
0100
0001
1000
0000
0010
0000
0110
0000
0000
0000
,  // measure 49
1000
0010
0100
0010
1000
0100
1000
1001
,  // measure 50
0000
0001
0010
0001
0100
0010
0110
0000
,  // measure 51
0010
1000
0001
0100
0001
0010
0100
0110
,  // measure 52
0000
1001
0000
1000
0001
0010
0100
0010
,  // measure 53
0001
0000
1000
0000
0100
0000
1000
0001
0010
0000
0001
0000
1000
0000
0010
0000
,  // measure 54
0000
0000
0010
0000
0100
0000
0010
1000
0100
0000
1000
0000
0001
0000
0010
0000
,  // measure 55
0001
0100
0010
0100
0001
1000
0000
1100
,  // measure 56
0000
0000
0011
0000
0000
0000
0001
1000
0010
0000
0100
0000
0010
0000
1000
0000
,  // measure 57
0100
1000
0100
0010
0100
1000
0001
0100
,  // measure 58
0000
0010
0100
0001
0100
0010
1000
0001
,  // measure 59
0010
0000
0001
0000
1000
0000
0001
0010
0100
0000
1000
0000
0001
0000
0100
0000
,  // measure 60
0000
0000
0100
0000
0010
0000
1000
0100
0010
0000
0001
0000
1000
0000
0010
0000
,  // measure 61
0100
0000
0001
0000
0100
0000
1000
0000
0100
0000
0010
1000
0100
0000
1000
0000
,  // measure 62
0001
0000
0010
0000
0001
0000
0100
0000
0010
0100
0001
0000
0100
0000
0010
0000
,  // measure 63
1000
0001
0010
0100
0010
0001
1000
0010
,  // measure 64
0100
0010
1010
0000
0100
0001
0101
0000
,  // measure 65
0000
1000
1100
0000
0001
0101
0000
0100
,  // measure 66
0110
0000
0010
0110
0000
1001
0000
1001
,  // measure 67
0000
0001
0011
0000
1000
1010
0000
0100
,  // measure 68
0110
0000
0010
0110
0000
1001
0000
0110
,  // measure 69
0000
0011
1001
0000
1010
1001
0000
0101
,  // measure 70
1001
0000
1100
1001
0000
0110
0000
0100
,  // measure 71
0002
0000
0013
0001
2000
0000
3100
1000
,  // measure 72
0001
0100
0001
0100
0010
0000
0100
0000
0010
1000
0010
1000
0100
0000
1000
0000
,  // measure 73
0002
0100
0100
0000
0103
0010
1000
0100
,  // measure 74
1000
0010
0100
0110
0000
0001
0010
0000
,  // measure 75
0011
0000
0000
0000
1000
0000
0010
0000
0100
0000
0000
0010
0000
0000
0110
0000
,  // measure 76
0000
0000
0001
1000
0001
0000
0100
0000
0010
0000
1000
0000
1100
0000
0000
0000
,  // measure 77
2000
0010
0010
0000
3010
0100
0001
0010
,  // measure 78
0001
0100
0010
0110
0000
1000
0100
0000
,  // measure 79
0011
0000
1000
0100
1100
0000
0001
0100
,  // measure 80
0101
0000
0000
0000
0010
0000
1000
0000
0001
0010
0100
1000
0010
0000
0000
0000
,  // measure 81
0200
0010
0010
0000
1000
1000
1300
0100
,  // measure 82
0001
0000
0010
0000
0100
0000
0010
0000
0001
1000
0100
1000
0001
0000
0010
0000
,  // measure 83
0001
0000
1000
0000
0010
0000
1000
0000
0100
0000
0000
1001
0000
0000
0001
0000
,  // measure 84
0000
0000
0010
0000
0001
0000
1000
0000
0010
0100
0001
0100
0010
0000
1000
0000
,  // measure 85
0020
0100
0100
0000
1000
1000
1030
0001
,  // measure 86
0010
0000
0100
0000
0010
0000
0001
0000
1000
0100
0010
0100
1000
0000
0001
0000
,  // measure 87
0011
0000
1000
0010
1010
0000
0100
0001
,  // measure 88
1000
0010
0100
0000
0001
0010
0100
0000
1000
0001
1000
0001
0100
0000
0010
0000
,  // measure 89
0220
0000
0000
0330
,  // measure 90
0001
0000
0000
0000
0000
0000
0000
0000
1000
0000
0000
0000
0000
0000
0000
0000
0010
0000
0000
0000
0000
0100
0000
0000
,  // measure 91
0110
0000
0000
0000
;
