#TITLE:蒼氷のフラグメント;
#SUBTITLE:;
#ARTIST:BEMANI Sound Team "JYUNN";
#TITLETRANSLIT:Souhi no fragment;
#SUBTITLETRANSLIT:;
#ARTISTTRANSLIT:JYUNN;
#GENRE:;
#CREDIT:;
#BANNER:Souhi no fragment_banner.png;
#BACKGROUND:Souhi no fragment_bg.png;
#LYRICSPATH:;
#CDTITLE:;
#MUSIC:Souhi no fragment.ogg;
#OFFSET:-0.380000;
#SAMPLESTART:81.599998;
#SAMPLELENGTH:14.770000;
#LASTBEATHINT:276.000000;
#SELECTABLE:YES;
#BPMS:0.000000=130.000000
;
#STOPS:
;
#BGCHANGES:;
#KEYSOUNDS:;
#ATTACKS:;

//---------------dance-single - ----------------
#NOTES:
     dance-single:
     :
     Easy:
     3:
     0.115488,0.154753,0.023098,0.107788,0.000000,105.000000,102.000000,3.000000,14.000000,0.000000,0.000000,0.115488,0.154753,0.023098,0.107788,0.000000,105.000000,102.000000,3.000000,14.000000,0.000000,0.000000:
0000
0000
0000
0000
,
0000
0000
0000
0000
,
0000
0000
0000
0000
,
0000
0000
0000
0000
,
0010
0000
1000
0000
,
0001
0000
0010
0000
,
0002
0000
0000
0000
,
0003
0000
0000
0000
,
2000
0000
3000
0000
,
0100
0000
1000
0000
,
0020
0000
0030
0000
,
0100
0000
0001
0000
,
0020
0000
0030
0000
,
0100
0000
0010
0000
,
0001
0000
1000
0000
,
0100
0000
1000
0000
,
0020
0000
0030
0000
,
1000
0000
0001
0000
,
0010
0000
0001
0000
,
1000
0000
0100
0000
,
0220
0000
0000
0000
,
0330
0000
0000
0000
,
0000
0000
0000
0000
,
0000
0000
0000
0000
,
0001
0000
0100
0000
,
0010
0000
0100
0000
,
0001
0000
1000
0000
,
0100
0000
1000
0000
,
0010
0000
0100
0000
,
0001
0000
1000
0000
,
0001
0000
0010
0000
,
0100
0000
1000
0000
,
0001
0000
1000
0000
,
0010
0000
0010
0000
,
1000
0000
0001
0000
,
0100
0000
0100
0000
,
0001
0000
0010
0000
,
0001
0000
1000
0000
,
0010
0000
1000
0000
,
0100
0000
0010
0000
,
2002
0000
0000
3003
,
0000
0000
0000
0000
,
0200
0000
0000
0300
,
0000
0000
0000
0000
,
0010
0000
0100
0000
,
0001
0000
0001
0000
,
1000
0000
0100
0000
,
0010
0000
0010
0000
,
0001
0000
0100
0000
,
0010
0000
0010
0000
,
1000
0000
0100
0000
,
1000
0000
1000
0000
,
0001
0000
0100
0000
,
0001
0000
0100
0000
,
0010
0000
1000
0000
,
0010
0000
1000
0000
,
0100
0000
0010
0000
,
0001
0000
1000
0000
,
0010
0000
0010
0000
,
0200
0000
0300
0000
,
0002
0000
0003
0000
,
0020
0000
0030
0000
,
2000
0000
3000
0000
,
0100
0000
1000
0000
,
0100
0000
0000
0000
,
0010
0000
0001
0000
,
0100
0000
0010
0000
,
1001
0000
0000
0000
;

//---------------dance-single - ----------------
#NOTES:
     dance-single:
     :
     Medium:
     8:
     0.243074,0.317591,0.130886,0.277170,0.000000,221.000000,204.000000,17.000000,36.000000,0.000000,0.000000,0.243074,0.317591,0.130886,0.277170,0.000000,221.000000,204.000000,17.000000,36.000000,0.000000,0.000000:
0000
0000
0000
0000
,
0000
0000
0000
0000
,
0010
0000
0100
0010
,
1000
0000
1001
0000
,
0020
0000
0032
0000
,
2003
0000
3100
0000
,
0020
0000
0000
0200
0000
0000
0000
0000
,
0000
0000
0330
0000
,
2200
0000
3300
0000
,
0002
0000
0000
0020
0000
0000
0033
0000
,
2002
0000
3003
0000
,
0020
0000
0000
2000
0000
0000
3030
0000
,
2002
0000
3003
0000
,
0200
0000
0000
0002
0000
0000
0303
0000
,
1000
0000
0010
1000
,
0100
0000
0010
0000
,
0002
0000
0103
0010
,
1000
0000
0100
0000
,
1010
0000
0100
0001
,
0020
0000
0130
0000
,
2000
0000
0000
0002
0000
0000
0000
0000
,
3003
0000
0200
0000
,
0020
0000
0000
0000
,
0330
0000
0000
0000
,
0001
0010
0001
0000
,
1000
0100
1000
0000
,
0010
1000
0010
0000
,
0100
0001
0100
0000
,
0001
0000
0010
0000
0100
1000
0100
0000
,
1000
0010
0110
0000
,
1000
0000
0010
0000
0100
0001
0100
0000
,
0010
1000
1100
0000
,
0001
0100
0001
0010
,
0001
0000
0010
0100
1000
0000
0000
0000
,
0010
1000
0100
1000
,
0010
0000
1000
0100
0010
0000
0000
0000
,
0001
0100
0001
1000
,
0010
0000
1000
0001
0100
0000
0000
0000
,
0010
0100
0001
1000
,
1001
0000
0110
0000
,
2002
0000
0000
0000
,
0000
0000
3003
0000
,
0010
0000
0100
0000
0010
0100
0010
0000
,
1000
0000
0100
0000
1000
0100
1000
0000
,
0001
0000
0100
0000
0010
0000
0100
0001
,
0100
0010
0220
0330
,
1000
0000
0100
0000
1000
0000
0010
1000
,
0010
0100
0220
0330
,
0001
0000
0100
0000
0010
0100
0001
0000
,
0010
0000
0100
0000
1000
0001
0100
0000
,
0010
0000
0010
0100
0010
0000
1000
0000
,
0001
0000
1000
0100
2000
0000
0000
0000
,
3001
0000
0100
0000
0001
0000
0010
0001
,
1000
0010
0110
0000
,
1000
0000
0100
0000
1000
0000
0001
0100
,
0010
1000
1001
0000
,
0010
0000
0001
0000
1000
0010
0100
0000
,
0001
0000
1000
0000
0010
0100
0001
0000
,
0020
0230
2300
3200
,
0310
0001
1000
0010
,
0100
0000
0001
0100
0001
0000
0000
0000
,
1000
0100
0010
0100
,
1000
0000
0001
0010
0001
0000
0000
0000
,
0101
0000
0010
0000
,
1100
0000
0010
0000
,
0100
0000
0100
0000
0100
0001
0100
0000
,
0010
0000
0010
0000
0010
1000
0001
0000
,
0220
0000
0000
0000
,
0000
0000
0000
0330
;

//---------------dance-single - ----------------
#NOTES:
     dance-single:
     :
     Hard:
     12:
     0.502646,0.635182,0.169382,0.346463,0.230975,457.000000,435.000000,22.000000,45.000000,0.000000,0.000000,0.502646,0.635182,0.169382,0.346463,0.230975,457.000000,435.000000,22.000000,45.000000,0.000000,0.000000:
0000
0000
0000
0000
,
0000
0000
0000
0000
,
0102
0023
0230
0310
,
1002
0000
0013
0100
1000
0000
0010
0000
,
0220
0030
1000
0300
,
0220
0300
0001
0030
,
0102
0000
0000
0020
0000
0000
0000
0000
,
0000
0000
0000
0033
,
2200
0000
0000
3300
,
1002
0000
0000
0020
0000
0000
0033
0000
,
2020
0000
0000
3030
,
0201
0000
0000
0020
0000
0000
0330
0000
,
1000
0100
0020
0100
0030
0100
1000
0010
,
0100
0001
0020
0001
0030
0001
1000
0000
,
0110
0000
0000
0000
0001
0000
0100
0000
0000
0000
0001
0010
0100
0000
1000
0000
,
0010
1000
0100
0010
0001
0100
1000
0000
,
0110
0000
0000
0000
0100
0000
0001
0000
0000
0000
0001
0010
0100
0000
1000
0000
,
0001
0000
0100
0000
1000
0000
0100
0000
0010
0000
1000
0000
0100
0010
0000
0000
,
0001
0000
0100
0000
0001
0010
0100
0000
1000
0000
0010
0000
1000
0100
0010
0000
,
0001
0000
0100
0000
1000
0000
0100
0000
0010
0000
1000
0100
0010
0000
0000
0000
,
0012
0000
0000
2000
0000
0000
0000
0000
,
0000
3003
0220
0030
,
0002
0000
0000
0000
,
0000
0000
0000
0303
,
1000
0010
0100
0010
1000
0100
0010
0001
,
0100
0000
0010
0000
0100
0000
0001
0000
0010
0000
0001
0000
1000
0000
0010
0100
,
0001
0000
0010
0000
0100
0000
0010
0000
0002
0000
0000
0000
1003
0000
0001
0010
,
0100
0000
0010
0000
0001
0000
1000
0000
0020
0000
0000
0000
0130
0001
1000
0000
,
0010
0000
1000
0100
0010
0000
0100
1000
0010
0000
0100
0000
0001
0000
0010
0000
,
0001
0000
0100
0010
1000
0000
0010
1000
0100
0000
1000
0000
0001
0100
0010
0000
,
0100
0000
0001
0010
0100
0000
0100
0010
0001
0000
1000
0000
0010
0000
0000
0000
,
1000
0000
0010
1000
0100
0000
0100
1000
0010
0000
0100
0000
0110
0000
0000
0000
,
0001
0010
0100
1000
0010
1000
0001
0010
,
0001
0100
1000
0100
0001
0010
0010
0000
,
0001
0100
0010
1000
0100
0001
0100
1000
,
0010
0000
0100
0000
0010
0000
1000
0100
0010
0000
0001
0000
1001
0000
0000
0000
,
0100
0010
0100
0001
0010
0100
1000
0001
,
0100
0000
0010
0000
1000
0000
0100
0010
0001
0000
1000
0000
1000
0000
0000
0000
,
0010
0100
0010
1000
0100
0010
0001
0100
0010
1000
0001
0010
,
0100
0000
0000
0000
1000
0000
0000
0000
0010
0000
0000
0000
0100
0000
0000
0000
0001
0000
0000
0000
0010
0000
0000
0000
0100
0000
0000
0000
0000
0000
1000
0000
0000
0001
0000
0000
0100
0000
0000
0000
0000
0000
0010
0000
0000
0000
0000
0000
,
2000
0000
0000
0000
3002
0000
0103
1000
,
0002
0000
0013
1000
0002
0000
1003
0100
,
0002
0000
1003
0010
0002
0000
0103
0001
,
1000
0000
0010
0000
0100
0000
0001
0000
0010
0100
0010
0000
0001
1000
0001
1000
,
0001
0100
1000
0100
0001
0010
0100
1000
,
0010
0000
1000
0000
0100
0000
0010
0000
0002
0103
0000
0000
0020
1030
0000
0000
,
1000
0100
0010
0001
0100
1000
0100
0001
,
1000
0000
0010
0000
0100
0000
0001
0000
2000
3001
0000
0000
0020
0130
0000
0000
,
1000
0000
0010
0000
0100
0000
0010
0000
1000
0000
0100
0010
0001
0000
0100
0000
,
0001
0000
0010
0000
0100
0000
1000
0000
0010
0000
1000
0001
0100
0000
0010
0000
,
0100
0000
0001
0000
0010
0000
0001
1000
0001
0000
1000
0000
0100
0010
0001
0000
,
1000
0000
0010
0000
1000
0100
1000
0000
0001
0100
0010
0000
0010
0100
0001
0000
,
0010
0000
0100
0000
1000
0000
0100
0000
0001
0000
0100
0000
1000
0000
0010
0100
,
0010
0000
1000
0000
0010
0000
0001
0000
0010
0000
1000
0100
1000
0000
0001
0000
,
0010
0000
0001
0000
0100
0000
0001
0000
0010
0000
0100
0000
1000
0000
0001
0100
,
0001
0000
0010
0000
0100
0000
1000
0000
0010
0000
0100
0001
1000
0000
0100
0000
,
0010
0000
0100
0000
1000
0000
0001
0000
0100
0000
0010
0000
1000
0100
0010
0000
,
0001
0000
0100
0000
0010
0000
0100
0000
0001
0010
0100
0000
0010
0100
1000
0000
,
0001
1000
0100
0010
0100
0010
0001
0010
0100
1000
0000
0000
,
1001
0000
0010
0100
0001
0010
0001
0000
,
1100
0000
0010
0100
0001
0000
0011
0000
,
1010
0000
0100
0010
1000
0100
0010
0100
,
1000
0001
0100
1000
0100
0000
0110
0000
,
0022
0030
2000
3003
,
2200
3000
0020
0330
,
0001
0100
0001
0100
0001
0010
0001
0010
,
0100
1000
0100
0001
0010
0001
0100
2000
,
0020
0000
0000
0000
,
0000
0000
0000
3030
;

//---------------dance-double - ----------------
#NOTES:
     dance-double:
     :
     Hard:
     12:
     0.489448,0.635182,0.161683,0.338764,0.227126,445.000000,424.000000,21.000000,44.000000,0.000000,0.000000,0.489448,0.635182,0.161683,0.338764,0.227126,445.000000,424.000000,21.000000,44.000000,0.000000,0.000000:
// measure 0
00000000
00000000
00000000
00000000
,  // measure 1
00000000
00000000
00000000
00000000
,  // measure 2
00201000
02300000
23000000
30010000
,  // measure 3
01002000
00000000
00013000
00000010
00000200
00000000
00000301
00000000
,  // measure 4
00000021
00000000
00001000
00000030
,  // measure 5
00010200
00000000
00000010
00000300
,  // measure 6
00020000
00000000
00000000
00002000
00000000
00000000
00000000
00000000
,  // measure 7
00000000
00000000
00000000
00033000
,  // measure 8
02020000
00000000
00000000
03030000
,  // measure 9
21000000
00000000
00000000
00200000
00000000
00000000
30300000
00000000
,  // measure 10
00202000
00000000
00000000
00303000
,  // measure 11
00020100
00000000
00000000
00000020
00000000
00000000
00030030
00000000
,  // measure 12
00002002
00000000
00000000
00003003
,  // measure 13
00000120
00000000
00000000
00010000
00000000
00000000
00000130
00000000
,  // measure 14
00000011
00000000
00000000
00000000
00000001
00000000
00001000
00000000
00000000
00000000
00001000
00000100
00010000
00000000
00001000
00000000
,  // measure 15
00100000
00001000
00010000
00001000
00000000
00001000
01000000
00000000
,  // measure 16
01100000
00000000
00000000
00000000
00010000
00000000
10000000
00000000
00000000
00000000
01000000
10000000
00100000
00000000
01000000
00000000
,  // measure 17
00010000
00000000
01000000
00000000
10000000
00000000
01000000
00000000
00000000
00000000
01000000
00000000
00001000
00100000
00000000
00000000
,  // measure 18
01010000
00000000
00010000
00100000
00001000
00010000
00000010
00000000
,  // measure 19
00000100
00000001
00000010
00000100
00010000
00001000
00100000
00000000
,  // measure 20
00021000
00000000
00000000
00000020
00000000
00000000
00000000
00000000
,  // measure 21
00000000
00030030
00002002
00003000
,  // measure 22
00000200
00000000
00000000
00000000
,  // measure 23
00000000
00000303
00000000
00000000
,  // measure 24
00000010
00010000
00001000
00010000
00000100
00010000
00001000
01000000
,  // measure 25
00010000
00000000
00100000
00000000
01000000
00000000
10000000
00000000
00100000
00000000
00000000
00000000
00100000
00000000
10000000
00010000
,  // measure 26
01000000
00000000
00001000
00000000
00100000
00000000
00001000
00000000
00010000
00000000
00000000
00000000
00000010
00000000
00010000
00000100
,  // measure 27
00001000
00000000
00000001
00000000
00000010
00000000
00000100
00000000
00010000
00000000
00000000
00000000
00000001
00001000
00000100
00000000
,  // measure 28
00010000
00000000
00001000
00100000
00001000
00000000
00010000
00000000
00001000
00000000
01000000
00100000
10000000
00000000
00010000
00000000
,  // measure 29
10000000
00000000
00100000
01000000
00010000
00000000
00100000
00000000
00001000
00000000
00010000
00000000
00000100
00001000
00000100
00000000
,  // measure 30
00010000
00000000
00000010
00000000
00000100
00000000
00000001
00001000
00000001
00000000
00000010
00000000
00000100
00000000
00010000
00001000
,  // measure 31
00010000
00000010
00000100
00000010
00010000
00000000
00011000
00000000
,  // measure 32
01000000
00100000
10000000
01000000
00010000
01000000
10000000
00010000
,  // measure 33
00100000
00001000
00010000
00000010
00000100
00000001
00000020
00000000
,  // measure 34
00000130
00010000
00001000
00100000
00001000
00010000
00000010
00000100
,  // measure 35
00000001
00000000
00000010
00000000
00001000
00000000
00000010
00000000
00000001
00000000
00001000
00000010
00010000
00000000
00000100
00000000
,  // measure 36
00001000
00000000
00000100
00000000
00010000
00000000
00001000
00100000
00010000
00000000
01000000
00000000
00100000
00000000
10000000
00000000
,  // measure 37
01000000
00000000
00100000
00000000
01000000
00000000
10000000
00010000
01000000
00000000
00001000
00000000
00010000
00000000
00000000
00000000
,  // measure 38
00010000
00001000
00100000
00001000
00010000
00000010
00001000
00000100
00010000
00000010
00000100
00000001
,  // measure 39
00000010
00000000
00000000
00000000
00000100
00000000
00000000
00000000
00010000
00000000
00000000
00000000
00001000
00000000
00000000
00000000
00100000
00000000
00000000
00000000
00010000
00000000
00000000
00000000
01000000
00000000
00000000
00000000
00000000
00000000
00100000
00000000
00000000
10000000
00000000
00000000
01000000
00000000
00000000
00000000
00000000
00000000
00100000
00000000
00000000
00000000
00000000
00000000
,  // measure 40
00020000
00000000
00000000
00000000
10030000
00100000
01000000
00010000
,  // measure 41
10000000
00100000
01000000
00010000
00100000
00001000
00010000
00000100
,  // measure 42
00100000
00001000
00010000
00000100
00001000
00000100
00000010
00000001
,  // measure 43
00001000
00000000
00000001
00000000
00000010
00000000
00000100
00000000
00010000
00000000
00001000
00100000
00001000
00010000
00001000
00010000
,  // measure 44
00001000
00100000
01000000
10000000
00010000
01000000
00001000
00010000
,  // measure 45
00000010
00000000
00001000
00000000
00000001
00000000
00000010
00000000
00000200
00010300
00000000
00000000
00002000
00103000
00000000
00000000
,  // measure 46
00010000
01000000
10000000
01000000
00010000
00100000
01000000
00010000
,  // measure 47
01000000
00000000
10000000
00000000
00100000
00000000
01000000
00000000
00002000
00103000
00000000
00000000
00000200
00010300
00000000
00000000
,  // measure 48
00000010
00000000
00010000
00000000
00001000
00000000
00000100
00000000
00000001
00000000
00000010
00000100
00001000
00000000
00000010
00000000
,  // measure 49
00010000
00000000
00001000
00000000
00000100
00000000
00000001
00000000
00001000
00000000
00000010
00010000
00001000
00000000
00100000
00000000
,  // measure 50
00010000
00000000
01000000
00000000
00100000
00000000
10000000
01000000
10000000
00000000
00010000
00000000
00100000
00001000
00010000
00000000
,  // measure 51
00000100
00000000
00001000
00000000
00000010
00000000
00001000
00000000
00000001
00000010
00000100
00000000
00000010
00000100
00001000
00000000
,  // measure 52
00000010
00000000
00010000
00000000
00001000
00000000
00010000
00000100
00010000
00000000
00001000
00100000
00001000
00000000
00010000
00000000
,  // measure 53
00001000
00000000
00100000
00000000
00010000
00000000
10000000
00000000
02000000
03100000
00000000
00000000
02000000
13000000
00000000
00000000
,  // measure 54
00010000
00000000
00100000
00000000
00001000
00000000
01000000
00001000
01000000
00000000
00010000
00000000
00100000
00000000
00001000
00000000
,  // measure 55
00010000
00000000
00000010
00000100
00000001
00000000
00000010
00000000
00000002
00001003
00000000
00000000
00000002
00000013
00000000
00000000
,  // measure 56
00000100
00000000
00010000
00001000
00010000
00000000
00000010
00000000
00001000
00000000
00000100
00000000
00010000
00000000
00001000
01000000
,  // measure 57
00001000
00000000
00100000
00000000
00010000
00000000
10000000
00000000
01000000
00100000
00010000
00000000
10000000
00100000
01000000
00000000
,  // measure 58
00010000
10000000
00100000
01000000
00010000
00100000
00001000
00010000
00000010
00000100
00000000
00000000
,  // measure 59
00000011
00000000
00000010
00000100
00010000
00001000
00100000
00010000
,  // measure 60
02000000
00000000
03001000
00010000
00000010
00000000
00000110
00000000
,  // measure 61
00010000
00000100
00001000
00000001
00000010
00000100
00010000
00001000
,  // measure 62
01000000
00100000
10000000
00010000
00100000
00000000
11000000
00000000
,  // measure 63
02020000
03000000
00002000
00033000
,  // measure 64
00020020
00000030
00002000
00033000
,  // measure 65
00100000
00001000
01000000
00010000
10000000
01000000
00010000
01000000
,  // measure 66
00100000
00001000
00010000
00000010
00001000
00000010
00000001
00000020
,  // measure 67
00000002
00000000
00000000
00000000
,  // measure 68
00000000
00000000
00000000
00000033
;
