#TITLE:Sorrows;
#SUBTITLE:;
#ARTIST:Asako Yoshihiro;
#TITLETRANSLIT:;
#SUBTITLETRANSLIT:;
#ARTISTTRANSLIT:;
#GENRE:EMO;
#CREDIT:;
#BANNER:Sorrows_banner.png;
#BACKGROUND:Sorrows.png;
#LYRICSPATH:;
#CDTITLE:;
#MUSIC:Sorrows.ogg;
#OFFSET:-1.050000;
#SAMPLESTART:60.660000;
#SAMPLELENGTH:15.000000;
#SELECTABLE:YES;
#BPMS:0.000000=185.000000
;
#STOPS:
;
#BGCHANGES:;
#KEYSOUNDS:;
#ATTACKS:;

//---------------dance-single - ----------------
#NOTES:
     dance-single:
     :
     Easy:
     6:
     0.266934,0.322823,0.075075,0.083417,0.000000,224.000000,215.000000,9.000000,10.000000,0.000000,0.000000,0.266934,0.322823,0.075075,0.083417,0.000000,224.000000,215.000000,9.000000,10.000000,0.000000,0.000000:
0000
0000
0000
0000
,
0000
0000
0000
0000
,
0000
0000
0000
0000
,
0000
0000
0000
0000
,
1000
0000
0010
1000
,
0000
0000
0100
0000
,
0001
0000
0010
0001
,
0000
0000
1000
0000
,
0001
0000
0100
0001
,
0000
0000
1000
0000
,
0010
0000
1000
0100
,
0000
0000
1000
0000
,
0001
0000
0100
0010
,
0000
0000
1000
0000
,
0001
0000
1000
0000
,
0010
0000
0100
0000
,
1001
0000
0000
0000
,
0000
0000
0000
0000
,
0010
0001
0010
0000
,
0001
1000
0001
0000
,
1000
0100
1000
0000
,
0010
1000
0010
0000
,
0100
0001
0100
0000
,
0001
0010
0001
0000
,
1000
0001
1000
0000
,
0100
0010
0100
0000
,
1001
0000
0001
0100
,
0010
0000
1100
0000
,
0010
0000
1000
0100
,
1000
0000
0101
0000
,
0001
0000
1000
0010
,
1000
0000
0011
0000
,
0001
1000
0010
1000
,
0100
0010
0001
0001
,
2000
0000
0000
3000
,
0020
0000
0000
0030
,
0200
0000
0000
0300
,
0002
0000
0000
0003
,
1000
0000
0010
0000
,
1000
0000
0001
0000
,
0101
0000
0000
0000
,
1100
0000
0000
0000
,
0010
0000
0100
0000
,
0110
0000
0000
0000
,
1000
0100
0010
0002
,
0000
0000
0000
0000
0000
0003
0000
0000
,
0100
0001
0100
0000
,
0010
1000
0010
0000
,
1000
0001
1000
0000
,
0010
0100
0010
1000
,
0002
0000
0103
0000
,
0010
1000
0100
0000
,
1000
0100
0010
0100
,
1000
0001
0010
0000
,
2002
0000
3003
0000
,
0001
0100
0010
1000
,
0200
0000
1300
0001
,
1000
0010
0100
0001
,
0010
0000
0001
1000
,
0100
0000
1000
0010
,
0100
0000
0010
1000
,
0001
0100
0010
0000
,
1000
0100
0000
0000
0000
0000
1000
0100
,
0000
1000
0000
0000
0000
0000
0000
0000
,
0001
0010
0000
0000
0000
0000
0001
0010
,
0000
0001
0000
0000
0000
0000
0000
0000
,
0100
0010
0000
0000
0000
0000
0100
0010
,
0000
0100
0000
0000
0000
0000
0000
0000
,
0010
1000
0000
0000
0000
0000
0001
0100
,
0000
0010
0000
0000
0000
0000
0000
0000
,
1000
0001
0010
0100
,
0010
0001
1000
0000
,
0010
1000
0100
1000
,
0001
0100
0010
0000
,
1000
0100
0010
0001
,
0010
0100
1000
0000
,
0001
0010
0100
1000
,
0100
0010
0001
0000
,
0100
0010
1000
0001
,
0010
0100
1000
0000
,
0010
1000
0001
0100
,
0001
0010
0100
0000
,
1000
0001
0100
0010
,
1000
0100
0010
0000
,
0001
0100
1000
0100
,
0010
0100
0001
0020
,
0030
0000
0000
0000
;

//---------------dance-single - ----------------
#NOTES:
     dance-single:
     :
     Medium:
     9:
     0.365842,0.393988,0.083417,0.083417,0.000000,307.000000,297.000000,10.000000,10.000000,0.000000,0.000000,0.365842,0.393988,0.083417,0.083417,0.000000,307.000000,297.000000,10.000000,10.000000,0.000000,0.000000:
0000
0000
0000
0000
,
0000
0000
0000
0000
,
0000
0000
0000
0000
,
0000
0000
0000
0000
,
0001
1000
0100
0020
,
0000
0031
0100
0010
,
1000
0100
0010
0001
,
0100
0010
1000
0000
,
1001
0000
0100
0010
,
0000
0010
0100
0001
,
1000
0100
0010
0001
,
0000
1000
0010
0010
,
0100
0001
1000
0100
,
0000
1000
0001
0000
,
0110
0000
0010
1000
,
0000
0100
0001
0000
,
2002
0000
0000
0000
,
0000
3003
0000
0000
,
1000
0000
0010
0000
1000
0000
0001
0100
,
0000
0100
0001
0000
0010
0000
0000
0000
,
0001
0000
0100
0000
0010
0000
1000
0100
,
0000
0100
1000
0000
0001
0000
0000
0000
,
0100
0000
0010
0000
1000
0000
0001
1000
,
0000
1000
0010
0000
0100
0000
0000
0000
,
0001
0000
1000
0000
0010
0000
0100
0001
,
0000
0001
1000
0000
0100
0000
0000
0000
,
1000
0000
0010
0000
0100
0000
0010
1000
,
0000
1000
0001
0000
0101
0000
0000
0000
,
0001
0000
0010
0000
0100
0000
1000
0001
,
0000
0001
1000
0000
0010
0000
0000
0000
,
0100
0000
0001
0000
1000
0000
0010
0100
,
0000
0100
0001
0000
1000
0000
0000
0000
,
0100
0000
1000
0000
0001
0000
0010
0001
,
0000
1000
0100
0000
1000
0000
0001
0000
,
2000
0000
3010
0010
,
0100
0000
0001
0010
,
0001
1000
0100
1000
,
0020
0000
0130
0000
,
0001
0000
0010
0100
,
1000
0000
1001
0000
,
0001
0000
0100
0010
,
1000
0000
0101
0000
,
0010
0000
1000
0100
,
2000
0000
3001
0000
,
0100
0010
2000
0002
,
0000
0000
3003
0000
,
0001
0000
0100
0000
0010
0000
0100
0001
,
0000
1000
0100
1000
,
0001
0000
0010
0000
0100
0000
0010
0001
,
0000
1000
0000
0010
0000
1000
0000
0001
,
0200
0000
0000
0000
0000
0310
0000
0010
,
1000
0001
0100
0010
,
1000
0000
0001
0000
0010
0000
0001
1000
,
0000
0100
0000
1000
0000
0010
0000
0000
,
0200
0000
0000
0000
0000
0000
0000
0301
,
0000
1000
0010
1000
,
0001
0000
0010
0000
0100
0000
1000
0001
,
0000
0100
0000
0010
0000
0100
0000
0001
,
1000
0000
0010
0000
0100
0000
0001
1000
,
0000
1000
0010
0000
0100
0000
0001
0000
,
0010
0000
0100
0000
0010
0000
0001
1000
,
0000
1000
0000
0010
0000
0010
0100
0000
,
0001
1000
0000
0000
0000
0000
0010
0100
,
0000
0110
0000
0000
1000
0000
0001
0000
,
1000
0100
0000
0000
0000
0000
0001
0100
,
0000
1001
0000
0000
0100
0000
0010
0000
,
0100
0001
0000
0000
0000
0000
1000
0010
,
0000
1010
0000
0000
0100
0000
0001
0000
,
0010
0001
0000
0000
0000
0000
1000
0100
,
0000
1001
0000
0000
0010
0000
0100
0000
,
0001
1000
0100
1000
,
0001
0010
1000
0010
,
0001
0100
0010
1000
,
0100
1000
0001
0100
,
0001
0010
0100
1000
,
0001
1000
0100
0001
,
0100
1000
0010
0100
,
0001
0000
1000
0000
0010
0100
0010
0000
,
1000
0001
0010
0100
,
1000
0100
0001
0100
,
1000
0010
0100
0001
,
0010
0000
0001
0000
1000
0100
1000
0000
,
0001
0100
0010
1000
,
0100
0000
1000
0000
0001
0010
0100
0000
,
1000
0000
0010
0000
0100
0000
0001
0010
,
0000
0001
1000
0000
0010
0100
0010
0100
;

//---------------dance-single - ----------------
#NOTES:
     dance-single:
     :
     Hard:
     12:
     0.620859,0.644707,0.358692,0.125125,0.004171,521.000000,478.000000,43.000000,15.000000,0.000000,0.000000,0.620859,0.644707,0.358692,0.125125,0.004171,521.000000,478.000000,43.000000,15.000000,0.000000,0.000000:
// measure 0
0000
0000
0000
0000
,  // measure 1
0000
0000
0000
0000
,  // measure 2
0000
0000
0000
0000
,  // measure 3
0000
0000
0000
0000
,  // measure 4
1000
0010
0100
0000
0010
0000
0210
0000
,  // measure 5
0000
0301
0010
0001
,  // measure 6
0100
0010
1000
0001
,  // measure 7
0010
0001
1000
0001
0100
0010
0100
0000
,  // measure 8
2010
0001
3001
0120
,  // measure 9
0000
1030
0101
1010
,  // measure 10
2001
0100
3100
0102
,  // measure 11
0000
0013
1001
1100
,  // measure 12
0010
0000
0100
0010
0100
0000
0001
1000
,  // measure 13
0000
0001
1000
0000
0010
0100
0010
0000
,  // measure 14
1001
0000
1000
0010
0100
0000
0100
0010
,  // measure 15
1000
1000
0001
0100
,  // measure 16
2002
0000
0000
0000
,  // measure 17
3003
0000
0010
0010
,  // measure 18
1000
0001
0100
0001
1000
0000
0010
0100
,  // measure 19
0001
0100
0010
0000
1000
0001
1000
0001
,  // measure 20
0010
0100
1000
0100
0010
0000
0001
0100
,  // measure 21
0010
0100
0001
0000
0010
0100
0010
0100
,  // measure 22
1000
0001
0010
0001
1000
0000
0010
1000
,  // measure 23
0001
1000
0010
0000
0100
0001
1000
0010
,  // measure 24
0100
0010
1000
0001
0100
0000
0001
0010
,  // measure 25
0001
0100
0010
0000
1000
0001
1000
0001
,  // measure 26
0010
0100
0010
1000
0010
0000
0100
0010
,  // measure 27
0100
0001
0100
0000
1100
0000
0101
0000
,  // measure 28
0001
1000
0001
0010
0001
0000
1000
0100
,  // measure 29
1000
0001
1000
0000
0011
0000
1010
0000
,  // measure 30
0010
0100
0010
1000
0010
0000
0100
0001
,  // measure 31
0100
0010
0100
0000
1001
0000
0110
0000
,  // measure 32
0100
0001
0010
0001
1000
0010
1000
0100
,  // measure 33
0010
0001
0100
0010
1000
0100
1000
0001
,  // measure 34
0020
0001
0001
0031
,  // measure 35
0200
0010
0000
0310
,  // measure 36
1000
0000
0001
0010
0000
0011
0000
1100
,  // measure 37
0000
1000
0100
0001
,  // measure 38
0200
0000
0310
0001
,  // measure 39
0012
0000
1003
0100
,  // measure 40
1002
0000
0103
0010
,  // measure 41
0100
0001
1000
0000
,  // measure 42
1020
0000
0130
0102
,  // measure 43
0000
0013
0100
1000
,  // measure 44
0001
0010
0100
0000
1000
0010
0200
0000
,  // measure 45
0000
0000
0001
0301
,  // measure 46
1000
0010
0100
0000
0010
0100
0001
0010
,  // measure 47
0000
0010
0001
1000
0100
0010
0100
1000
,  // measure 48
0010
0100
0010
0000
1000
0010
0100
0001
,  // measure 49
0000
0010
0100
0001
0100
0010
1000
0010
,  // measure 50
0001
0100
0001
0000
1000
0010
0100
0010
,  // measure 51
0000
0100
0010
0100
0001
0010
1000
0010
,  // measure 52
0001
0100
0010
0100
0001
0010
0001
1000
,  // measure 53
0000
0000
1000
0000
0010
0000
0100
0000
0010
0000
1000
0000
0001
0000
1000
0100
,  // measure 54
1000
0010
0100
0010
1000
0001
0010
0001
,  // measure 55
0000
0001
0100
0010
0100
1000
0100
0010
,  // measure 56
1000
0001
0010
0001
0100
0001
0010
0100
,  // measure 57
0000
0100
1000
0100
0010
0001
0010
1000
,  // measure 58
0010
0001
0010
0001
1000
0100
1000
0010
,  // measure 59
0000
0010
0100
0001
0010
0001
1000
0010
,  // measure 60
0100
0010
1000
0100
1000
0001
0010
0100
,  // measure 61
0000
0010
0010
0100
1000
0001
1000
0001
,  // measure 62
1001
1001
0000
0000
0000
0000
0110
0110
,  // measure 63
0000
0101
0000
0000
0010
0000
1000
0000
,  // measure 64
1100
1100
0000
0000
0000
0000
0011
0011
,  // measure 65
0000
0101
0000
0000
1000
0010
1000
0000
,  // measure 66
0110
0110
0000
0000
0000
0000
1001
1001
,  // measure 67
0000
1001
0000
0000
0100
0010
0100
0010
,  // measure 68
1010
1010
0000
0000
0000
0000
0101
0101
,  // measure 69
0000
1001
0000
1000
0010
0100
0001
0010
,  // measure 70
0001
0100
0001
0010
0000
0010
0001
1000
,  // measure 71
0010
0100
0001
1000
0100
1000
0010
0100
,  // measure 72
0010
1000
0001
0010
0000
0010
0100
1000
,  // measure 73
0001
0100
1000
0100
0010
0100
0001
0010
,  // measure 74
0001
1000
0100
1000
0000
0010
0100
0010
,  // measure 75
1000
0001
0010
0001
0100
0010
1000
0010
,  // measure 76
0100
0001
0010
0001
1000
0010
1000
0100
,  // measure 77
0000
0100
1000
0010
0100
0010
0100
0010
,  // measure 78
0100
0001
1000
0100
0000
1000
0010
0001
,  // measure 79
0010
1000
0001
0010
0001
1000
0100
1000
,  // measure 80
0010
0100
0001
0100
0000
0010
1000
0001
,  // measure 81
0010
0100
1000
0100
0010
0001
0100
0010
,  // measure 82
1000
0001
0010
0001
0000
1000
0010
0100
,  // measure 83
0001
0010
0100
1000
0010
1000
0100
0010
,  // measure 84
0001
0100
1000
0100
0000
0010
1000
0010
,  // measure 85
0100
0001
0010
0100
1000
0001
0010
1000
;
