#TITLE:空澄みの鵯と;
#SUBTITLE:;
#ARTIST:あさき;
#TITLETRANSLIT:Sorasumi no hiyo to;
#SUBTITLETRANSLIT:;
#ARTISTTRANSLIT:Asaki;
#GENRE:LINK;
#CREDIT:;
#BANNER:Sorasumi no hiyo to_banner.png;
#BACKGROUND:Sorasumi no hiyo to_bg.png;
#LYRICSPATH:;
#CDTITLE:;
#MUSIC:Sorasumi no hiyo to.ogg;
#OFFSET:-0.370000;
#SAMPLESTART:66.629997;
#SAMPLELENGTH:11.000000;
#LASTBEATHINT:401.000000;
#SELECTABLE:YES;
#BPMS:0.000000=230.000000
;
#STOPS:
;
#BGCHANGES:;
#KEYSOUNDS:;
#ATTACKS:;

//---------------dance-single - ----------------
#NOTES:
     dance-single:
     :
     Easy:
     6:
     0.209955,0.317424,0.055811,0.158131,0.000000,158.000000,152.000000,6.000000,17.000000,0.000000,0.000000,0.209955,0.317424,0.055811,0.158131,0.000000,158.000000,152.000000,6.000000,17.000000,0.000000,0.000000:
0000
0000
0000
0000
,
0000
0000
0000
0000
,
0000
0000
0000
0000
,
0000
0000
0000
0000
,
0010
0000
0100
0010
,
0000
0010
0100
0000
,
0001
0000
0010
0100
,
0000
0100
0010
0000
,
0001
0000
1000
0100
,
0000
0100
1000
0000
,
0010
0000
1000
0001
,
0000
0001
1000
0000
,
0100
0000
0010
0001
,
0000
0001
0010
0000
,
0001
0000
0000
0000
1000
0000
0000
0010
,
0000
0010
0200
0000
,
0302
0000
0000
0003
,
1000
0000
0010
0000
,
1000
0000
0000
0000
,
0001
0000
0100
0000
,
0010
0000
0000
0000
,
0010
0000
1000
0000
,
0200
0000
0300
0000
,
0000
0000
1000
0000
,
0001
0000
0000
0000
,
0001
0000
0010
0000
,
0100
0000
0000
0000
,
0100
0000
1000
0000
,
0010
0000
0000
0000
,
1000
0000
0001
0000
,
0010
0000
0000
0000
,
2002
0000
0000
3003
0000
0000
0000
0000
,
0010
0000
0000
0000
,
0010
0000
1000
0000
,
0001
0000
0000
0000
,
0001
0000
0010
0000
,
0100
0000
0000
0000
,
1000
0000
0010
0000
,
0200
0000
0300
0000
,
0000
0000
0001
0000
,
0010
0000
0000
0000
,
0001
0000
1000
0000
,
0100
0000
0000
0000
,
0100
0000
0010
0000
,
0001
0000
0000
0000
,
0001
0000
1000
0000
,
0010
0000
0000
0000
,
0220
0000
0000
0330
0000
0000
0000
0000
,
1000
0000
0100
0000
,
1000
0000
0000
0000
,
0001
0000
0100
0000
,
0001
0000
0000
0000
,
0010
0000
0001
0000
,
0100
0000
0010
0000
,
1000
0000
0100
0000
,
0010
0000
0001
0000
,
0100
0000
0001
0000
,
0010
0000
0000
0000
,
0010
0000
0001
0000
,
0100
0000
0000
0000
,
1001
0000
0000
0000
,
0010
0000
0100
0000
,
0010
0000
1000
0000
,
0200
0000
0000
0300
0000
0000
0000
0000
,
1000
0000
0001
0000
,
0100
0010
0100
0000
,
0001
0000
0010
0000
,
0220
0000
0000
0330
0000
0000
0000
0000
,
1000
0000
0000
0000
,
0001
0000
0010
0000
,
0002
0000
0003
0000
,
2000
0000
3010
0000
,
0100
0000
0000
0000
,
0100
0000
0001
0000
,
0010
0000
0000
0000
,
0010
0000
0100
0000
,
2000
0000
3000
0000
,
0001
0000
0100
0000
,
0010
0000
0100
0000
,
0001
0000
0010
0000
,
0200
0000
0000
0000
,
0000
0000
0300
0000
,
1000
0000
0000
0000
,
1000
0000
0001
0000
,
0100
0000
0000
0000
,
0010
0000
0100
0000
,
0001
0000
0000
0000
,
0010
0000
0001
0000
,
1000
0000
0010
0000
,
0100
0000
0001
0000
,
0010
0000
0100
0000
,
1000
0000
0001
0000
,
1001
0000
0000
0000
,
0100
0000
0010
0000
,
1000
0000
0000
0000
,
0001
0000
0010
0000
,
0220
0000
0000
0000
,
0000
0000
0330
0000
;

//---------------dance-single - ----------------
#NOTES:
     dance-single:
     :
     Medium:
     10:
     0.370743,0.463928,0.111622,0.269752,0.000000,279.000000,267.000000,12.000000,29.000000,0.000000,0.000000,0.370743,0.463928,0.111622,0.269752,0.000000,279.000000,267.000000,12.000000,29.000000,0.000000,0.000000:
0000
0000
0000
0000
,
0000
0000
0000
0000
,
0000
0000
0000
0000
,
0000
0000
0000
0000
,
1000
0100
0010
0100
,
0000
0100
1000
0010
,
0100
0001
0010
0001
,
0000
0001
2002
3003
,
1000
0010
0100
0010
,
0000
0010
1000
0001
,
0010
0001
0100
0001
,
0000
0001
0010
0100
,
1000
0100
0010
0100
,
0000
0100
1000
0010
,
0100
0000
0010
0000
0100
0000
0001
1000
,
0000
0001
1001
0000
,
0220
0000
0000
0000
0000
0330
0000
0000
,
0000
1000
0100
0010
,
0100
0000
0000
1000
0000
0000
0001
0000
,
0000
0100
0010
0100
,
0002
0000
0000
1003
,
0000
0010
1000
0100
,
0000
0220
0000
0330
,
0000
0001
0010
0100
,
1000
0000
0010
1000
,
0000
0100
0010
0001
,
1000
0000
0010
0100
,
0000
0001
0010
0100
,
1000
0000
0010
1000
,
0000
0100
1000
0010
,
0100
0000
0001
0010
,
0001
0000
1001
0000
,
0200
0000
0300
0000
,
0000
0010
0100
0010
,
1000
0000
0000
0100
0000
0000
0010
0000
,
0000
0001
0100
0010
,
0100
0000
0001
0010
,
0000
0001
1000
0100
,
2000
0000
0000
3000
,
0000
0010
0100
0010
,
1000
0000
0001
0010
,
0000
0001
0100
0010
,
1000
0000
0100
0010
,
0000
0001
1000
0001
,
0200
0000
0310
0100
,
0000
0001
0010
0001
,
1000
0000
0010
0100
,
0220
0000
0330
0000
,
1000
0000
0100
0000
1000
0000
0000
0100
,
0000
1000
0000
0100
2000
0000
0000
0000
,
3001
0000
0100
0000
0001
0000
0000
0100
,
0000
0001
0000
0100
0002
0000
0000
0000
,
1003
0000
0000
0010
0000
0000
1000
0000
,
0001
0000
0000
0100
0000
0000
0001
0000
,
0010
0000
0000
0100
0000
0000
1000
0000
,
0000
1000
0010
0100
,
0001
0000
0010
0000
0001
0000
0000
1000
,
0000
0010
0000
1000
0002
0000
0000
0000
,
1003
0000
0100
0000
1000
0000
0000
0001
,
0000
0100
0000
0001
1000
0000
0000
0000
,
0220
0000
0330
0000
,
1000
0100
0010
0001
,
0100
0000
0010
0100
,
0010
0000
1001
0000
,
0100
0001
1000
0010
,
1000
0100
0010
0001
,
0100
0000
0010
0000
1000
0000
0100
1000
,
0000
0000
0001
0000
,
0202
0000
0303
0010
,
0100
0000
0000
0001
0000
0000
1000
0000
,
0100
0010
0001
0000
,
1000
0010
0100
0001
,
2000
0000
3001
0010
,
0100
0000
0000
1000
0000
0000
0001
0000
,
0100
0000
0000
0010
0000
0000
0100
0000
,
0001
1000
0100
0010
,
0002
0000
0000
0003
,
0000
0100
0010
0100
,
0001
0000
0001
1000
,
0010
0000
0000
0100
0000
0000
0010
0000
,
2000
0000
0000
0002
0000
0000
0000
0000
,
3003
0000
0100
0000
,
0010
0100
0010
1000
,
0000
1000
0001
0000
,
0010
0001
0100
0010
,
0000
0010
0100
0000
,
0001
0010
0100
1000
,
0000
1000
0001
0000
,
1010
0000
0010
0100
,
0000
0100
0001
0010
,
0001
0000
0010
0100
,
0000
0100
1000
0000
,
0202
0000
0303
0010
,
0200
0000
0000
0301
,
0020
0000
0000
0031
,
1000
0100
0010
0001
,
0000
2002
0000
0000
,
0000
0000
0000
0000
,
0000
0000
0000
0000
,
0000
0000
0000
3003
;

//---------------dance-single - ----------------
#NOTES:
     dance-single:
     :
     Hard:
     13:
     0.726870,0.788677,0.251149,0.195338,0.000000,547.000000,520.000000,27.000000,21.000000,0.000000,0.000000,0.726870,0.788677,0.251149,0.195338,0.000000,547.000000,520.000000,27.000000,21.000000,0.000000,0.000000:
// measure 0
0000
0000
0000
0000
,  // measure 1
0000
0000
0000
0000
,  // measure 2
0000
0000
0000
0000
,  // measure 3
0000
0000
0000
0000
,  // measure 4
0010
1000
0100
0000
1000
0100
0010
0001
,  // measure 5
0000
0001
0100
0000
0010
1000
0001
0000
,  // measure 6
0010
0001
0100
0000
0001
0010
0100
1000
,  // measure 7
0000
1000
0010
0000
0110
0000
1000
0000
,  // measure 8
0001
1000
0100
0000
1000
0001
0100
0010
,  // measure 9
0000
0010
0100
0000
0001
0000
0010
0001
,  // measure 10
0100
0010
1000
0010
0100
0001
0010
0100
,  // measure 11
0000
0100
0010
0000
0001
1000
0010
0000
,  // measure 12
0110
0000
1000
0000
0010
0100
0001
0010
,  // measure 13
0000
0010
0100
0000
1000
0010
0100
0000
,  // measure 14
0010
1000
0100
0010
0001
0100
0010
1000
,  // measure 15
0000
0001
0010
0100
1000
0001
0100
0000
,  // measure 16
1001
0000
0010
0000
0100
0000
0010
1000
,  // measure 17
0000
1000
0100
0000
0010
0001
0100
0000
,  // measure 18
0001
0000
0010
0100
0000
0100
1000
0000
,  // measure 19
0010
0100
0010
0000
1000
0001
0100
0001
,  // measure 20
1000
0000
0010
0000
1000
0100
0010
0001
,  // measure 21
0000
0001
0100
0000
0010
1000
0001
0000
,  // measure 22
0010
0000
0001
0000
1000
0010
0100
0010
,  // measure 23
0000
0010
1000
0100
0010
0000
0210
0000
,  // measure 24
1300
0000
0010
0000
0100
0001
0010
0001
,  // measure 25
0000
0001
0100
0000
0010
1000
0001
0000
,  // measure 26
0020
0000
0130
0000
0020
0000
0031
0100
,  // measure 27
0000
0100
0001
0000
1000
0010
0100
0000
,  // measure 28
0001
0000
1000
0000
0100
1000
0010
1000
,  // measure 29
0000
1000
0100
0000
0010
0001
1000
0000
,  // measure 30
0010
0100
0010
0000
1000
0100
1000
0001
,  // measure 31
0000
0001
0010
0000
0001
0100
1000
0100
,  // measure 32
0020
0000
1030
0000
0001
0000
0100
0001
,  // measure 33
0000
0001
0010
0000
0100
1000
0001
0000
,  // measure 34
0200
0000
0310
0100
0000
0010
1000
0001
,  // measure 35
0000
0010
0100
0000
0100
1000
0001
0000
,  // measure 36
0100
0010
0100
0000
0001
0000
0010
0100
,  // measure 37
0000
0100
0010
0000
0001
0000
1000
0000
,  // measure 38
0010
0100
0010
0000
1000
0000
0001
0010
,  // measure 39
0000
0010
0001
1000
0010
0000
0210
0000
,  // measure 40
0301
0010
0001
0000
1000
0010
0100
0010
,  // measure 41
0000
0010
1000
0000
0100
0010
0001
0000
,  // measure 42
0200
0000
0301
0000
2000
0000
3010
0100
,  // measure 43
0000
0100
0001
0000
0010
0100
1000
0000
,  // measure 44
0010
0100
0010
0000
1000
0000
0001
0100
,  // measure 45
0000
0010
1000
0000
0100
0010
0100
0000
,  // measure 46
1000
0010
1000
0000
0001
0100
0010
0100
,  // measure 47
0001
0010
1000
0020
0000
0031
1000
0000
,  // measure 48
1001
0000
0010
0000
0110
0000
0100
0001
,  // measure 49
0000
0011
0000
1000
0010
0000
1100
0000
,  // measure 50
1000
0010
0100
0000
0110
0000
0100
0001
,  // measure 51
0000
1001
0000
1000
0010
0100
0001
0000
,  // measure 52
0020
0000
0031
0200
0000
0310
1000
0000
,  // measure 53
1200
0000
0310
0200
0000
1300
0010
0000
,  // measure 54
0100
0001
0100
0010
0000
1000
0100
0000
,  // measure 55
1000
0001
0010
0000
0001
0100
0010
1000
,  // measure 56
0010
0000
0110
0000
1001
0000
1000
0010
,  // measure 57
0000
1100
0000
0001
0100
0000
0110
0000
,  // measure 58
1000
0000
0011
0000
1001
0000
1000
0100
,  // measure 59
0000
0100
0010
0000
0001
0100
0010
0000
,  // measure 60
1001
0000
1000
0010
1000
0000
0001
0100
,  // measure 61
0001
0000
0010
0001
0010
0000
0100
1000
,  // measure 62
0100
1000
0010
0100
0001
0010
0100
1000
,  // measure 63
0001
0100
0001
1000
0100
1000
0002
0000
,  // measure 64
0103
0000
0110
0000
0010
1000
0100
1000
,  // measure 65
0000
0001
0100
0000
0010
0100
0001
0000
,  // measure 66
0010
0001
0100
0000
0001
0010
0100
2000
,  // measure 67
0000
3001
0100
0000
0010
1000
0001
0000
,  // measure 68
1010
0000
0100
0010
0100
0000
0001
0010
,  // measure 69
0001
0000
1000
0100
1000
0010
0100
0000
,  // measure 70
0001
0010
0100
1000
0000
1000
0010
0100
,  // measure 71
0000
0100
0010
1000
0001
0010
0100
0000
,  // measure 72
1100
0000
0001
0000
1000
0000
0010
0100
,  // measure 73
0010
0000
1000
0100
0010
0000
0100
1000
,  // measure 74
0001
0000
0100
0010
1000
0000
0001
0100
,  // measure 75
0010
0000
1000
0001
0010
0000
0001
1000
,  // measure 76
0020
0100
0000
0130
,  // measure 77
0000
0001
0100
0010
,  // measure 78
1000
0001
0100
0000
0001
1000
0010
0100
,  // measure 79
0001
0010
0100
1000
0010
0100
0001
1000
,  // measure 80
0100
0000
0010
0000
0100
0000
1000
0010
,  // measure 81
0000
0010
0100
0000
0001
1000
0010
0000
,  // measure 82
1000
0000
0100
0000
0010
0000
0001
1000
,  // measure 83
0000
1000
0010
0000
0100
0001
1000
0000
,  // measure 84
0001
0010
0100
0000
0010
0001
1000
0010
,  // measure 85
1000
0000
0000
0110
0000
0000
0001
0000
,  // measure 86
0010
0001
0100
0000
0010
1000
0001
0000
,  // measure 87
1000
0100
0010
0001
0200
0000
0300
0000
,  // measure 88
1001
0000
0010
0000
0100
0000
0010
1000
,  // measure 89
0100
1000
0010
0000
0100
0010
0100
0000
,  // measure 90
0001
0010
0001
0000
0100
0001
0010
0001
,  // measure 91
0100
1001
0010
1001
,  // measure 92
0200
0000
0000
0000
0310
1000
0100
1000
,  // measure 93
0002
0000
0000
0000
0013
0100
1000
0010
,  // measure 94
0100
0001
0100
0010
1000
0010
0100
0001
,  // measure 95
0010
0100
1000
0001
0100
0010
1000
0000
,  // measure 96
0000
2002
0000
0000
,  // measure 97
0000
0000
0000
0000
,  // measure 98
0000
0000
0000
0000
,  // measure 99
0000
0000
0000
3003
;
