#TITLE:即席!脳直★ミュージックシステム;
#SUBTITLE:;
#ARTIST:MOSAIC.WAV;
#TITLETRANSLIT:Sokuseki! Nouchoku music system;
#SUBTITLETRANSLIT:;
#ARTISTTRANSLIT:;
#GENRE:AKIBA-POP;
#CREDIT:;
#BANNER:Sokuseki!_Nouchoku_music_system_banner.png;
#BACKGROUND:Sokuseki!_Nouchoku_music_system.png;
#LYRICSPATH:;
#CDTITLE:;
#MUSIC:Sokuseki! Nouchoku music system.ogg;
#OFFSET:-1.150000;
#SAMPLESTART:65.410004;
#SAMPLELENGTH:18.000000;
#LASTBEATHINT:375.500031;
#SELECTABLE:YES;
#BPMS:0.000000=197.000000
,203.000000=49.250000
,204.000000=197.000000
;
#STOPS:372.333344=1.218000
;
#BGCHANGES:;
#KEYSOUNDS:;
#ATTACKS:;

//---------------dance-single - ----------------
#NOTES:
     dance-single:
     :
     Easy:
     7:
     0.322527,0.348190,0.066159,0.132319,0.008270,273.000000,265.000000,8.000000,16.000000,0.000000,0.000000,0.322527,0.348190,0.066159,0.132319,0.008270,273.000000,265.000000,8.000000,16.000000,0.000000,0.000000:
0000
0000
0000
0000
,
0000
0000
0000
0000
,
0000
0000
0000
0000
,
0000
0000
0000
0000
,
0010
0100
0010
0000
,
1000
0001
1000
0000
,
0001
0010
0100
1000
,
2002
0000
3003
0000
,
0010
0001
0100
0001
,
1000
0010
1000
0000
,
0010
0100
1000
0100
,
0010
1000
0100
0000
,
0010
0001
0100
0001
,
1000
0100
1000
0000
,
0001
0000
0000
0000
0010
0000
0000
0001
,
0000
0000
0000
1000
0000
0000
0000
0010
,
0000
0000
0000
1000
0000
0000
0100
0000
,
0000
1000
0000
0001
,
0000
0000
0000
0010
0000
0010
0000
0000
,
0000
0001
0000
0000
0000
0000
1000
0000
,
0010
0100
0010
1000
,
0100
0000
0010
0000
0001
0000
0000
0001
,
0000
0000
0001
0000
0000
0001
0000
0000
,
0001
0000
0000
0001
0000
0000
0010
0000
,
0001
0100
0010
1000
,
0010
0000
0100
0000
0010
0000
0000
1000
,
0000
0000
1000
0000
0000
1000
0000
0000
,
1000
0000
0000
1000
0000
0000
0100
0000
,
1000
0010
1000
0001
,
0010
0000
0100
0000
1000
0000
0000
0010
,
0000
0000
0010
0000
0000
0010
0000
0000
,
0010
0000
0000
0010
0000
0000
0100
0000
,
0001
0100
0010
0100
,
0001
1000
0100
1000
,
0000
1001
0000
0010
,
0000
1001
0000
0010
,
0001
0100
0001
0010
,
0000
0100
0000
1000
,
0010
1000
0000
0001
,
0100
0001
0010
0100
,
1000
0001
2002
0000
,
3003
0100
0100
0100
,
0000
0010
0100
0010
,
1000
0000
0100
0000
0000
0010
0000
0000
,
0001
0000
0000
1000
0000
0000
0001
0000
,
1000
0000
0020
0000
0000
1030
0000
0020
,
0000
1030
1010
0100
,
0000
0001
0000
0000
0001
0000
0010
0000
,
0000
0001
0000
0000
0100
0000
0002
0000
,
0000
0203
0000
0320
,
0000
2030
0000
3001
,
0200
0000
0000
0300
,
0001
0010
0001
1000
,
0010
1000
0001
0100
,
0010
0000
0010
1000
,
0100
0000
1000
0001
,
0100
0010
1000
0001
,
0010
0100
1000
0000
,
0010
0220
0000
0330
,
1000
0001
0100
0010
,
1000
0100
0010
0100
,
1000
0001
0010
0100
,
1000
0000
0001
0000
,
0010
0000
0001
0100
,
0010
0100
0001
1000
,
0010
0100
0001
0000
,
1000
2002
0000
0000
,
3003
0000
0010
0100
,
0010
0000
1000
0100
,
1000
0000
0001
0010
,
0001
0000
1000
0010
,
0001
0000
0001
0010
,
1000
0001
0100
0001
,
1000
0000
0000
0000
0100
0000
0000
0010
,
0000
0000
0000
0000
0010
0000
0000
0100
,
0000
0000
0010
0000
,
0001
0100
1000
0100
,
0001
0010
0100
0000
,
1000
0100
0001
0100
,
1000
0010
0100
0000
,
0010
0001
0100
1000
,
0010
0001
0100
0000
,
0100
1000
0010
0001
,
0100
1000
0010
0000
,
0110
0000
1000
0000
,
0001
0010
0001
1000
,
0000
0010
0000
1000
,
0100
1000
0010
0000
,
0010
0000
0100
0010
,
1000
0000
0001
0000
,
0001
0000
0010
0000
,
0100
0000
0000
2000
0000
0000
0000
0000
,
0000
0000
0000
0000
,
3000
0000
0000
0000
0000
0000
0000
0001
0000
1000
0000
0000
0000
0000
0000
0000
;

//---------------dance-single - ----------------
#NOTES:
     dance-single:
     :
     Medium:
     12:
     0.534001,0.541629,0.281178,0.140589,0.033080,452.000000,418.000000,34.000000,17.000000,0.000000,0.000000,0.534001,0.541629,0.281178,0.140589,0.033080,452.000000,418.000000,34.000000,17.000000,0.000000,0.000000:
0000
0000
0000
0000
,
0000
0000
0000
0000
,
0000
0000
0000
0000
,
0000
0000
0000
0000
,
0110
0000
0001
0000
0010
0001
0000
1000
,
0000
0010
1000
0000
0100
1000
0000
0000
,
1001
0000
1000
0010
0000
0100
0000
0001
,
0010
0001
0100
1000
,
0100
0001
0100
0000
0010
1000
0010
0100
,
0000
0010
0000
0100
1000
0000
1001
0000
,
0010
0001
0010
0000
0100
1000
0001
0100
,
0000
0010
0000
0001
1000
0000
1001
0000
,
0100
1000
0100
0000
0010
0001
1000
0010
,
0000
0100
0000
0001
1000
0000
1001
0000
,
0110
0000
0000
0000
1010
0000
0000
0011
,
0000
0000
0000
0101
0000
0010
0000
1010
,
0000
0000
0000
1100
0000
0000
1010
0000
,
0000
0100
0101
2002
,
3003
0000
0000
0010
0000
0100
0000
0000
,
0000
0220
0000
0000
0330
0000
0000
0001
,
0010
0100
0010
0000
0001
1000
0000
0010
,
0000
0100
0000
0001
0000
1000
0000
0010
,
0010
0000
0010
0010
0000
0010
0010
0000
,
0010
0010
0000
0010
0010
0000
0000
0100
,
0010
1000
0100
0000
1000
0001
0000
0100
,
0000
0010
0000
1000
0001
0010
0000
0100
,
0100
0000
0100
0100
0000
0100
0100
0000
,
0100
0100
0000
0100
0100
0000
0000
0010
,
0001
1000
0010
0100
0010
1000
0000
0001
,
0000
0100
0000
0010
0000
1000
0000
0001
,
0001
0000
0001
0001
0000
0001
0001
0000
,
0001
0001
0000
0001
0001
0000
0000
1000
,
0001
0010
0100
0000
1000
0010
0000
0100
,
0000
0001
0000
0010
0000
0100
1000
0000
,
0000
0010
0100
0000
0000
0001
0010
0000
,
0000
0001
1000
0000
1001
0000
0100
0000
,
0010
1000
1010
0100
,
0001
0020
0000
0031
,
1000
0001
0010
0001
,
0100
0010
1000
0100
,
1000
0000
0001
0010
0200
0000
0000
0000
,
1300
0010
0110
2002
,
3003
0000
0100
0010
1000
0000
0001
0000
,
0010
0001
1000
0000
0000
0110
0000
0000
,
0001
0000
0000
0110
0000
0000
1000
0000
,
0001
0000
0011
0000
0000
1000
0000
1100
,
0000
0000
0010
0000
0110
0000
1000
0100
,
1000
0010
0000
0100
0000
0001
0010
0001
,
0100
0001
0000
0010
0000
0210
0000
0000
,
0000
2300
0000
3002
,
0000
0000
0203
0000
0000
0000
0310
0010
,
1000
0001
0010
0100
,
1000
0010
1000
0000
0001
0000
0010
0000
,
0001
0000
0100
0010
0100
0000
0001
0000
,
0010
0000
0001
0000
1000
0010
1000
0010
,
0000
0110
0001
0010
,
0001
1000
0001
0000
1000
0010
1000
0000
,
0001
0010
0001
0000
1000
0100
1000
0000
,
0010
0220
0000
0330
,
0010
0001
0100
1000
,
0010
1000
0010
0000
0100
0001
0100
0000
,
0001
0010
0001
0000
1000
0100
1000
0000
,
0010
0000
0100
0000
0001
0010
0100
1000
,
0000
1010
0100
0001
,
0010
0100
1000
0000
0001
1000
0010
0000
,
0100
0001
1000
0000
0100
0010
0001
0000
,
1000
0001
0010
0002
0000
0100
0103
0000
,
0010
1000
0010
0000
1000
0000
1100
0000
,
0010
0000
0001
1000
0001
0100
0010
0200
,
0000
0010
0310
0000
1000
0001
0010
0000
,
0001
0010
0100
0000
1000
0001
0100
0020
,
0000
0130
0000
0001
0000
0011
0000
0000
,
1000
0001
0010
0100
1000
0001
0100
0010
,
0000
0010
1000
0000
0001
0000
1000
0100
,
0000
0000
0000
0000
0011
0000
0000
0000
1000
0000
0000
0001
0000
0000
0010
0000
,
0000
0010
0000
0001
1000
0000
1001
0000
,
0010
0100
0001
0000
0010
0100
1000
0001
,
0000
0001
1000
0010
0100
0000
0001
0000
,
0010
0001
1000
0000
0010
1000
0001
0100
,
0000
0100
0001
1000
0100
0000
0110
0000
,
0001
1000
0010
0000
0010
1000
0001
0100
,
0000
0100
0001
0010
0100
0000
1000
0000
,
0010
1000
0100
0000
0010
0001
0100
0001
,
0000
1000
0001
0010
0100
0000
1000
0000
,
1001
0000
0000
0000
0001
1000
0001
0000
,
0000
0000
1000
0010
1000
0010
1000
0000
,
0000
0000
0001
0010
0001
0000
0000
0000
,
0100
0010
1000
0010
0100
0000
0000
0000
,
0010
1000
0001
0000
0000
0100
0000
0010
,
0000
1000
0000
0000
0000
0001
0010
0001
,
0000
0000
1000
0000
0001
0000
0000
0100
,
0000
0000
0000
0000
0000
0000
0010
0000
0000
0000
0100
0000
0000
0010
0000
0000
,
0100
0000
0000
0000
0000
0000
0000
0000
0000
0010
0000
0000
0000
0000
0000
0000
0000
0000
0000
0000
1000
0000
0000
0000
0000
0000
0000
0000
0000
0000
0000
0000
0001
0000
0000
0000
0000
0000
0000
0000
0000
0000
0000
0000
0010
0000
0000
0000
,
0000
0000
0000
0000
0000
0000
0000
0001
0000
1000
0000
0000
0000
0000
0000
0000
;

//---------------dance-single - ----------------
#NOTES:
     dance-single:
     :
     Hard:
     16:
     0.874250,0.928506,0.504466,0.124049,0.475521,740.000000,679.000000,61.000000,15.000000,0.000000,0.000000,0.874250,0.928506,0.504466,0.124049,0.475521,740.000000,679.000000,61.000000,15.000000,0.000000,0.000000:
// measure 0
0000
0000
0000
0000
,  // measure 1
0000
0000
0000
0000
,  // measure 2
0000
0000
0000
0000
,  // measure 3
0000
0000
0000
0000
,  // measure 4
0001
0000
0101
0000
1000
0010
0000
0101
,  // measure 5
0000
0010
0100
1000
0001
1000
0000
0010
,  // measure 6
0100
0000
0100
0010
0000
1000
0010
0100
,  // measure 7
0110
1001
0110
1001
,  // measure 8
0010
0001
0100
1000
0010
0001
0100
1000
,  // measure 9
0000
1000
0010
0001
0010
0000
0110
0000
,  // measure 10
0100
1000
0010
0001
0100
1000
0010
0001
,  // measure 11
0000
0001
0010
1000
0010
0000
1001
0000
,  // measure 12
0010
0001
0010
1000
0010
0001
0010
1000
,  // measure 13
0000
1000
0010
0001
0010
0000
0110
0000
,  // measure 14
1100
0000
0001
0001
0011
0100
0100
0110
,  // measure 15
0000
0010
1000
1010
0010
0101
0001
0011
,  // measure 16
0000
1000
1000
1001
0010
0100
0110
0100
,  // measure 17
0001
0010
0011
0001
0101
0100
2020
0000
,  // measure 18
3030
0000
0000
1001
0000
0110
0000
0000
,  // measure 19
0000
2002
0000
0000
3003
0000
0100
1000
,  // measure 20
0010
0100
0001
0010
1000
0010
0001
1000
,  // measure 21
0010
0000
0001
0000
0010
0000
1000
0000
0001
0000
0100
0000
0010
1000
0010
1000
,  // measure 22
0010
0000
0000
0000
0100
0001
0100
0000
0000
0000
0001
0010
0001
0000
0000
0000
,  // measure 23
1000
0010
1000
0000
0000
0000
0001
0100
0001
0000
0000
0000
1000
0000
0010
0000
,  // measure 24
0001
0010
1000
0001
0010
0100
1000
0001
,  // measure 25
1000
0000
0010
0000
0001
0000
0010
0000
0100
0000
0001
0000
0010
0001
0010
0001
,  // measure 26
0010
0000
0000
0000
0100
1000
0100
0000
0000
0000
0100
0001
0100
0000
0000
0000
,  // measure 27
0010
0100
0010
0000
0000
0000
0001
0010
0001
0000
0000
0000
0001
0000
0100
0000
,  // measure 28
1000
0100
0010
1000
0100
0001
0100
1000
,  // measure 29
0010
0000
0100
0000
0001
0000
1000
0000
0001
0000
0010
0000
0100
1000
0100
1000
,  // measure 30
0100
0000
0000
0000
0010
0001
0010
0000
0000
0000
0100
0010
0100
0000
0000
0000
,  // measure 31
1000
0010
1000
0000
0000
0000
0001
0100
0001
0000
0000
0000
1000
0000
0010
0000
,  // measure 32
0001
0010
1000
0001
0010
0100
1000
0010
,  // measure 33
0100
0000
0001
0000
0010
0000
0001
0000
1000
0000
0100
0010
0100
0000
1000
0000
,  // measure 34
0001
0000
0010
0100
0010
0000
0001
0000
1000
0000
0001
0010
0001
0000
0100
0000
,  // measure 35
0010
0000
1000
0100
1000
0000
0000
0000
0110
0000
0000
0000
0001
0000
0100
0000
,  // measure 36
1000
0000
1000
0100
0001
0010
0001
0010
,  // measure 37
1000
0000
1000
0010
0001
1000
0001
0100
,  // measure 38
1000
0000
0100
0000
0010
0100
0010
0100
0020
0000
0000
0000
1030
0000
0000
0000
,  // measure 39
1100
0000
0001
1000
0010
0100
0001
0010
,  // measure 40
0001
0000
0000
0000
0000
0000
1000
0000
0000
0000
0000
0000
0010
0000
0000
0000
0100
0000
0000
0000
0001
0000
0000
0000
0010
0000
0000
0000
0000
0000
0000
0000
0000
0000
0000
0000
0001
0000
0000
0010
0000
0000
0100
0000
0000
1000
0000
0000
,  // measure 41
0001
0000
1010
0000
0101
0000
0100
0010
,  // measure 42
1000
0100
1000
0001
0010
0100
1000
0010
,  // measure 43
0100
0001
0100
0000
0010
0000
1000
0000
1000
0000
0100
0000
0010
0000
0010
0000
,  // measure 44
0001
0100
0100
0010
1000
1000
0001
0000
,  // measure 45
0110
0000
0011
0000
0100
1100
0000
1001
,  // measure 46
0000
0010
0110
0000
1001
0000
0010
0100
,  // measure 47
1000
1001
0000
0010
0000
0010
0100
0001
,  // measure 48
1000
1001
0000
1010
0000
0001
0020
0001
,  // measure 49
0001
0031
2000
0100
0100
3100
0020
0100
,  // measure 50
0100
0130
1000
0001
1001
0000
0110
1001
,  // measure 51
0010
0001
0100
0010
1000
0100
0001
0100
1000
0010
0001
0010
,  // measure 52
0100
0001
0100
0000
0010
0000
1000
0000
0100
0000
1000
0000
0010
0000
0100
0000
,  // measure 53
0001
0010
0100
1000
0010
1000
0001
0001
,  // measure 54
0010
0100
1000
0000
0010
0000
0100
0000
0001
1000
0001
0000
0010
0000
0001
0000
,  // measure 55
0000
0000
0001
1000
0001
0000
0100
0000
0010
0000
1000
0000
0002
0000
0000
0000
,  // measure 56
0013
0100
1000
0100
0010
0100
1000
0001
,  // measure 57
0100
0000
0010
0000
0100
0000
0001
0000
0010
0001
1000
0000
0010
0000
0100
0000
,  // measure 58
0001
1000
0100
0010
0000
0010
0100
1000
,  // measure 59
0001
0010
1000
0001
0100
1000
0010
0001
1000
0100
0001
1000
,  // measure 60
0001
1000
0100
0000
1000
0000
0001
0000
0010
0000
0100
0000
1000
0000
0010
0000
,  // measure 61
1000
0001
0010
0000
0001
0000
1000
0000
0010
0000
0100
0010
0200
0000
0000
0000
,  // measure 62
0301
0000
0000
0000
0010
0000
0010
0000
0001
1000
0001
1000
0001
0000
0100
0000
,  // measure 63
0000
0000
0100
0010
0100
0000
0010
0000
1000
0000
0100
1000
0001
0000
0000
0000
,  // measure 64
0010
0000
0000
0010
0100
0000
0000
0100
1000
0000
0000
1000
0001
0000
0100
0000
,  // measure 65
0000
0000
0010
0100
0010
0000
1000
0000
0001
0000
0010
0001
1000
0000
0000
0000
,  // measure 66
0010
0000
1000
0100
0010
0000
0001
0000
0000
0000
0001
0010
0001
0000
1000
0010
,  // measure 67
1000
0000
0010
0000
0110
0000
0000
0000
0100
0001
0100
0001
0100
0000
0000
0000
,  // measure 68
0010
0000
0000
0010
1000
0000
0100
1000
0100
0000
1000
0000
0010
0000
0100
0000
,  // measure 69
0000
0000
0100
0010
0100
0000
0001
0000
0010
0001
0100
0010
1000
0000
0000
0000
,  // measure 70
0100
0000
1000
0010
0100
0000
0010
0100
0001
0000
0010
0000
0100
0000
1100
0000
,  // measure 71
0000
0101
0000
0011
0000
1010
0000
0010
,  // measure 72
0001
0100
1000
0100
0001
0010
0100
2000
,  // measure 73
0000
0001
3001
0000
0110
0000
1000
2002
,  // measure 74
0000
0000
0000
0000
3003
0000
0000
0000
0011
0000
0000
0110
0000
0000
1100
0000
,  // measure 75
0000
1001
0000
0010
0220
0000
0330
0000
,  // measure 76
0100
1000
0010
0001
0100
1000
0010
0001
,  // measure 77
0000
0000
0001
0000
1000
0000
0010
0100
0010
0000
1000
0001
1000
0000
0000
0000
,  // measure 78
0010
0001
0100
1000
0010
0001
0100
1000
,  // measure 79
0000
0000
1000
0000
0001
0000
0010
0100
1000
0000
0001
0000
1001
0000
0000
0000
,  // measure 80
0100
0000
1000
0000
0100
0000
0001
0000
0100
0000
1000
0000
0100
0001
0010
0000
,  // measure 81
0000
0000
0010
0000
0001
0000
1000
0100
1000
0000
0010
0000
0110
0000
0000
0000
,  // measure 82
0001
0000
0000
0001
0100
0000
0000
0100
1000
0000
0000
1000
0010
0000
0100
0000
,  // measure 83
0000
0000
0100
0000
0010
0100
0001
1000
0010
0000
1000
0000
1001
0000
0000
0000
,  // measure 84
0011
0000
0000
0000
0000
0000
1000
0000
0000
0010
0000
0000
0100
0000
0001
0000
1000
0000
0100
0000
0000
0000
0000
0000
,  // measure 85
1000
0000
0000
0010
0000
0000
1000
0000
0001
0000
0100
0000
0010
0000
1000
0000
0001
0000
0010
0000
0000
0000
0000
0000
,  // measure 86
0001
0000
0000
0010
0000
0000
0100
0000
1000
0000
0001
0000
0100
0000
0000
0000
0000
0000
0001
0000
0000
1000
0000
0000
,  // measure 87
0010
0000
0100
0000
1000
0000
0100
0000
0010
0000
0001
0000
0010
0000
0000
0000
0000
0000
1000
0000
0000
0100
0000
0000
,  // measure 88
0001
0000
0100
0000
1000
0000
0001
0000
0000
0010
0000
0000
0010
0000
0000
1000
0010
0000
0001
0000
1000
0000
0001
0000
,  // measure 89
0010
0100
0100
1000
0010
0100
0001
0011
,  // measure 90
1000
0000
0000
1000
0000
0000
0010
0000
0000
0100
0000
0000
0110
0000
0000
0010
0000
0000
1000
0000
0000
0100
0010
0000
,  // measure 91
0001
0000
0000
0010
0000
0000
0000
0000
0000
0001
1000
0000
0010
0000
0000
0100
0000
0000
0000
0000
0011
0000
0000
0000
,  // measure 92
1100
0000
0100
1000
0100
0010
0001
0100
1000
0100
0010
0100
,  // measure 93
0001
0000
0000
0000
1000
0000
0000
0000
0000
0000
0000
0000
0000
0000
0000
0000
0000
0000
0000
0000
0000
0011
0000
0000
0000
0000
0000
1001
0000
0000
0000
0000
0000
0000
0000
0000
0000
0000
0000
0000
0000
0000
0000
0000
0000
0000
0000
0000
;
