#TITLE:Snake Stick;
#SUBTITLE:;
#ARTIST:DJ Yoshitaka VS. DJ Mass MAD Izm*;
#TITLETRANSLIT:;
#SUBTITLETRANSLIT:;
#ARTISTTRANSLIT:;
#GENRE:TECH-BREAKBEATS;
#CREDIT:;
#BANNER:Snake_Stick_banner.png;
#BACKGROUND:Snake_Stick.png;
#LYRICSPATH:;
#CDTITLE:;
#MUSIC:Snake Stick.ogg;
#OFFSET:-0.480000;
#SAMPLESTART:13.720000;
#SAMPLELENGTH:15.000000;
#LASTBEATHINT:265.000000;
#SELECTABLE:YES;
#BPMS:0.000000=145.000000
;
#STOPS:
;
#BGCHANGES:;
#KEYSOUNDS:;
#ATTACKS:;

//---------------dance-single - ----------------
#NOTES:
     dance-single:
     :
     Easy:
     6:
     0.281750,0.287983,0.104721,0.244349,0.000000,226.000000,214.000000,12.000000,28.000000,0.000000,0.000000,0.281750,0.287983,0.104721,0.244349,0.000000,226.000000,214.000000,12.000000,28.000000,0.000000,0.000000:
0000
0000
0000
0000
,
0000
0000
0000
0000
,
0000
0000
0000
0000
,
0000
0000
0000
0000
,
1000
0100
0001
0100
,
1000
0100
0001
0000
,
0010
1000
0010
0001
,
2002
0000
0000
0000
0000
3003
0000
0000
,
0001
0100
0010
0100
,
0001
0010
0100
0010
,
0001
0100
0010
0100
,
0001
0010
0220
0330
,
1000
0010
0100
0010
,
1000
0100
0010
0100
,
1000
0010
0100
1000
,
0100
0010
0220
0330
,
0001
0100
1000
0100
,
0001
0100
1000
0100
,
0001
0010
1000
0010
,
0001
0010
2000
3000
,
0010
0001
0100
0010
,
1000
0001
0010
0100
,
1000
0010
0100
0001
,
0010
0100
2002
3003
,
0220
0000
0330
0000
,
1000
0010
1000
0010
,
0100
0010
0100
0010
,
0100
0001
0100
0001
,
0010
0001
0022
0033
,
0100
0001
0100
0001
,
0100
0010
0100
0010
,
1000
0010
1000
0010
,
1000
0100
2200
3300
,
0010
0001
0100
0001
,
0010
0100
1000
0010
,
0100
0010
1000
0100
,
0010
0001
2000
3000
,
0010
1000
0100
1000
,
0001
0010
0100
1000
,
0010
1000
0100
0010
,
0001
1000
2002
3003
,
0100
0100
0000
0000
0000
0000
0000
0000
,
0010
0010
0000
0000
0000
0000
0000
0000
,
1000
1000
0000
0000
0000
0000
0000
0000
,
0001
0001
0000
0000
0000
0000
0000
0000
,
1000
0100
0010
0001
,
1000
0001
0010
0100
,
1000
0001
0100
0010
,
2002
0000
0000
0000
0000
3003
0000
0000
,
0010
0001
0010
1000
,
0010
0001
0020
0030
,
0100
1000
0100
0001
,
0100
1000
0200
0300
,
1000
0001
0010
0001
,
1000
0010
0001
0010
,
1000
0010
0100
0001
,
1000
0001
2002
3003
,
0010
0001
0100
0001
,
0010
0100
1000
0010
,
1000
0001
0100
0010
,
1000
0001
0022
0033
,
0100
0001
1000
0010
,
0100
1000
0100
0001
,
0010
1000
0010
0001
,
1000
0001
0100
0000
,
0220
0000
0000
0000
,
0330
0000
0000
0000
;

//---------------dance-single - ----------------
#NOTES:
     dance-single:
     :
     Medium:
     12:
     0.547293,0.604765,0.122175,0.113448,0.209442,439.000000,425.000000,14.000000,13.000000,0.000000,0.000000,0.547293,0.604765,0.122175,0.113448,0.209442,439.000000,425.000000,14.000000,13.000000,0.000000,0.000000:
0000
0000
0000
0000
,
0000
0000
0000
0000
,
0000
0000
0000
0000
,
0000
0000
0000
0000
,
0001
0000
0100
0000
0010
0000
1000
0000
0100
0000
0000
1000
0000
0000
0001
0000
,
1000
0000
0010
0000
0100
0000
0001
0000
0010
0000
0000
0100
0000
0000
1000
0000
,
0010
0100
0010
1000
0100
0001
0100
1000
,
2002
0000
0000
3003
,
0010
0000
0100
0000
0001
0000
0100
0000
1000
0000
0000
0100
0000
0000
0001
0000
,
0010
0000
0100
0000
1000
0000
0100
0000
0001
0000
0000
0100
0000
0000
1000
0000
,
0010
0000
0100
0000
0001
0000
0100
0000
0010
0000
0000
1000
0000
0000
0100
0000
,
0010
0100
1000
0001
0100
0000
1001
0000
,
0010
0000
1000
0000
0100
0000
0001
0000
0100
0000
0000
1000
0000
0000
0001
0000
,
0100
0000
1000
0000
0100
0000
0001
0000
0010
0000
0000
0100
0000
0000
1000
0000
,
0001
0000
1000
0000
0010
0000
0100
0000
0001
0000
0000
0010
0000
0000
0100
0000
,
1000
0010
0001
0010
1000
0001
0002
0000
,
0013
0000
0100
0000
1000
0000
0010
0000
1000
0000
0000
0010
0000
0000
0100
0000
,
0010
0000
0100
0000
1000
0000
0100
0000
0010
0000
0000
1000
0000
0000
0100
0000
,
0010
0000
0100
0000
1000
0000
0010
0000
0100
0000
0000
0010
0000
0000
1000
0000
,
0100
0010
0001
1000
0001
0000
0101
0000
,
0010
0000
0100
0000
0001
0000
0010
0000
0100
0000
0000
0010
0000
0000
0001
0000
,
0100
0000
0010
0000
0100
0000
0001
0000
0010
0000
0000
0100
0000
0000
0001
0000
,
0100
0000
0010
0000
0001
0000
0100
0000
0010
0000
0000
0100
0000
0000
0001
0000
,
1000
0010
0100
0001
0010
0100
1000
0000
,
0220
0000
0000
0330
,
1000
0000
0100
0000
1000
0010
0000
1000
0010
0000
1000
0010
0000
1000
0010
0000
,
0100
0000
0001
0000
0100
0001
0000
0100
0001
0000
0100
0001
0000
0100
0001
0000
,
0010
0000
0001
0000
0010
0001
0000
0010
0001
0000
0010
0001
0000
0010
0001
0000
,
1000
0000
0010
0000
1000
0010
0000
1000
0010
0000
0000
0000
0110
0000
0000
0000
,
0001
0000
0100
0000
0001
0100
0000
0001
0100
0000
0001
0100
0000
0001
0100
0000
,
0010
0000
1000
0000
0010
1000
0000
0010
1000
0000
0010
1000
0000
0010
1000
0000
,
0100
0000
1000
0000
0100
1000
0000
0100
1000
0000
0100
1000
0000
0100
1000
0000
,
0001
0000
0010
0000
0001
0010
0000
0001
0100
0000
0010
0000
2000
0000
0000
0000
,
3100
0001
0100
0000
1000
0010
1000
0001
,
0010
0001
0100
0000
0001
0100
1000
0100
,
0001
0010
0001
1000
0010
1000
0001
0000
,
1000
0100
1000
0001
0100
0001
0010
0000
,
0100
1000
0001
1000
0100
0010
0100
0000
,
1000
0010
0100
0010
1000
0001
0010
0000
,
0001
0010
1000
0010
0001
1000
0010
0001
,
0010
1000
0001
0100
0010
0010
0010
0000
,
1000
0000
1100
0000
0000
0000
0000
0000
0001
0000
0000
0100
0000
0000
0001
0000
,
0010
0000
0011
0000
0000
0000
0000
0000
0001
0000
0000
1000
0000
0000
0010
0000
,
0100
0000
0110
0000
0000
0000
0000
0000
0001
0000
0000
0010
0000
0000
0100
0000
,
1000
1001
0000
0000
0010
0100
0002
0000
,
0013
0100
1000
0100
0010
0100
1000
0000
,
0001
0100
0010
0100
0001
0100
0010
0000
,
1000
0001
0010
0100
1000
0001
0100
0010
,
0220
0000
0000
0330
,
1000
0010
0100
0001
0010
0100
1000
0000
,
0001
0100
0010
1000
0100
0010
0001
0000
,
0100
0010
1000
0001
1000
0100
0010
0000
,
0001
0010
0100
1000
0001
1000
0020
0000
,
0130
0001
0100
1000
0100
0010
0100
0000
,
0001
0010
1000
0010
0001
0010
0100
0000
,
1000
0010
0001
0010
1000
0001
1000
0000
,
0001
0100
1000
0100
0001
1000
0002
0000
,
0013
0000
0100
0000
1000
0000
0001
0000
1000
0000
0000
0010
0000
0000
0100
0000
,
0001
0000
1000
0000
0100
0000
0010
0000
0001
0000
0000
0100
0000
0000
0010
0000
,
1000
0000
0001
0000
0010
0000
0100
0000
1000
0000
0000
0010
0000
0000
0100
0000
,
0010
1000
0001
0010
0100
0000
1001
0000
,
0100
0010
1000
0010
1000
0100
0010
0001
,
0100
0001
0100
0010
1000
0001
0010
0100
,
0010
0001
0100
0010
1000
0001
0010
0100
,
1000
0010
0100
0001
0010
0100
0110
0000
,
2002
0000
3003
0000
,
0110
0000
0000
0000
;

//---------------dance-single - ----------------
#NOTES:
     dance-single:
     :
     Hard:
     15:
     0.800369,0.777555,0.183262,0.061087,0.903220,642.000000,621.000000,21.000000,7.000000,0.000000,0.000000,0.800369,0.777555,0.183262,0.061087,0.903220,642.000000,621.000000,21.000000,7.000000,0.000000,0.000000:
// measure 0
0000
0000
0000
0000
,  // measure 1
0000
0000
0000
0000
,  // measure 2
0000
0000
0000
0000
,  // measure 3
0000
0000
0000
0000
,  // measure 4
0001
0000
0010
0000
0100
1000
0100
0000
1000
0000
0010
0100
0000
0001
0010
0000
,  // measure 5
0001
0000
1000
0000
0010
0100
0010
0000
1000
0000
0001
0010
0000
0100
1000
0000
,  // measure 6
0010
0000
0100
0000
0001
1000
0001
0000
0010
0000
0001
1000
0000
0100
0010
0001
,  // measure 7
2000
0000
0000
3000
,  // measure 8
0010
0000
0100
0000
0001
0010
0100
0000
1000
0000
0010
0100
0000
0100
0010
0000
,  // measure 9
1000
0000
0100
0000
1000
0010
0100
0000
0010
0000
1000
0100
0000
0100
1000
0001
,  // measure 10
0100
0000
0010
0000
1000
0100
1000
0000
0010
0000
0100
0010
0000
0010
1000
0000
,  // measure 11
0001
0000
0010
0000
0100
1000
0001
1000
0010
0000
0100
0000
0110
0000
0000
0000
,  // measure 12
0100
0000
0010
0000
1000
0100
0010
0000
0001
0000
0100
0010
0000
0010
0100
0000
,  // measure 13
0001
0000
0010
0000
0001
0100
0010
0000
0100
0000
0001
0010
0000
0010
0001
1000
,  // measure 14
0010
0000
0100
0000
0001
0010
0001
0000
0100
0000
0010
0100
0000
0100
0001
0000
,  // measure 15
0010
0000
0100
0000
1000
0001
0010
0001
1000
0000
0010
0000
0110
0000
0000
0000
,  // measure 16
1000
0001
0010
0000
0001
1000
0010
0000
0100
0000
0001
0010
0000
0010
0001
0000
,  // measure 17
1000
0001
0010
0000
0001
1000
0010
0000
0100
0000
0001
0010
0000
0010
0001
0000
,  // measure 18
1000
0001
0100
0000
0001
1000
0100
0000
0010
0000
0100
1000
0000
1000
0001
0000
,  // measure 19
0100
0010
0100
0000
0001
0010
0001
0010
0001
0000
1000
0000
1100
0000
0000
0000
,  // measure 20
0001
1000
0100
0000
1000
0001
0100
0000
0010
0000
1000
0001
0000
0001
0010
0000
,  // measure 21
0001
1000
0010
0000
1000
0001
0010
0000
0100
0000
1000
0001
0000
0001
0010
0000
,  // measure 22
0001
1000
0010
0000
1000
0001
0010
0000
0100
0000
1000
0001
0000
0001
0100
0000
,  // measure 23
0010
0100
1000
0100
0010
0000
1000
0000
0001
0010
0100
0010
0001
0000
1000
0000
,  // measure 24
2002
0000
0000
3003
,  // measure 25
0010
0001
0100
0000
0001
0100
0010
0100
0001
0000
0010
0001
0000
0001
0010
0000
,  // measure 26
0100
1000
0010
0000
1000
0010
0100
0010
1000
0000
0100
0010
0000
0010
0100
0000
,  // measure 27
1000
0001
0010
0000
0001
1000
0010
1000
0001
0000
0100
0010
0000
0010
0100
0000
,  // measure 28
0001
1000
0100
0000
1000
0001
0100
0001
1000
0000
0010
0000
0110
0000
0000
0000
,  // measure 29
0001
1000
0010
0000
1000
0010
0100
0010
1000
0000
0100
1000
0000
1000
0100
0000
,  // measure 30
0010
0001
0100
0000
0001
0100
0010
0100
0001
0000
0010
0100
0000
0100
0010
0000
,  // measure 31
0001
1000
0100
0000
1000
0001
0100
0001
1000
0000
0010
0100
0000
0100
0010
0000
,  // measure 32
1000
0001
0010
0000
0001
1000
0010
1000
0001
0000
0100
0000
0110
0000
0000
0000
,  // measure 33
0001
0010
0001
0000
1000
0000
0010
0000
0100
0000
0001
0000
0010
0000
0100
0000
,  // measure 34
1000
0000
1001
0000
0001
0000
0100
0010
1000
0000
0100
0000
0020
0000
0000
0000
,  // measure 35
0031
0000
0001
0000
1000
0010
1000
0010
1000
0000
0001
0100
0000
0001
0010
0001
,  // measure 36
1000
0000
0100
0000
1000
0001
0010
0001
1000
0000
0100
0000
0110
0000
0000
0000
,  // measure 37
0001
0100
0001
0100
0010
0000
0010
0000
1000
0000
0100
1000
0000
0100
1000
0010
,  // measure 38
0100
0000
0001
0010
0000
0001
1000
0000
0010
0000
0100
0000
0110
0000
0000
0000
,  // measure 39
0001
1000
0100
0000
1000
0010
0100
0000
0001
0000
0100
0001
0000
0010
0001
0000
,  // measure 40
1000
0100
1000
0100
1000
0000
0001
0000
0011
0000
1001
0000
1100
0000
0000
0000
,  // measure 41
0110
0000
0010
0000
1000
0010
0100
0001
0010
0000
0001
0100
0000
0010
1000
0000
,  // measure 42
0100
0000
1100
0000
1000
0001
0100
0010
1000
0000
0010
0100
0000
0001
0010
0000
,  // measure 43
0001
0000
0101
0000
0010
0100
0010
0100
0001
0000
0010
0100
0000
1000
0001
0000
,  // measure 44
1000
0000
1010
0000
0010
0100
0010
0100
0001
0000
0010
0100
2000
0000
0000
0000
,  // measure 45
3010
0100
0001
0000
0010
0100
0000
1000
0001
0000
1000
0010
0000
0100
0001
0000
,  // measure 46
0010
0001
1000
0000
0100
1000
0000
0010
0100
0000
0001
0010
0000
0001
1000
0000
,  // measure 47
0010
1000
0010
1000
0010
0000
0100
0000
0001
0010
0001
0010
0001
1000
0010
1000
,  // measure 48
0020
0000
0030
0110
,  // measure 49
1000
0000
0100
0000
1000
0010
0000
1000
0100
0000
1000
0010
0000
1000
0100
0000
,  // measure 50
0010
0000
0001
0000
0100
0001
0000
0010
0001
0000
0100
0001
0000
0010
0001
0000
,  // measure 51
1000
0000
0001
0000
0010
0100
0000
1000
0010
0000
0100
0001
0000
0010
0100
0000
,  // measure 52
0010
0000
0001
0000
0100
0010
0100
0010
0100
0000
0001
0000
1001
0000
0000
0000
,  // measure 53
1000
0010
0100
0000
0001
0000
0010
0000
0100
1000
0001
0000
0100
0000
0010
0000
,  // measure 54
1000
0100
0010
0000
0001
0000
0100
0000
0001
0010
0100
0000
1000
0000
0010
0000
,  // measure 55
1000
0000
0001
0000
0010
0001
1000
0001
0010
0000
0100
0000
1000
0010
0100
0010
,  // measure 56
1000
0000
0001
0000
0010
0001
0010
0001
0010
0000
0100
0000
1100
0000
0000
0000
,  // measure 57
1000
0001
0010
0000
0001
0000
0100
0000
0010
0000
1000
0100
0000
1000
0010
0000
,  // measure 58
0100
0001
1000
0000
0100
0000
0010
0000
0001
0000
1000
0010
0000
0100
0001
0000
,  // measure 59
0010
0001
1000
0000
0010
0000
1000
0000
0001
0000
0100
0010
0000
1000
0100
0000
,  // measure 60
0010
0001
1000
0000
0010
0000
0100
0010
0100
0000
0001
0000
1001
0000
0000
0000
,  // measure 61
1000
0010
0100
0000
0001
0000
1000
0100
0010
0000
0001
0010
0000
0001
1000
0000
,  // measure 62
0010
0100
0001
0000
1000
0000
0010
0100
0001
0000
1000
0100
0000
1000
0010
0000
,  // measure 63
1000
0001
0100
0001
1000
0000
0010
0000
0100
0010
1000
0010
0100
0000
0001
0000
,  // measure 64
0010
0001
0100
0000
0010
1000
0100
0000
0010
0001
0100
0010
1000
0010
0100
0001
,  // measure 65
0020
0000
0000
0030
,  // measure 66
1001
0000
0000
0000
;
