#TITLE:Shuffle cats;
#SUBTITLE:;
#ARTIST:BEMANI Sound Team "猫叉Master";
#TITLETRANSLIT:;
#SUBTITLETRANSLIT:;
#ARTISTTRANSLIT:Nekomata Master;
#GENRE:;
#CREDIT:;
#BANNER:Shuffle_cats_banner.png;
#BACKGROUND:Shuffle_cats.png;
#LYRICSPATH:;
#CDTITLE:;
#MUSIC:Shuffle cats.ogg;
#OFFSET:-0.940000;
#SAMPLESTART:18.360001;
#SAMPLELENGTH:15.000000;
#SELECTABLE:YES;
#BPMS:0.000000=110.000000
;
#STOPS:
;
#BGCHANGES:;
#KEYSOUNDS:;
#ATTACKS:;

//---------------dance-single - ----------------
#NOTES:
     dance-single:
     :
     Easy:
     5:
     0.198657,0.221433,0.124002,0.088573,0.048715,157.000000,143.000000,14.000000,10.000000,0.000000,0.000000,0.198657,0.221433,0.124002,0.088573,0.048715,157.000000,143.000000,14.000000,10.000000,0.000000,0.000000:
0000
0000
0000
0000
,
0001
0000
0000
0000
0000
0001
0000
0000
0000
0000
0000
0000
1000
0000
0000
0000
0000
1000
0000
0000
0000
0000
0000
0000
,
0010
0000
0110
0000
,
0100
0000
0000
0000
0000
0100
0000
0000
0000
0000
0000
0000
0010
0000
0000
0000
0000
0010
0000
0000
0000
0000
0000
0000
,
1000
0000
0000
0000
0000
0000
0000
0000
0000
0000
0000
0001
0000
0000
0000
0000
0000
0000
0000
0000
0000
0000
0000
0000
,
0200
0000
0000
0000
0000
0300
0000
0000
,
0010
1000
0010
0000
,
0100
0001
0100
0000
,
0001
1000
0100
1000
,
0010
0000
0100
0001
,
1000
0010
0100
0010
,
1000
0000
0101
0000
,
0010
0001
1000
0010
,
0100
0000
1010
0000
,
0100
0001
1000
0001
,
0010
0000
0101
0000
,
1000
1000
0020
0030
,
0001
0001
0020
0030
,
0100
1000
0100
0000
,
0010
0001
0010
0000
,
1000
0000
0000
0000
0010
0100
0010
0000
,
0100
0000
0101
0000
,
0010
1000
0001
0010
,
0002
0000
0000
0003
2000
0000
0000
3000
,
0020
0000
0000
0000
0000
0000
0000
0030
,
0200
0000
0000
0000
0000
0000
0000
0300
,
0001
0000
0000
0000
0000
0000
1000
0000
0000
0000
0000
1000
0000
0000
0000
0000
0000
0000
0010
0000
0000
0000
0000
0010
,
0000
0100
0010
1000
,
0001
0000
0000
0000
0000
0000
1000
0000
0000
0000
0000
0001
0000
0000
0000
0000
0000
0000
0100
0000
0000
0000
0000
0010
,
0000
0100
1000
0100
,
0010
0000
0000
0000
0000
0000
1000
0000
0000
0000
0000
1000
0000
0000
0000
0000
0000
0000
0001
0000
0000
0000
0000
0001
,
0000
0010
1000
0001
,
0100
0010
0100
0001
,
1000
0010
0100
0001
,
0010
0001
1000
0010
,
0200
0000
0310
0010
,
1000
0100
1000
0000
,
0001
0010
0001
0000
,
0100
0010
0100
0001
,
1001
0000
0110
0000
,
1000
0100
0001
0100
,
1000
0000
0110
0000
,
0001
0010
1000
0010
,
0001
0000
1001
0000
,
1000
0100
0010
0001
,
0101
0000
1010
0000
,
2200
0000
0000
0000
0000
3300
0000
0000
,
0001
0000
0000
0110
0000
0000
0000
0000
,
0000
0000
0000
0000
,
0000
0000
0000
0000
,
0101
0000
0000
0000
;

//---------------dance-single - ----------------
#NOTES:
     dance-single:
     :
     Medium:
     9:
     0.293557,0.310006,0.177146,0.097430,0.137288,232.000000,212.000000,20.000000,11.000000,0.000000,0.000000,0.293557,0.310006,0.177146,0.097430,0.137288,232.000000,212.000000,20.000000,11.000000,0.000000,0.000000:
0000
0000
0000
0000
,
0001
0000
0000
0000
0000
0101
0000
0000
0000
0000
0000
0000
1000
0000
0000
0000
0000
1100
0000
0000
0000
0000
0000
0000
,
0000
0010
0100
0010
0000
0000
0200
0000
0000
0300
0000
0000
,
0001
0000
0000
0000
0000
0011
0000
0000
0000
0000
0000
0000
1000
0000
0000
0000
0000
1010
0000
0000
0000
0000
0000
0000
,
0200
0000
0000
0000
0000
0000
0000
0000
0000
0000
0000
0310
0000
0000
0000
0000
0000
0000
0000
0000
0000
0000
0000
0000
,
0001
0010
0100
1000
,
0010
0100
0001
0010
,
0001
1000
0100
1000
,
0001
0000
0000
0010
0000
0000
0100
0000
0000
0000
0000
0000
1000
0000
0000
0000
0000
1000
0000
0000
0000
0000
0000
0000
,
0010
0000
0000
0000
0000
0010
0000
0000
0000
0000
0000
0000
0100
0000
0000
0001
0000
0000
0100
0000
0000
0000
0000
0000
,
0010
0000
0000
1000
0000
0000
0001
0000
0000
0000
0000
0000
0100
0000
0000
0000
0000
0100
0000
0000
0000
0000
0000
0000
,
0010
1000
0010
0000
0100
0000
0101
0000
,
0001
0000
0000
1000
0000
0000
0010
0000
0000
0000
0000
0000
0100
0000
0000
0000
0000
0100
0000
0000
0000
0000
0000
0000
,
0010
0000
0000
0000
0000
0010
0000
0000
0000
0000
0000
0000
1000
0000
0000
0100
0000
0000
0010
0000
0000
0000
0000
0000
,
0001
0000
0000
1000
0000
0000
0001
0000
0000
0000
0000
0000
0010
0000
0000
0000
0000
0010
0000
0000
0000
0000
0000
0000
,
0100
1000
0100
0000
1000
0000
0101
0000
,
0001
0010
0001
0000
1000
0100
1000
0000
,
0010
0100
0010
0000
1000
0000
1001
0000
,
0001
0010
0001
0000
0100
0010
0100
0000
,
0010
1000
0001
1000
0010
0000
0100
0000
,
0001
1000
0001
0000
0100
0100
0100
0000
,
0010
1000
0010
0000
0100
0000
1001
0000
,
0010
0100
0001
0000
1000
0000
1100
0000
,
0001
0010
0001
0000
1000
0010
1000
0000
,
0020
0000
0000
0000
0000
0000
0000
0000
0000
0000
0000
0130
0000
0000
0000
0000
0000
0000
0000
0000
0000
0000
0000
1000
,
0000
0000
0000
0000
0000
0000
0000
0000
0000
0000
0000
0001
0000
0000
0000
0000
0000
0000
0010
0000
0000
0000
0000
0000
,
0002
0000
0000
0000
0000
0000
0000
0000
0000
0000
0000
1003
0000
0000
0000
0000
0000
0000
0000
0000
0000
0000
0000
0010
,
0000
0000
0000
0000
0000
0000
0000
0000
0000
0000
0000
0200
0000
0000
0000
0000
0000
0000
0310
0000
0000
0000
0000
0000
,
1000
0000
0000
0000
0000
0000
0000
0000
0000
0000
0000
0001
0000
0000
0000
0000
0000
0000
0000
0000
0000
0000
0000
0100
,
0000
0000
0000
0000
0000
0000
0000
0000
0000
0000
0000
0020
0000
0000
0000
0000
0000
0000
0130
0000
0000
0000
0000
0000
,
0001
0000
1000
0100
1000
0000
0001
0100
,
0001
0000
1000
0010
0200
0000
0301
0000
,
0010
0001
1000
0000
0010
1000
0001
0000
,
0100
0001
1000
0010
1000
0000
0010
0000
,
0100
0001
1000
0000
0010
0100
0010
0000
,
2000
0000
3001
0011
,
0010
0100
1000
0000
0001
0100
0010
0000
,
1000
0010
0100
0001
0100
0000
0010
0000
,
0100
0001
1000
0000
0010
0100
0001
0000
,
1000
0000
0000
0000
0000
1010
0000
0000
0000
0000
0000
0000
0001
0000
0000
0000
0000
0011
0000
0000
0000
0000
0000
0000
,
1000
0000
0001
0010
1000
0000
0010
0000
,
0001
0000
0000
0000
0000
0101
0000
0000
0000
0000
0000
0000
1000
0000
0000
0000
0000
1100
0000
0000
0000
0000
0000
0000
,
1000
0000
0001
0010
1000
0000
0010
0000
,
0001
0000
0000
0000
0000
1001
0000
0000
0000
0000
0000
0000
0100
0000
0000
0000
0000
0110
0000
0000
0000
0000
0000
0000
,
0010
0000
0000
1000
0000
0000
0001
0000
0000
1000
0000
0000
0010
0000
0000
0000
0000
0100
0000
0000
0000
0000
0000
0000
,
0001
0000
0000
0000
0000
0101
0000
0000
0000
0000
0000
0000
1000
0000
0000
0000
0000
1010
0000
0000
0000
0000
0000
0000
,
0200
0000
0000
0000
,
0310
0000
0000
2002
0000
0000
0000
0000
,
0000
0000
0000
0000
,
0000
0000
0000
0000
0000
3003
0000
0000
,
1010
0000
0000
0000
;

//---------------dance-single - ----------------
#NOTES:
     dance-single:
     :
     Hard:
     13:
     0.458050,0.465009,0.283434,0.248005,0.287863,362.000000,330.000000,32.000000,28.000000,0.000000,0.000000,0.458050,0.465009,0.283434,0.248005,0.287863,362.000000,330.000000,32.000000,28.000000,0.000000,0.000000:
0000
0000
0000
0000
,
0001
0000
0000
0000
0000
0101
0000
0000
0000
0000
0000
0000
1000
0000
0000
0000
0000
1010
0000
0000
0000
0000
0000
0000
,
0000
0000
0100
0000
0001
0000
1000
0000
0010
0000
0100
0000
0001
0000
0000
0000
0000
0110
0000
0000
0000
1000
0000
0000
,
0010
0000
0000
0000
0000
1100
0000
0000
0000
0000
0000
0000
0010
0000
0000
0000
0000
0101
0000
0000
0000
0000
0000
0000
,
2001
0000
0000
0000
0000
0000
0000
0000
0000
0000
0000
3010
0000
0000
0000
0100
0000
0000
0010
0000
0000
0100
0000
0000
,
0001
0010
0100
1000
0100
0010
0002
0000
,
1003
0010
0100
0010
1000
0001
0010
0100
,
0010
0001
0100
0010
1000
0001
0100
0001
,
0010
0000
0000
0100
0000
0000
1000
0000
0000
0100
0000
0000
0010
0000
0000
0001
0000
0010
0000
0000
0000
0001
0000
0000
,
1000
0000
0000
0010
0000
1000
0000
0000
0000
0010
0000
0000
0100
0000
0000
0001
0000
0000
1000
0000
0000
0100
0000
0000
,
1000
0000
0000
0010
0000
0000
0100
0000
0000
0001
0000
0000
1000
0000
0000
0100
0000
1000
0000
0000
0000
0100
0000
0000
,
0010
0001
1000
0010
0100
0010
1000
0001
,
0010
0000
0000
0100
0000
0000
1000
0000
0000
0001
0000
0000
0100
0000
0000
0010
0000
0100
0000
0000
0000
0010
0000
0000
,
1000
0000
0000
0001
0000
1000
0000
0000
0000
0010
0000
0000
0100
0000
0000
0001
0000
0000
0010
0000
0000
0100
0000
0000
,
1000
0000
0000
0001
0000
0000
0100
0000
0000
0010
0000
0000
0100
0000
0000
0001
0000
1000
0000
0000
0000
0010
0000
0000
,
0100
0001
1000
0100
1000
0010
0100
0001
,
0010
0001
0200
0000
0310
1000
0200
0000
,
1300
0001
0020
0000
0031
1000
0010
0100
,
0001
1000
0200
0000
1300
0001
0100
0010
,
1000
0100
0001
0100
1000
0001
0100
0010
,
1000
0001
0010
0000
0110
1001
0110
0000
,
0010
1000
0100
0010
0001
0100
0010
1000
,
0001
0100
0020
0000
1030
0100
0020
0000
,
0031
1000
0010
0001
0010
0100
0010
1000
,
0002
0000
0000
0000
0000
0000
0010
0000
0000
0000
0000
0103
0000
0000
0000
0000
0000
0000
2000
0000
0000
0000
0000
3010
,
0000
0000
0000
0000
0000
0000
0100
0000
0000
0000
0000
0110
0000
0000
0000
0000
0000
0000
1001
0000
0000
0000
0000
0000
,
0210
0000
0000
0000
0000
0000
0010
0000
0000
0000
0000
0301
0000
0000
0000
0000
0000
0000
0120
0000
0000
0000
0000
1030
,
0000
0000
0000
0000
0000
0000
1000
0000
0000
0100
0000
1000
0000
0000
0000
0000
0000
0000
0011
0000
0000
0000
0000
0000
,
0101
0000
0000
0001
0000
0000
1000
0000
0010
1000
0000
0010
0000
0000
0000
0100
0000
0000
0001
0000
0010
0001
0000
0010
,
0000
0000
0000
0001
0000
0000
0100
0000
0010
0100
0000
0010
0000
0000
0000
0000
0000
0000
1001
0000
0000
0000
0000
0000
,
1100
0000
0000
0100
0000
0000
1000
0000
0010
1000
0000
0001
0000
0000
0000
0100
0000
0000
0010
0000
0100
0001
0000
1000
,
0000
0000
0000
0010
0000
0000
0100
0000
0001
0010
0000
0001
2000
0000
0000
0000
0000
0000
3020
0000
0000
0000
0000
0000
,
0130
0000
0000
0001
0000
1000
0010
0000
1000
0100
0000
0000
1000
0000
0000
0001
0000
0010
0001
0000
0100
0010
0000
0000
,
1000
0100
0001
0100
1000
0010
0001
0010
,
0100
0010
1000
0001
0010
0100
1000
0002
,
0100
0000
0000
0000
0000
0000
0013
0000
0000
0001
0000
1000
0200
0000
0000
0000
0000
0000
0310
0000
0000
0000
0000
0000
,
0001
0000
0000
0100
0000
0010
1000
0000
0100
0010
0000
0000
0100
0000
0000
1000
0000
0001
0010
0000
0100
0010
0000
0000
,
0001
0100
0010
1000
0100
0010
1000
0001
,
0000
0001
0100
0010
0100
1000
0010
0000
,
1010
0000
0000
0000
0000
0102
0000
0000
0000
1003
0000
0000
0011
0000
0000
0000
0000
2100
0000
0000
0000
3001
0000
0000
,
0000
0000
0100
0000
0001
0000
1000
0000
0010
0000
1000
0000
0001
0000
0000
0000
0000
1001
0000
0000
0000
0100
0000
0000
,
0010
0000
0000
0000
0000
2100
0000
0000
0000
3001
0000
0000
0010
0000
0000
0000
0000
0102
0000
0000
0000
1003
0000
0000
,
0000
0010
1000
0100
0010
0001
0200
0000
0000
0310
0000
0000
,
1000
0000
0000
0000
0000
0102
0000
0000
0000
0013
0000
0000
0100
0000
0000
0000
0000
2100
0000
0000
0000
3001
0000
0000
,
0000
0000
0100
0000
0001
0000
0010
0000
0100
0000
1000
0000
0001
0000
0000
0000
0000
0110
0000
0000
0000
1000
0000
0000
,
0010
0000
0000
0000
0000
0102
0000
0000
0000
1003
0000
0000
0010
0000
0000
0000
0000
2100
0000
0000
0000
3001
0000
0000
,
0012
1000
0100
1000
,
0013
0000
0000
2020
0000
0000
0000
0000
,
0000
0000
0000
0000
,
0000
0000
0000
0000
0000
3030
0000
0000
,
0011
0000
0000
0000
;

//---------------dance-single - ----------------
#NOTES:
     dance-single:
     :
     Challenge:
     14:
     0.568134,0.553582,0.460580,0.248005,0.442866,449.000000,397.000000,52.000000,28.000000,0.000000,0.000000,0.568134,0.553582,0.460580,0.248005,0.442866,449.000000,397.000000,52.000000,28.000000,0.000000,0.000000:
// measure 0
0000
0000
0000
0000
,  // measure 1
0011
0000
0000
0000
0000
2100
0000
0000
0000
3001
0000
0000
0110
0000
0000
0000
0000
0102
0000
0000
0000
1003
0000
0000
,  // measure 2
0000
0000
1000
0000
0010
0000
0001
0000
1000
0000
0100
0000
0001
0000
0010
0100
0000
1000
0000
0000
0010
1000
0000
0000
,  // measure 3
1001
0000
0000
0000
0000
2100
0000
0000
0000
3010
0000
0000
0110
0000
0000
0000
0000
0102
0000
0000
0000
0013
0000
0000
,  // measure 4
0200
0000
0000
0000
0000
0000
0310
0000
0100
1000
0000
0002
0000
0000
0000
1000
0000
0000
0000
0000
0000
1000
0000
0000
,  // measure 5
0000
1000
0000
1000
0000
1003
1001
0000
,  // measure 6
0010
0000
0000
0100
0000
0000
1000
0000
0000
0100
0000
0000
0001
0000
0000
0010
0000
0000
1000
0000
0010
0001
0000
0000
,  // measure 7
1000
0000
0000
0010
0000
0000
0001
0000
0000
0010
0000
0000
1000
0000
0000
0001
0000
0000
0010
0000
0100
1000
0000
0000
,  // measure 8
0010
0000
0000
1000
0000
0000
0100
0000
0000
1000
0000
0000
0001
0000
0000
0010
0000
0100
0000
0000
0010
0100
0000
1000
,  // measure 9
0010
0000
0000
0100
0000
0001
0000
0000
0100
0010
0000
1000
0001
0000
0000
0100
0000
0000
1000
0000
0000
0100
0000
0000
,  // measure 10
0010
0000
0000
1000
0000
0000
0100
0000
0000
0001
0000
0000
0100
0000
0000
1000
0000
0010
0000
0000
1000
0001
0000
0010
,  // measure 11
0001
0100
1000
0001
1000
0100
0110
0000
,  // measure 12
1000
0000
0000
0100
0000
0000
0010
0000
0000
0001
0000
0000
0100
0000
0000
0010
0000
1000
0000
0000
0001
1000
0000
0100
,  // measure 13
0010
0000
0000
0100
0000
1000
0000
0000
0010
0100
0000
0001
0010
0000
0000
0100
0000
0000
0001
0000
0000
1000
0000
0000
,  // measure 14
0010
0000
0000
0001
0000
0000
1000
0000
0000
0010
0000
0000
0100
0000
0000
0001
0000
0010
0000
0000
0001
1000
0000
0010
,  // measure 15
0100
0000
0000
0010
0000
0000
1000
0000
0100
0010
0000
0000
0001
0000
0000
0001
0000
0010
0100
0000
0000
1000
0000
0000
,  // measure 16
0010
0000
0000
1010
0000
0000
1000
0000
0000
0001
0000
0000
0010
0000
0000
0011
0000
0000
0100
0000
0000
1000
0000
0001
,  // measure 17
0010
0110
0010
0001
1000
0010
0110
0100
,  // measure 18
0001
1000
1010
0010
1000
0100
0001
0100
,  // measure 19
1000
0001
0010
1000
0010
0001
1000
0010
,  // measure 20
0100
0000
0000
0101
0000
0000
0001
0000
0000
0000
0000
0000
2200
3300
0000
2002
3003
0000
0202
0303
0000
0010
0000
0000
,  // measure 21
0001
0000
0000
0010
0000
0000
0100
0000
0000
1000
0000
0010
0100
0000
0000
0001
0000
0000
0100
0000
0000
0010
0000
0000
,  // measure 22
1000
0000
0000
0100
0000
0000
0010
0000
0000
0001
0000
1000
0001
0000
0000
0010
0000
0000
0100
0000
0000
1000
0000
0001
,  // measure 23
0010
0100
1000
0010
0100
0100
1000
0100
,  // measure 24
0110
0000
0000
0000
0000
0000
0010
0000
1000
0100
0000
0010
0000
0000
0000
0001
0000
0000
0100
0000
0010
1000
0000
0100
,  // measure 25
0000
0000
0000
0010
0000
0000
0100
0000
1000
0001
0000
0010
0000
0000
0000
0001
0000
0000
1001
0000
0000
0000
0000
0000
,  // measure 26
0110
0000
0000
0100
0000
0000
0001
0000
0100
0010
0000
1000
0000
0000
0000
0001
0000
0000
1000
0000
0100
0010
0000
0001
,  // measure 27
0000
0000
0000
0010
0000
0000
0100
0000
1000
0010
0000
0100
0000
0000
0000
0001
0000
0000
0101
0000
0000
0000
0000
0000
,  // measure 28
1010
0000
0000
1000
0000
0000
0100
0000
0010
0100
0000
2000
0000
0000
0000
3010
0000
0000
0100
0000
0001
0010
0000
0002
,  // measure 29
0000
0000
0000
0013
0000
0000
0100
0000
1000
0001
0000
0100
0000
0000
0000
0010
0000
0000
1010
0000
0000
0000
0000
0000
,  // measure 30
1100
0000
0000
0001
0000
0000
0010
0000
0100
1000
0000
0010
0000
0000
0000
0100
0000
0000
0001
0000
0100
0010
0000
0100
,  // measure 31
0000
0000
0000
0001
0000
0000
1000
0000
0001
0010
0000
0200
0000
0000
0000
1000
0000
0000
1300
0000
0000
0010
0000
0000
,  // measure 32
0100
0000
0000
0001
0000
0010
0001
0000
1000
0010
0000
0000
1000
0000
0000
0100
0000
0010
0100
0000
1000
0001
0000
0000
,  // measure 33
0100
0110
0010
1010
1100
0100
0010
0001
,  // measure 34
1000
0001
0100
1000
0100
0010
1000
0001
,  // measure 35
0020
0000
0000
0100
0000
0000
0030
0000
0000
0100
0000
0010
0001
0000
0000
1000
0000
0010
0100
0000
0000
0010
0000
0000
,  // measure 36
1000
0000
0000
0001
0000
0010
0100
0000
1000
0010
0000
0000
0100
0000
0000
0001
0000
0010
0001
0000
1000
0100
0000
0000
,  // measure 37
0010
0110
0100
1100
0001
0010
1000
0010
,  // measure 38
0001
1000
0010
0100
0001
1000
1010
0001
,  // measure 39
0011
0000
0000
0000
0000
2100
0000
0000
0000
3010
0000
0000
1010
0000
0000
0000
0000
0102
0000
0000
0000
0013
0000
0000
,  // measure 40
0001
0000
1000
0000
0010
0000
0001
0000
1000
0000
0100
0000
0001
0000
0000
0010
0000
0001
0000
0000
1000
0001
0000
0000
,  // measure 41
1010
0000
0000
0000
0000
1200
0000
0000
0000
0310
0000
0000
0011
0000
0000
0000
0000
0201
0000
0000
0000
0310
0000
0000
,  // measure 42
1000
0000
0001
0000
0100
0000
1000
0000
0001
0000
0010
0000
1000
0000
0000
0000
0000
0001
0010
0000
0000
0001
0000
0000
,  // measure 43
0101
0000
0000
0000
0000
2100
0000
0000
0000
3010
0000
0000
0110
0000
0000
0000
0000
0012
0000
0000
0000
1003
0000
0000
,  // measure 44
0100
0000
1000
0000
0010
0000
0001
0000
0010
0000
1000
0000
0001
0000
0000
0000
0000
1100
0000
0000
0000
0001
0000
0000
,  // measure 45
0011
0000
0000
0000
0000
0102
0000
0000
0000
0013
0000
0000
0110
0000
0000
0000
0000
2100
0000
0000
0000
3010
0000
0000
,  // measure 46
0210
0000
0000
1000
1000
0000
0001
0001
0000
0010
0010
0000
,  // measure 47
2000
0000
3300
0022
0000
0000
0000
0000
,  // measure 48
0000
0000
0033
0000
,  // measure 49
0000
0000
0000
0000
,  // measure 50
1010
0000
0000
0000
;
