#TITLE:少年リップルズ;
#SUBTITLE:;
#ARTIST:常盤ゆう;
#TITLETRANSLIT:Shounen ripples;
#SUBTITLETRANSLIT:;
#ARTISTTRANSLIT:Yu Tokiwa;
#GENRE:EMOCTRO;
#CREDIT:;
#BANNER:Shounen_ripples_banner.png;
#BACKGROUND:Shounen_ripples.png;
#LYRICSPATH:;
#CDTITLE:;
#MUSIC:Shounen ripples.ogg;
#OFFSET:-0.280000;
#SAMPLESTART:66.568001;
#SAMPLELENGTH:15.000000;
#SELECTABLE:YES;
#BPMS:0.000000=210.000000
;
#STOPS:
;
#BGCHANGES:;
#KEYSOUNDS:;
#ATTACKS:;

//---------------dance-single - ----------------
#NOTES:
     dance-single:
     :
     Easy:
     7:
     0.297388,0.353640,0.133765,0.209007,0.000000,249.000000,233.000000,16.000000,25.000000,0.000000,0.000000,0.297388,0.353640,0.133765,0.209007,0.000000,249.000000,233.000000,16.000000,25.000000,0.000000,0.000000:
// measure 0
0000
0000
0000
0000
,  // measure 1
0000
0000
0000
0000
,  // measure 2
0000
0000
0000
0000
,  // measure 3
0000
0000
0000
0000
,  // measure 4
0001
0000
0010
0001
,  // measure 5
0000
0100
0010
0000
,  // measure 6
1000
0000
1000
0010
,  // measure 7
0000
0100
0001
0000
,  // measure 8
0010
0000
0001
1000
,  // measure 9
0000
0001
1000
0010
,  // measure 10
0100
0000
0001
0010
,  // measure 11
0000
0001
1000
0001
,  // measure 12
0020
0000
0000
0030
,  // measure 13
0200
0000
0000
0300
,  // measure 14
2000
0000
0000
3000
,  // measure 15
0002
0000
0000
0003
,  // measure 16
1000
0010
0000
0010
,  // measure 17
0100
1000
0000
1000
,  // measure 18
0001
0010
0000
0010
,  // measure 19
0100
0001
1000
0100
,  // measure 20
0010
0000
0010
0001
,  // measure 21
0010
0000
0001
1000
,  // measure 22
0001
0000
0100
0010
,  // measure 23
0100
0000
0001
0000
,  // measure 24
2002
0000
0000
3003
0000
0000
0100
0000
,  // measure 25
0100
0000
0010
0000
,  // measure 26
0010
0000
1000
0100
,  // measure 27
0010
0001
2000
0000
,  // measure 28
3010
0000
0010
0100
,  // measure 29
0010
0000
1100
0000
,  // measure 30
0001
0000
1000
0100
,  // measure 31
0010
0000
0001
1000
,  // measure 32
0020
0000
0130
0000
,  // measure 33
0001
0000
1000
0010
,  // measure 34
0200
0000
0301
0000
,  // measure 35
0010
0000
0001
1000
,  // measure 36
0100
0200
0000
0300
,  // measure 37
0010
0000
0110
0000
,  // measure 38
0001
0002
0000
0003
,  // measure 39
1000
0000
1010
0000
,  // measure 40
1000
2000
0000
3000
,  // measure 41
0001
0000
0101
0000
,  // measure 42
1000
0001
0000
0001
,  // measure 43
0020
0000
0130
0000
,  // measure 44
1100
0000
0001
1000
,  // measure 45
0010
0000
0101
0000
,  // measure 46
0010
0000
1000
0001
,  // measure 47
1000
0000
0001
0000
,  // measure 48
0010
0000
0100
0000
,  // measure 49
1000
0000
0001
1000
,  // measure 50
0002
0000
0103
0000
,  // measure 51
2000
0000
3010
0000
,  // measure 52
0100
0000
0000
0100
0000
0000
0100
0000
,  // measure 53
0000
0100
0000
0000
0010
0000
0000
0000
,  // measure 54
0010
0000
0000
0010
0000
0000
0010
0000
,  // measure 55
0000
0010
0000
0000
0010
0000
0000
0000
,  // measure 56
1000
0100
0010
0001
,  // measure 57
2002
0000
3003
0000
,  // measure 58
0010
0100
0000
0100
,  // measure 59
0001
1000
0100
0000
,  // measure 60
0010
0001
0000
0001
,  // measure 61
1000
0100
0010
0000
,  // measure 62
0001
1000
0000
1000
,  // measure 63
0010
0100
0001
0000
,  // measure 64
2200
0000
0000
3300
0000
0000
0001
0000
,  // measure 65
0001
0000
0100
0000
,  // measure 66
0010
0000
1000
0010
,  // measure 67
1000
0000
0001
0010
,  // measure 68
0100
0000
0010
0000
,  // measure 69
0001
0010
0100
0000
,  // measure 70
1000
0010
1000
0000
,  // measure 71
0001
0100
0001
0000
,  // measure 72
2002
0000
3003
0000
,  // measure 73
0110
0000
0010
0000
,  // measure 74
1000
0100
0000
0100
,  // measure 75
0010
0100
1000
0000
,  // measure 76
0001
0100
0000
0100
,  // measure 77
0010
0100
0001
0000
,  // measure 78
1000
0010
0000
1000
,  // measure 79
0001
0010
0100
0000
,  // measure 80
0022
0000
0000
0033
0000
0000
1000
0000
,  // measure 81
1000
0000
0010
0100
,  // measure 82
0001
1000
0001
1000
,  // measure 83
0010
0100
0010
0000
,  // measure 84
1000
0100
0010
0100
,  // measure 85
1000
0001
0010
0000
,  // measure 86
0202
0000
0000
0303
0000
0000
0010
0000
,  // measure 87
0010
0000
1000
0100
,  // measure 88
0010
0000
1100
0000
,  // measure 89
0001
0000
0011
0000
,  // measure 90
1000
0000
0000
0100
0000
0000
1000
0000
,  // measure 91
0000
0001
0000
0000
0100
0000
0010
0000
,  // measure 92
0100
0000
0000
0001
0000
0000
0010
0000
,  // measure 93
0000
0100
0000
0000
1000
0000
0001
0000
,  // measure 94
0110
0000
0000
0000
;

//---------------dance-single - ----------------
#NOTES:
     dance-single:
     :
     Medium:
     11:
     0.461011,0.550107,0.225728,0.192287,0.000000,386.000000,359.000000,27.000000,23.000000,0.000000,0.000000,0.461011,0.550107,0.225728,0.192287,0.000000,386.000000,359.000000,27.000000,23.000000,0.000000,0.000000:
// measure 0
0000
0000
0000
0000
,  // measure 1
0000
0000
0000
0000
,  // measure 2
0000
0000
0000
0000
,  // measure 3
0000
0000
0000
0000
,  // measure 4
1000
1000
1000
0001
,  // measure 5
0001
0000
0001
0000
0100
0000
0010
0100
,  // measure 6
0010
0000
0100
0010
0100
0000
0001
0000
,  // measure 7
0010
0100
0010
0100
,  // measure 8
1000
0000
0000
0010
1000
0000
0001
0000
,  // measure 9
0000
0010
0001
0000
0100
0000
0010
0000
,  // measure 10
0100
0001
1000
0100
,  // measure 11
0010
0100
1000
0010
,  // measure 12
0200
0001
0000
0301
,  // measure 13
0001
0000
0000
0010
0000
0000
0001
0000
,  // measure 14
1000
0010
1000
0001
,  // measure 15
0010
0100
1000
1001
,  // measure 16
0020
0100
0130
0000
,  // measure 17
0001
0100
0010
1000
,  // measure 18
0100
0010
0001
0010
,  // measure 19
0100
0000
1000
0000
0001
1000
0001
0000
,  // measure 20
0100
0010
0010
0010
,  // measure 21
1000
0100
0001
0100
,  // measure 22
2000
0000
3001
0001
,  // measure 23
0010
0000
0010
0100
,  // measure 24
0110
0000
1000
0001
,  // measure 25
0010
0100
0010
0001
,  // measure 26
1000
0001
0100
0010
,  // measure 27
1000
0010
0000
0010
0000
0010
0100
0000
,  // measure 28
0001
0010
0001
1000
,  // measure 29
0010
0100
0001
1000
,  // measure 30
2002
3003
0010
0010
,  // measure 31
1000
0001
0100
0010
,  // measure 32
2000
0000
3100
0100
,  // measure 33
0010
0100
1000
0001
,  // measure 34
0200
0000
0010
0310
,  // measure 35
1000
0001
0010
0100
,  // measure 36
0010
0000
0001
1000
0000
0000
1001
0000
,  // measure 37
0000
0010
0100
0010
,  // measure 38
1000
0000
0010
0100
0000
0000
0101
0000
,  // measure 39
0001
0010
0100
1000
,  // measure 40
0001
0000
0010
0001
0000
0000
1100
0000
,  // measure 41
0001
1000
0010
0100
,  // measure 42
0010
0000
0100
0010
0000
0010
0100
0000
,  // measure 43
0002
0000
0010
0013
,  // measure 44
1000
0000
0100
1000
0000
0001
0000
2002
,  // measure 45
0000
3003
0000
0000
0010
0000
0010
0100
,  // measure 46
0000
0000
0010
0000
1000
0001
0000
0022
,  // measure 47
0000
0033
0000
0000
0001
0000
1000
0000
,  // measure 48
0100
0010
0001
1000
,  // measure 49
0010
0000
0100
0000
0001
0000
0000
1010
,  // measure 50
0000
0100
0000
0100
,  // measure 51
0001
0010
0100
1000
,  // measure 52
0001
0000
0010
0001
0000
0010
0001
0000
,  // measure 53
1000
0010
0000
1000
0010
0000
0100
0000
,  // measure 54
0001
0000
0100
0001
0000
0100
0001
0000
,  // measure 55
1000
0100
0000
1000
0100
0000
1000
0000
,  // measure 56
0001
0000
0000
0001
0000
0001
0010
0200
,  // measure 57
0000
0000
0300
0000
,  // measure 58
1000
0000
0010
1000
0010
0000
1000
0000
,  // measure 59
0001
0010
0001
0000
0100
0000
0010
0000
,  // measure 60
1000
0000
0001
0010
0001
0000
1000
0000
,  // measure 61
0010
0100
0010
0000
1000
0000
0001
0000
,  // measure 62
0100
0000
0010
0100
0000
0010
0100
0000
,  // measure 63
0001
0010
0000
0010
0001
0000
0010
0000
,  // measure 64
2002
3003
0000
0010
,  // measure 65
0010
0000
0100
0110
,  // measure 66
0001
0000
1000
0100
0000
0010
0000
0002
,  // measure 67
0000
0000
1003
0000
0001
0010
0100
1000
,  // measure 68
0001
0000
1000
0010
0000
0100
0000
0220
,  // measure 69
0000
0330
0000
0000
1000
0000
1000
0000
,  // measure 70
0001
0000
0010
0001
0000
0010
0001
0000
,  // measure 71
1000
0100
0000
1000
0100
0000
1000
0000
,  // measure 72
2002
3003
0000
0010
,  // measure 73
0010
0000
0000
0000
0100
0001
0100
0000
,  // measure 74
0001
0000
0010
0001
0000
1000
0001
0000
,  // measure 75
1000
0010
0000
0010
1000
0000
0001
0000
,  // measure 76
0100
0000
0010
0100
0000
0001
0100
0000
,  // measure 77
0010
1000
0000
1000
0010
0100
0010
0000
,  // measure 78
1000
0000
0001
0010
0000
0100
1000
0000
,  // measure 79
0010
0100
0000
0100
0010
0000
1000
0000
,  // measure 80
2002
0000
0000
3003
0000
0010
0000
0010
,  // measure 81
0000
0000
0100
0100
,  // measure 82
0001
0000
0010
0001
0000
0000
1000
0000
,  // measure 83
0010
0000
0100
0010
0000
0100
0010
0000
,  // measure 84
2000
0100
3100
0010
,  // measure 85
0001
0000
0000
0100
0000
0000
0110
0000
,  // measure 86
0001
0000
0001
0000
0001
0010
0001
0100
,  // measure 87
0000
0000
0100
0000
0010
0100
0010
1000
,  // measure 88
0000
0000
0100
0000
1000
0000
0100
0010
,  // measure 89
0000
0001
0000
1000
0000
1001
0000
0000
,  // measure 90
0110
0000
0000
1001
0000
0000
0110
0000
,  // measure 91
0000
0011
0000
0000
1100
0000
1001
0000
,  // measure 92
0011
0000
0000
0101
0000
0000
1001
0000
,  // measure 93
0000
1010
0000
0000
0001
0010
0100
0000
,  // measure 94
1100
0000
0000
0000
;

//---------------dance-single - ----------------
#NOTES:
     dance-single:
     :
     Hard:
     14:
     0.722568,0.707281,0.342772,0.217368,0.020901,605.000000,564.000000,41.000000,26.000000,0.000000,0.000000,0.722568,0.707281,0.342772,0.217368,0.020901,605.000000,564.000000,41.000000,26.000000,0.000000,0.000000:
// measure 0
0000
0000
0000
0000
,  // measure 1
0000
0000
0000
0000
,  // measure 2
0000
0000
0000
0000
,  // measure 3
0000
0000
0000
0000
,  // measure 4
0012
1000
1003
1020
,  // measure 5
0100
0000
0130
0001
2000
0000
3100
0010
,  // measure 6
0100
1000
0001
0100
0010
0000
1000
0001
,  // measure 7
0010
0001
0100
0000
0001
0100
0010
1000
,  // measure 8
0100
0010
0100
1000
0001
0000
0100
0001
,  // measure 9
0010
0100
1000
0000
0010
0100
1000
0100
,  // measure 10
0001
0000
1000
0100
0001
0100
0010
0000
,  // measure 11
0001
0000
1000
0000
0100
0000
1000
0000
0010
0000
0100
0000
0001
1000
0001
1000
,  // measure 12
0002
0100
0000
0103
,  // measure 13
2010
0000
0100
3100
0000
0010
0001
1000
,  // measure 14
0020
0000
0100
0000
0031
0000
0010
1000
,  // measure 15
0100
0010
0001
1000
0000
1000
0010
0100
,  // measure 16
0001
0000
1001
0000
1000
0000
0010
0100
,  // measure 17
0010
1000
0001
0010
0000
0010
0100
1000
,  // measure 18
0001
1000
0010
0000
0110
0000
1000
0001
,  // measure 19
0010
0001
0100
0010
1000
0100
0001
0100
,  // measure 20
2000
0000
3010
0000
0110
0000
0001
0010
,  // measure 21
0000
0001
1000
0100
1000
0010
0100
0000
,  // measure 22
0201
0000
0010
0000
0000
0301
0010
0200
,  // measure 23
0000
1000
1300
0000
1000
0010
0100
0000
,  // measure 24
0210
0000
0301
0000
0001
0010
1000
0010
,  // measure 25
0000
0001
0100
1000
0100
0010
1000
0100
,  // measure 26
0010
0100
1000
0001
0010
0100
0010
0001
,  // measure 27
1000
0010
0100
0001
0000
0010
0110
0000
,  // measure 28
2100
0000
3001
0000
0001
0100
0010
0100
,  // measure 29
1000
0100
0010
1000
0001
0010
0100
0000
,  // measure 30
0110
0000
0001
0000
1000
0010
0100
0010
,  // measure 31
0000
0010
1000
0001
1000
0100
0010
0000
,  // measure 32
0210
0000
1000
0000
0310
0001
1000
0010
,  // measure 33
0000
0010
1000
0001
1000
0100
0010
0001
,  // measure 34
0100
0010
1000
0001
1000
0001
0010
0100
,  // measure 35
1000
0010
0100
0001
0010
0100
1000
0000
,  // measure 36
0012
0000
1000
1000
0003
0010
0011
0000
,  // measure 37
1000
0100
0001
0100
1000
0010
0100
0000
,  // measure 38
2010
0000
0001
0001
3000
0100
1100
0000
,  // measure 39
1000
0010
0001
0010
1000
0001
0100
0000
,  // measure 40
1020
0000
0100
0130
0000
0001
0101
0000
,  // measure 41
1000
0001
0010
0100
0010
0001
2000
0000
,  // measure 42
3010
0100
0010
1000
0000
1000
0001
0010
,  // measure 43
0000
0000
0001
1000
0001
0000
0000
0000
0100
0000
0000
0000
0110
0000
0000
0000
,  // measure 44
1020
0000
0100
0000
1030
0100
0010
0001
,  // measure 45
0000
0001
1000
0010
0100
0001
0000
0011
,  // measure 46
0000
0001
0100
0010
1000
0100
0001
0200
,  // measure 47
0000
1000
1300
0000
1000
0010
0100
0000
,  // measure 48
0001
0010
0100
0000
1000
0001
0010
0001
,  // measure 49
0000
0100
0010
1000
0001
1000
0000
0110
,  // measure 50
0000
0001
0010
0100
1000
0010
1000
0100
,  // measure 51
0000
0011
0000
1000
0010
0100
0010
0000
,  // measure 52
1000
0001
0001
1000
0010
0010
1000
0100
,  // measure 53
0100
1000
0100
0100
0010
0100
1000
0000
,  // measure 54
0001
0100
0100
0001
1000
1000
0001
0010
,  // measure 55
0010
0001
0100
0100
0010
0100
0001
0000
,  // measure 56
1000
0001
0000
1001
0000
0010
0100
0220
,  // measure 57
0000
0000
0000
0330
,  // measure 58
1100
0000
0001
1000
0100
1000
0010
0100
,  // measure 59
0001
0010
0000
0010
0001
1000
0010
0000
,  // measure 60
0101
0000
0010
1000
0100
1000
0001
0010
,  // measure 61
0100
1000
0010
1000
0001
0100
0010
0000
,  // measure 62
1010
0000
0100
0001
1000
0100
0010
0100
,  // measure 63
1000
0001
0000
0001
1000
0010
0100
0000
,  // measure 64
2002
0000
0000
3003
0000
0010
0100
0001
,  // measure 65
0000
0000
0011
0000
1000
0100
0010
0000
,  // measure 66
1100
0000
0001
0010
0100
0010
0001
1000
,  // measure 67
0000
1000
0010
0000
0100
0001
1000
0100
,  // measure 68
0010
0001
1000
0010
0000
0010
1000
0001
,  // measure 69
0000
1000
0010
0100
0001
1000
0100
0000
,  // measure 70
0010
0001
0010
0100
0000
0100
1000
0010
,  // measure 71
0100
0010
0000
0010
1000
0001
1000
0000
,  // measure 72
0100
0000
0102
0000
0000
1003
0010
0100
,  // measure 73
0000
0000
0010
0000
1000
0000
0001
0000
0100
0000
0010
0100
0010
0000
0000
0000
,  // measure 74
1000
0100
1000
0010
1000
0001
0000
0011
,  // measure 75
0000
0001
1000
0010
1000
0100
0001
0000
,  // measure 76
0001
0100
1000
0010
0000
0010
0100
0001
,  // measure 77
1000
0001
0000
0001
0010
1000
0020
0000
,  // measure 78
0031
0100
0001
0010
0000
0010
0001
1000
,  // measure 79
0001
1000
0100
0010
0001
1000
0001
0000
,  // measure 80
0220
0000
0000
0330
0000
1000
0001
1000
,  // measure 81
0000
0000
0110
0000
1000
0001
1000
0000
,  // measure 82
0101
0000
0010
1000
0000
0001
1000
0100
,  // measure 83
0000
0100
1000
0010
0100
0001
0010
0000
,  // measure 84
0001
0010
1000
0010
0001
0000
1000
0100
,  // measure 85
0001
0100
1000
0010
0000
0010
0100
0000
,  // measure 86
0101
0000
0101
0000
1000
0010
1000
0001
,  // measure 87
0000
0001
0010
0100
1000
0010
0100
0010
,  // measure 88
0000
0100
0010
1000
0000
0001
0010
0100
,  // measure 89
0000
0000
1000
0000
0001
0000
1000
0000
0010
0000
0100
0010
0100
0000
0000
0000
,  // measure 90
1000
0010
0010
1000
0001
0001
1000
0100
,  // measure 91
0100
0010
0100
0100
1000
0001
1001
0000
,  // measure 92
0001
0100
0100
0001
0010
0010
0001
1000
,  // measure 93
1000
0010
0100
0100
0001
0010
0110
0000
,  // measure 94
1001
0000
0000
0000
;
