#TITLE:少女アリスと箱庭幻想コンチェルト;
#SUBTITLE:;
#ARTIST:DJ TOTTO;
#TITLETRANSLIT:Shoujo Alice to hakoniwa gensou concerto;
#SUBTITLETRANSLIT:;
#ARTISTTRANSLIT:DJ TOTTO;
#GENRE:空想ファンタジーシリーズ;
#CREDIT:;
#BANNER:Shoujo_Alice_to_hakoniwa_gensou_concerto_banner.png;
#BACKGROUND:Shoujo_Alice_to_hakoniwa_gensou_concerto.png;
#LYRICSPATH:;
#CDTITLE:;
#MUSIC:Shoujo_Alice_to_hakoniwa_gensou_concerto.ogg;
#OFFSET:-0.190000;
#SAMPLESTART:54.810001;
#SAMPLELENGTH:15.000000;
#SELECTABLE:YES;
#BPMS:0.000000=268.000000
;
#STOPS:
;
#BGCHANGES:;
#KEYSOUNDS:;
#ATTACKS:;

//---------------dance-single - ----------------
#NOTES:
     dance-single:
     :
     Easy:
     8:
     0.265152,0.373677,0.197104,0.131403,0.000000,226.000000,202.000000,24.000000,16.000000,0.000000,0.000000,0.265152,0.373677,0.197104,0.131403,0.000000,226.000000,202.000000,24.000000,16.000000,0.000000,0.000000:
0000
0000
0000
0000
,
0000
0000
0000
0000
,
0000
0000
0000
0000
,
0000
0000
0000
0000
,
0000
0000
0000
0000
,
0000
0000
0000
0000
,
0000
0000
0000
0000
,
1000
0000
0000
1000
,
0000
0000
0001
0000
,
0000
0001
0000
0000
,
0100
0000
0000
0010
,
0000
0000
0100
0000
,
0000
0010
0000
0000
,
1000
0000
0000
0001
,
0000
0000
1000
0000
,
0000
1100
0000
0000
,
0001
0000
0000
1000
,
0000
0000
0001
0000
,
0000
0101
0000
0000
,
0010
0000
0000
1000
,
0000
0000
0001
0000
,
0000
0011
0000
0000
,
1000
0000
0000
0010
,
0000
0000
0100
0000
,
0000
1010
0000
0000
,
0100
0000
0000
0001
,
0000
0000
1000
0000
,
0000
0100
0000
0000
,
1000
0000
0000
0010
,
0000
0000
0100
0000
,
0000
0101
0000
0000
,
0002
0000
0003
0020
,
0000
0030
0200
0000
,
0300
2000
0000
3000
,
0020
0000
0030
0200
,
0000
0300
0001
0000
,
0000
1001
0000
0000
,
1000
0000
0000
0010
,
0000
0000
0010
0000
,
0000
0100
0000
0000
,
1001
0000
0000
0100
,
0000
0000
0010
0000
,
0000
0010
0000
0000
,
1000
0000
0000
0001
,
0000
0000
0100
0000
,
0000
0010
0000
0000
,
1000
0000
0000
1000
,
0000
0000
0001
0000
,
0000
0101
0000
0000
,
0100
0000
0000
0010
,
0000
0000
1000
0000
,
0000
0001
0000
0000
,
1000
0000
0000
0001
,
0000
0000
0010
0000
,
0000
0100
0000
0000
,
2000
0000
0000
3001
,
0000
0000
0002
0000
,
0000
1003
0000
0000
,
0200
0000
0000
0310
,
0000
0000
0110
0000
,
0000
1001
0000
0000
,
1000
0000
0010
0100
,
0000
0001
0010
0000
,
0000
1001
0000
0000
,
0001
0000
0010
0100
,
0000
1000
0100
0000
,
0000
1001
0000
0000
,
0100
0000
0001
0010
,
0000
0001
1000
0000
,
0000
1100
0000
0000
,
1000
0000
0010
0100
,
0000
0001
1000
0000
,
0000
0101
0000
0000
,
0010
0000
0001
0010
,
0000
0000
0001
0000
,
1000
0100
0000
0000
,
1000
0000
0000
0110
,
0000
0000
0001
0000
,
0000
0110
0000
0000
,
1000
0000
0001
0010
,
0000
0001
0100
0000
,
0000
0110
0000
0000
,
0001
0000
1000
0100
,
0000
1000
0001
0000
,
0000
0101
0000
0000
,
0010
0000
0000
0010
,
0000
0000
0010
0000
,
0000
0010
0000
0000
,
0100
0000
0000
0100
,
0000
0000
0100
0000
,
0000
0100
0000
0000
,
0001
0000
0100
0001
,
0000
0000
0001
0000
,
0000
1001
0000
0000
,
2000
0000
0000
0000
,
3000
0000
0010
0000
,
0000
1001
0000
0000
,
0001
0100
0001
0100
,
0000
0000
0010
1000
,
0010
1000
0000
0000
,
0100
1000
0100
1000
,
0000
0000
0001
0010
,
0001
0010
0000
0000
,
0001
1000
0001
0000
,
0000
0000
0100
0010
,
0100
0000
0000
0000
,
1010
0000
0000
0100
,
0000
0000
0011
0000
,
0000
0100
0000
0000
,
0010
1000
0010
0000
,
0000
0000
0100
0001
,
0100
0000
0000
0000
,
0002
0000
0000
0013
,
0000
0000
2000
0000
,
0000
3010
0000
0000
,
0200
0000
0000
0301
,
0000
0000
0002
0000
,
0000
0013
0000
0000
,
1000
0001
1000
0100
,
0000
0000
0010
0100
,
0010
0001
0000
0000
,
1000
0100
0010
0100
,
0000
0000
0010
0001
,
0100
0010
0000
0000
,
1000
0100
0001
0100
,
0000
0000
1000
0001
,
0100
0001
0000
0000
,
1000
0000
0000
0010
,
0000
0000
0110
0000
,
0000
2002
0000
0000
,
3003
0000
0000
0000
;

//---------------dance-single - ----------------
#NOTES:
     dance-single:
     :
     Medium:
     12:
     0.438792,0.479980,0.082127,0.156041,0.000000,374.000000,364.000000,10.000000,19.000000,0.000000,0.000000,0.438792,0.479980,0.082127,0.156041,0.000000,374.000000,364.000000,10.000000,19.000000,0.000000,0.000000:
0000
0000
0000
0000
,
0000
0000
0000
0000
,
0000
0000
0000
0000
,
0000
0000
0000
0000
,
0000
0000
0000
0000
,
0000
0000
0000
0000
,
0000
0000
0000
0000
,
1000
0010
0100
0010
,
1000
0001
0100
0010
,
0100
0001
0000
0000
,
1000
0010
0100
0010
,
1000
0001
0010
0100
,
0010
0001
0000
0000
,
2000
0000
3010
0100
,
0000
0001
0010
0001
,
1000
0100
0000
0000
,
0010
0001
1000
0100
,
0000
1000
0001
0100
,
0010
0100
0000
0000
,
0001
1000
0100
1000
,
0000
0010
0100
0001
,
0100
0010
0000
0000
,
1000
0100
0001
0100
,
0000
0000
1000
0001
,
0100
0001
0000
0000
,
0110
0000
0010
1000
,
0000
0001
0100
0010
,
1000
0001
0000
0000
,
0011
0000
1000
0100
,
0000
1000
0001
0010
,
0001
2000
0000
0000
,
3010
0100
0010
0100
,
0000
0000
0001
1000
,
0001
1000
0000
0000
,
0001
0100
0010
1000
,
0100
1000
0001
0000
,
0000
1001
0000
0000
,
0100
0010
0100
0001
,
0000
0000
1000
0010
,
0100
0010
0000
0000
,
2002
0000
0000
0000
,
3003
0000
0100
0010
,
1000
0001
0000
0000
,
1000
0100
0010
0100
,
0000
0000
1000
0001
,
0010
0001
0000
0000
,
0100
0001
0010
0001
,
0000
0000
0001
1000
,
0010
1000
0000
0000
,
0010
1000
0010
0100
,
0000
0000
0001
0100
,
0010
0100
0000
0000
,
1000
0010
0001
0010
,
0000
0000
0100
0001
,
0100
0010
0000
0000
,
1000
0000
0001
0010
,
0001
0100
0010
0000
,
1000
0100
1000
0001
,
0100
0000
0000
0110
,
0000
0000
1001
0000
,
0000
1010
0000
0000
,
0100
0001
1000
0001
,
0000
0100
0010
1000
,
0100
0010
0000
0000
,
0001
0100
0010
1000
,
0000
0100
1000
0010
,
0001
0010
0000
0000
,
0100
0010
0001
0010
,
0000
0000
1000
0100
,
0010
0100
0000
0000
,
1000
0000
0100
1000
,
0000
0001
0100
0000
,
0010
0100
0001
1000
,
0010
1000
0010
0100
,
0000
0001
0010
0001
,
0100
0010
0000
1000
,
0001
0100
0001
1000
,
0010
0100
0010
0000
,
0000
1010
0000
0000
,
0100
0001
1000
0100
,
0000
1000
0001
0010
,
0001
1000
0000
0010
,
0100
0001
0100
0010
,
1000
0100
1000
0001
,
0001
0100
0010
0010
,
2000
0000
0010
3020
,
0000
0130
0200
0000
,
0301
0002
0000
0000
,
1003
0000
0100
0010
,
0100
1000
0001
0000
,
0100
0001
1000
0010
,
1000
0001
0010
0002
,
0000
0000
0103
0010
,
1000
0020
0000
0000
,
1030
0000
0000
1100
,
0000
0000
0101
0000
,
0000
0010
0100
0010
,
1000
0001
1000
0010
,
0100
0001
0010
0100
,
1000
0200
0000
0300
,
1000
0100
0001
0100
,
1000
0010
0100
0001
,
0100
2000
0000
3000
,
0100
0001
0100
0010
,
0100
0001
1000
0010
,
1000
0100
1000
0001
,
0010
0001
1000
0002
,
0000
0003
0100
0010
,
1000
0020
0000
0030
,
1000
0100
0010
0001
,
0010
0100
1000
0010
,
0100
0001
0010
0100
,
0020
0000
0031
0002
,
0000
0000
1003
0010
,
0100
0020
0000
0000
,
1030
0100
1000
0200
,
0000
0000
1300
0001
,
0010
0002
0000
0000
,
1003
0010
1000
0001
,
0100
0010
0100
0001
,
1000
0100
0010
0100
,
1000
0001
0010
0001
,
0100
0010
1000
0001
,
1000
0010
0100
0010
,
1000
0000
0001
1000
,
0000
0010
0100
0000
,
0001
1000
0100
0001
,
0100
1000
0001
1000
,
0100
0010
0001
0010
,
1000
0000
0010
0000
0100
0000
0010
0100
;

//---------------dance-single - ----------------
#NOTES:
     dance-single:
     :
     Hard:
     16:
     0.788417,0.906628,0.139615,0.156041,0.000000,672.000000,655.000000,17.000000,19.000000,0.000000,0.000000,0.788417,0.906628,0.139615,0.156041,0.000000,672.000000,655.000000,17.000000,19.000000,0.000000,0.000000:
// measure 0
0000
0000
0000
0000
,  // measure 1
0000
0000
0000
0000
,  // measure 2
0000
0000
0000
0000
,  // measure 3
0000
0000
0000
0000
,  // measure 4
0000
0000
0000
0000
,  // measure 5
0000
0000
0000
0000
,  // measure 6
0000
0000
0000
0000
,  // measure 7
0001
0000
0100
0010
0100
0000
0010
0000
,  // measure 8
1000
0100
1000
0000
0001
0000
0100
0010
,  // measure 9
0100
0001
1000
0100
,  // measure 10
1000
0000
0001
0100
0001
0000
1000
0000
,  // measure 11
0010
1000
0010
0000
0100
0000
0001
0000
,  // measure 12
1000
0010
0100
0010
,  // measure 13
1000
0000
0100
0010
0100
0000
1000
0000
,  // measure 14
0001
0100
0001
0000
0010
0000
0001
1000
,  // measure 15
0001
0100
0010
0100
,  // measure 16
0001
0000
1000
0010
1000
0000
0001
0000
,  // measure 17
0100
0010
0100
0000
0001
0000
1000
0100
,  // measure 18
1000
0001
0100
0000
0010
0000
1000
0000
,  // measure 19
0001
0000
0100
0010
1000
0000
0001
0000
,  // measure 20
0100
0010
1000
0000
0100
0000
1000
0001
,  // measure 21
0100
0000
0010
0000
1000
0100
1000
0000
,  // measure 22
0001
0000
0100
0001
0100
0000
0010
0000
,  // measure 23
1000
0000
0100
0000
1000
0001
1000
0001
,  // measure 24
1000
0010
0110
0100
,  // measure 25
0001
0000
1000
0010
0100
0000
0001
0000
,  // measure 26
0010
0100
1000
0000
0001
0000
1000
0001
,  // measure 27
1000
0010
0100
0001
,  // measure 28
1000
0000
0001
0100
0001
0000
1000
0000
,  // measure 29
0010
0100
0001
0000
0010
0000
0001
0000
,  // measure 30
0100
0010
1000
0001
,  // measure 31
1000
0100
1000
0100
1000
0100
1000
0000
,  // measure 32
0001
0000
1000
0000
0001
0100
0001
0100
,  // measure 33
0001
0100
0001
0000
1000
0000
0010
0000
,  // measure 34
0100
0010
0100
0010
0100
0010
0100
0000
,  // measure 35
0001
0000
1000
0000
0001
0000
0100
0010
,  // measure 36
1000
0010
0100
0000
0001
0000
1000
0000
,  // measure 37
0001
0100
0010
1010
,  // measure 38
0000
1000
0100
0010
,  // measure 39
0001
0011
0000
1000
,  // measure 40
0010
0100
0001
0101
,  // measure 41
0000
0000
1000
0000
0010
0000
0100
0010
,  // measure 42
0100
0010
1000
0000
0001
0000
1000
0000
,  // measure 43
0001
0000
0010
0100
1000
0100
0010
0000
,  // measure 44
0001
0000
0100
0000
0010
0000
1000
0100
,  // measure 45
1000
0001
0010
0000
0001
0000
1000
0000
,  // measure 46
0010
0000
1000
0001
0100
0001
1000
0000
,  // measure 47
0010
0000
0100
0000
0001
0010
0001
0100
,  // measure 48
0010
1000
0100
0000
1000
0000
0001
0000
,  // measure 49
0100
0000
0010
1000
0010
0100
0010
0000
,  // measure 50
1000
0000
0001
0000
0010
0000
0001
0100
,  // measure 51
0001
1000
0001
0000
0010
0000
0100
0000
,  // measure 52
1000
0000
0010
0100
0001
1000
0010
0000
,  // measure 53
1000
0000
0100
0000
1000
0000
0001
0010
,  // measure 54
0100
1000
0001
0000
0100
0000
0010
0000
,  // measure 55
1000
0000
0010
1000
0001
1000
0010
0000
,  // measure 56
0100
0000
0001
0000
0010
0000
0001
1000
,  // measure 57
0100
1000
0001
0000
0100
0000
0010
0000
,  // measure 58
2010
0000
3001
0102
,  // measure 59
0000
1003
2010
0000
,  // measure 60
3010
0000
0100
0010
0100
0010
0100
0010
,  // measure 61
1000
0000
0001
0100
0010
0100
0001
1000
,  // measure 62
0010
1000
0001
1000
0100
0000
1000
0000
,  // measure 63
0001
0010
0001
0100
,  // measure 64
0001
0000
0010
0100
1000
0100
0010
0100
,  // measure 65
1000
0100
0010
0001
1000
0000
0001
0000
,  // measure 66
1000
0010
0100
0010
,  // measure 67
1000
0000
0001
0010
0100
0010
0001
0010
,  // measure 68
0100
0010
0001
0010
0001
0000
1000
0000
,  // measure 69
0010
0100
0001
1000
,  // measure 70
0010
0000
1000
0010
1000
0100
0001
1000
,  // measure 71
0001
0100
0010
0110
,  // measure 72
0100
0110
0010
0100
,  // measure 73
1000
0010
1000
0001
1000
0010
1000
0000
,  // measure 74
0001
0000
0100
0000
0001
0010
0001
1000
,  // measure 75
0001
0010
0001
0000
0100
0000
0010
0000
,  // measure 76
1000
0010
0100
0010
1000
0001
0010
0001
,  // measure 77
0100
0010
1000
0001
1000
0000
0001
0000
,  // measure 78
0010
0100
0010
0001
,  // measure 79
1000
0100
0010
0100
1000
0000
0001
0000
,  // measure 80
0100
0000
0010
0000
0100
0001
0010
0001
,  // measure 81
0100
0001
1000
0010
,  // measure 82
1000
0001
1000
0001
0100
0010
0100
0010
,  // measure 83
1000
0100
1000
0100
0010
0001
0010
0001
,  // measure 84
1000
0001
1000
0001
0100
0010
0100
0010
,  // measure 85
2000
0001
3001
0020
,  // measure 86
0100
0130
2000
0100
,  // measure 87
3100
0020
0001
0031
,  // measure 88
0200
0001
0301
2000
,  // measure 89
0010
3010
0200
1000
,  // measure 90
1300
0200
0001
0301
,  // measure 91
1000
0000
0010
1000
0010
0100
0010
1000
,  // measure 92
0010
0100
0010
0000
1000
0000
0001
0000
,  // measure 93
0010
0001
1000
0100
,  // measure 94
2002
0000
3003
0220
,  // measure 95
0000
0330
1001
1000
,  // measure 96
0001
0000
0100
0010
0100
0010
1000
0001
,  // measure 97
0100
0001
0100
0010
1000
0001
1000
0000
,  // measure 98
0001
0000
0100
0000
0010
1000
0001
1000
,  // measure 99
0010
0100
0010
0000
1000
0000
0001
0000
,  // measure 100
0010
0001
1000
0001
0100
0010
1000
0010
,  // measure 101
0100
0001
0100
0010
1000
0000
0010
0000
,  // measure 102
0001
0010
1010
1000
,  // measure 103
0001
0100
0010
0100
0001
0010
0001
0000
,  // measure 104
1000
0000
0100
0000
1000
0100
0010
0100
,  // measure 105
1000
0010
0100
0000
0001
0000
1000
0000
,  // measure 106
0010
0000
1000
0001
0100
0010
1000
0000
,  // measure 107
0001
0000
0010
0000
0001
1000
0100
1000
,  // measure 108
0001
0010
0001
0000
1000
0000
0010
0000
,  // measure 109
0100
0001
0100
0010
0100
0001
0100
0000
,  // measure 110
0010
0000
1000
0000
0001
1000
0100
1000
,  // measure 111
0001
1000
0010
0000
0100
0000
0010
0000
,  // measure 112
2000
0001
3001
0020
,  // measure 113
0100
0130
2000
0010
,  // measure 114
3010
0200
0001
0301
,  // measure 115
0011
0001
1000
1010
,  // measure 116
0010
0100
0110
0010
,  // measure 117
1000
1001
0001
0100
,  // measure 118
0001
0010
0100
1000
0010
0100
0001
0000
,  // measure 119
1000
0000
0100
0000
1000
0100
0010
0001
,  // measure 120
0100
0010
1000
0000
0001
0000
0010
0000
,  // measure 121
0001
1000
0010
0100
0001
0010
0001
0000
,  // measure 122
0100
0000
0010
0000
1000
0010
0100
0010
,  // measure 123
1000
0001
0010
0000
0100
0000
1000
0000
,  // measure 124
0001
0100
0010
0001
0010
0100
0010
0000
,  // measure 125
1000
0000
0010
0000
0100
1000
0100
0010
,  // measure 126
0100
1000
0100
0000
0001
0000
1000
0000
,  // measure 127
0001
0100
0001
0100
0010
1000
0010
1000
,  // measure 128
0100
0010
0100
0010
0001
1000
0001
1000
,  // measure 129
0010
0100
0001
0010
0100
1000
0001
0100
;
