#TITLE:Shoot the Moon;
#SUBTITLE:;
#ARTIST:BEMANI Sound Team "TAG";
#TITLETRANSLIT:;
#SUBTITLETRANSLIT:;
#ARTISTTRANSLIT:TAG;
#GENRE:;
#CREDIT:;
#BANNER:Shoot_the_Moon_banner.png;
#BACKGROUND:Shoot_the_Moon.png;
#LYRICSPATH:;
#CDTITLE:;
#MUSIC:Shoot the Moon.ogg;
#OFFSET:-0.530000;
#SAMPLESTART:84.000000;
#SAMPLELENGTH:12.000000;
#SELECTABLE:YES;
#BPMS:0.000000=138.000000
;
#STOPS:
;
#BGCHANGES:;
#KEYSOUNDS:;
#ATTACKS:;

//---------------dance-single - ----------------
#NOTES:
     dance-single:
     :
     Easy:
     5:
     0.232627,0.271398,0.127218,0.084812,0.000000,192.000000,177.000000,15.000000,10.000000,0.000000,0.000000,0.232627,0.271398,0.127218,0.084812,0.000000,192.000000,177.000000,15.000000,10.000000,0.000000,0.000000:
0000
0000
0000
0000
,
0000
0000
0000
0000
,
0000
0000
0000
0000
,
0000
0000
0000
0000
,
0001
0001
0001
0000
,
1000
1000
1000
0000
,
0010
0000
0110
0000
,
1000
0000
1001
0000
,
0010
1000
0010
0000
,
0100
0001
0100
0000
,
0001
0010
0001
0000
,
1000
0100
1000
0000
,
0001
0010
0100
0000
,
1000
0010
0100
0000
,
0010
1000
0001
0000
,
0100
0000
0110
0000
,
0001
0000
1000
0010
,
1000
0000
0001
0010
,
0001
0000
0101
0000
,
0010
1000
1000
0000
,
0100
1000
0100
0000
,
0010
0001
0010
0000
,
0001
1000
0001
0000
,
0100
0010
1000
0000
,
0002
0000
0000
0000
0013
0000
0001
0001
,
0000
1000
0100
0000
,
2000
0000
0000
0000
3010
0000
1000
1000
,
0000
0010
0110
0000
,
0002
0000
0000
0000
0013
0000
0001
0001
,
0000
0100
0010
0000
,
2000
0000
0000
0000
3100
0000
1000
1000
,
0000
0010
0100
0100
,
0020
0000
1030
0100
,
2000
0000
3001
0010
,
0200
0000
0310
0100
,
0020
0000
0031
1000
,
0020
0000
0130
0100
,
0001
1000
0001
0000
,
1000
0010
1010
0000
,
0001
0100
0101
0000
,
1010
0000
0011
0000
,
1100
0000
0101
0000
,
0010
0100
0010
0000
,
1000
0001
1000
0000
,
0001
0010
0100
1000
,
0001
0100
0100
0000
,
0010
1000
0001
0100
,
0001
0010
0010
0000
,
0001
0100
0001
0000
,
1000
0100
1000
0000
,
0001
0010
0001
0000
,
1000
0000
0110
0000
,
0010
1000
0010
0000
,
0001
0010
0001
0000
,
0010
0100
0010
1000
,
0001
0000
1001
0000
,
0010
0100
0100
0000
,
0001
1000
1000
0000
,
0100
0010
0010
0000
,
0001
1000
0101
0000
,
0010
1000
0100
0000
,
0010
0001
0100
0000
,
0001
0100
1000
0100
,
0020
0000
1030
0000
,
1001
0000
0000
0000
;

//---------------dance-single - ----------------
#NOTES:
     dance-single:
     :
     Medium:
     8:
     0.358633,0.385894,0.135699,0.178105,0.076331,296.000000,280.000000,16.000000,21.000000,0.000000,0.000000,0.358633,0.385894,0.135699,0.178105,0.076331,296.000000,280.000000,16.000000,21.000000,0.000000,0.000000:
0000
0000
0000
0000
,
0000
0000
0000
0000
,
0000
0000
0000
0000
,
0000
0000
0000
0000
,
0001
0100
0000
0100
0010
0100
0010
0000
,
1000
0100
0000
0100
0010
0100
0010
0000
,
0001
0010
0000
0100
0010
1000
0010
0000
,
0001
0100
0000
0010
1000
0010
0100
0000
,
1001
0000
0000
0001
0000
0000
0010
0000
0200
0000
0000
0000
0310
0000
0000
0000
,
0100
0000
0000
1000
0000
0000
0001
0000
2000
0000
0000
0000
3010
0000
0000
0000
,
0100
0000
0000
0010
0000
0000
1000
0000
0001
0000
0000
0000
1001
0000
0000
0000
,
0010
0000
0000
0100
0000
0000
0001
0000
1000
0000
0010
0000
0010
0000
0000
0000
,
0100
0000
0000
0001
0000
0000
0010
0000
0001
0000
0000
0000
0011
0000
0000
0000
,
1000
0000
0000
0100
0000
0000
1000
0000
0010
0000
0000
0000
0110
0000
0000
0000
,
1000
0000
0000
0100
0000
0000
0010
0000
0100
0000
0000
0000
1000
0000
0000
0000
,
0002
0013
0101
0000
,
1000
0100
0000
1000
0100
0000
1000
0000
,
0001
0100
0000
0001
0100
0000
0001
0000
,
1000
0010
0000
1000
0010
0000
1000
0000
,
0001
0010
0000
0001
0010
0000
0001
0000
,
1000
0000
0000
0100
0000
0000
1000
0000
0010
0000
0000
0000
0010
0000
0000
0000
,
0100
0000
0000
0001
0000
0000
0100
0000
0010
0000
0000
0000
0010
0000
0000
0000
,
1000
0000
0000
0001
0000
0000
0010
0000
0100
0000
0000
0000
0100
0000
0000
0000
,
0010
0001
2000
3001
,
0210
0000
0000
0000
0310
0000
0000
1000
,
0000
0001
0010
0100
,
2000
0000
0000
0000
3001
0000
0010
0002
,
0000
0103
0100
0010
,
2000
0000
0000
0000
3001
0000
0010
0100
,
0000
0100
0010
0000
0001
0000
1000
0000
,
1002
0000
0000
0000
0013
0000
0100
0020
,
0000
0130
1000
0001
,
1000
0000
0010
0000
0100
0000
0010
1000
,
0000
0001
1000
0000
0001
0000
0100
0000
,
0010
0000
1000
0000
0100
0000
0010
0001
,
0000
1000
0001
0000
0010
0000
0100
0000
,
2000
0000
0010
0000
3010
0000
0100
0001
,
0000
1000
0001
0000
0001
0000
0010
0000
,
0200
0000
0000
0000
1300
0000
0001
0020
,
0000
0031
1000
0010
,
0110
0000
1001
0000
,
0011
0000
0000
0000
0000
0000
0000
0000
0100
0000
0000
0010
0000
0000
1000
0000
,
0001
0000
0001
0010
0100
0000
1000
0000
,
0001
1000
0100
0010
,
0002
0000
1000
0000
0100
0000
1003
0010
,
0200
0001
0010
0301
,
1000
0100
1000
0000
0001
0010
0001
0000
,
1000
0010
0100
0001
0020
0000
0130
0000
,
1000
0000
0000
0010
0000
0000
0100
0000
0001
0000
0000
0000
0010
0000
0000
0000
,
0001
0000
0000
0100
0000
0000
0010
0000
1000
0000
0000
0000
0100
0000
0000
0000
,
1000
0000
0000
0001
0000
0000
0100
0000
0010
0000
0000
0000
0110
0000
0000
0000
,
1000
0000
0000
0100
0000
0000
0010
0000
0001
0000
1000
0000
0001
0000
0000
0000
,
0100
0000
0000
0010
0000
0000
0100
0000
0001
0000
0000
0000
0010
0000
0000
0000
,
0001
0000
0000
1000
0000
0000
0100
0000
1000
0000
0000
0000
0010
0000
0000
0000
,
0100
0000
0000
0001
0000
0000
1000
0000
0010
0000
0000
0000
1000
0000
0000
0000
,
0001
1001
0200
0300
,
0010
1000
0000
0010
1000
0000
0001
0000
,
1000
0100
0000
1000
0100
0000
0010
0000
,
0001
1000
0000
0001
1000
0000
0100
0000
,
0010
0001
2002
3003
,
0100
0000
0110
0000
0001
0010
0100
0000
,
1000
0000
1001
0000
0100
0010
1000
0000
,
0001
0010
0001
0000
1000
0100
1000
0000
,
0001
0010
0100
0000
0010
0100
1000
0000
,
2002
0000
0000
0000
,
3003
0000
0000
0000
;

//---------------dance-single - ----------------
#NOTES:
     dance-single:
     :
     Hard:
     13:
     0.611857,0.578841,0.271398,0.169624,0.381653,505.000000,473.000000,32.000000,20.000000,0.000000,0.000000,0.611857,0.578841,0.271398,0.169624,0.381653,505.000000,473.000000,32.000000,20.000000,0.000000,0.000000:
// measure 0
0000
0000
0000
0000
,  // measure 1
0000
0000
0000
0000
,  // measure 2
0000
0000
0000
0000
,  // measure 3
0000
0000
0000
0000
,  // measure 4
1000
0010
0100
0000
0010
0000
0100
0000
0010
0000
0100
0010
0000
0010
0100
0000
,  // measure 5
0001
0010
0100
0000
0010
0000
0100
0000
0010
0000
0100
0010
0000
0010
0100
0000
,  // measure 6
1000
0001
1000
0000
0010
0000
0100
0000
0001
0000
0010
0100
0000
1000
0100
0000
,  // measure 7
1000
0001
1000
0000
0010
0000
0100
0000
0001
0000
1000
0100
0000
0010
0001
0000
,  // measure 8
1000
0000
0000
1010
0000
0000
0100
0000
0001
0000
0010
0000
0001
0000
0100
0000
,  // measure 9
0010
0000
0000
0101
0000
0000
0010
0000
1000
0000
0100
0000
0010
0000
0001
0000
,  // measure 10
0100
0000
0000
1010
0000
0000
0100
0000
0001
0000
0010
0001
0010
0000
0001
0000
,  // measure 11
1000
0000
0001
0100
0000
0001
1000
0000
0200
0000
0010
0000
0310
0000
0000
0000
,  // measure 12
0011
0000
0001
1000
0000
0010
1000
0000
0100
0000
0010
0000
0100
0000
1000
0000
,  // measure 13
0001
0000
0100
0010
0000
0100
0001
0000
1000
0000
0100
0000
0010
0000
0001
0000
,  // measure 14
0100
0000
0000
1010
0000
0000
0001
0000
0010
0000
0100
1000
0100
0000
0010
0000
,  // measure 15
0011
0000
1100
0000
1001
0010
0200
0000
,  // measure 16
1300
0100
0001
0100
0010
1000
0010
0001
,  // measure 17
0010
1000
0100
0001
0100
1000
0010
0100
,  // measure 18
0001
1000
0100
0001
0100
1000
0001
0010
,  // measure 19
1000
0010
0011
0000
1000
0010
1010
0000
,  // measure 20
0100
0000
0010
0100
0010
0000
0100
0000
0001
0000
1000
0000
0010
0000
0100
0000
,  // measure 21
0001
0000
0010
0001
0010
0000
0001
0000
1000
0000
0010
0000
0100
0000
0010
0000
,  // measure 22
1000
0000
0100
1000
0100
0000
1000
0000
0001
0000
0010
0000
0100
0000
0010
0000
,  // measure 23
0001
0100
0110
0000
2000
0000
3010
0000
,  // measure 24
0210
0000
0000
0000
0001
0000
0001
0302
,  // measure 25
0000
0010
0013
0000
2100
0000
3001
0000
,  // measure 26
0210
0000
1000
0000
1300
0000
0100
0002
,  // measure 27
0000
0010
0013
0100
0200
0000
1300
0000
,  // measure 28
1020
0000
0100
0000
0130
0000
0100
0001
,  // measure 29
0000
0000
1000
0000
0001
0000
1000
0000
0001
0000
0000
1010
0000
0000
0100
0000
,  // measure 30
0002
0000
1000
0000
1003
0000
1000
0200
,  // measure 31
0000
0001
0301
0000
0011
0000
1100
0000
,  // measure 32
1000
0000
0010
0000
1000
0010
0000
1000
0010
0000
1000
0010
0000
1000
0010
0000
,  // measure 33
0100
0000
0001
0000
0100
0001
0000
0100
0001
0000
0100
0001
0000
0100
0001
0000
,  // measure 34
1000
0000
0001
0000
1000
0001
0000
1000
0001
0000
1000
0001
0000
1000
0001
0000
,  // measure 35
0100
0000
0010
0000
0100
0010
0000
0100
0010
0000
0100
0010
0000
0100
0010
0000
,  // measure 36
1000
0000
0010
0000
0100
0001
0000
1000
0010
0000
0100
0001
0000
1000
0010
0000
,  // measure 37
1000
0000
0100
0000
0010
0001
0000
1000
0100
0000
0010
0001
0000
1000
0010
0000
,  // measure 38
0100
0000
0001
0000
0010
0100
0000
1000
0001
0000
0010
0100
0000
1000
0001
0000
,  // measure 39
0100
1000
0100
0001
0010
0100
0001
0000
,  // measure 40
1020
0000
0000
0000
0130
0000
0001
0100
0002
0000
0000
0000
0013
0000
0100
1000
,  // measure 41
0200
0000
0000
0000
0310
0000
0001
0000
1000
0000
0000
1010
0000
0000
0100
0000
,  // measure 42
0002
0000
0000
0000
1003
0000
0010
0100
0020
0000
0000
0000
1030
0000
1000
0000
,  // measure 43
0100
1000
0100
0010
0001
0010
1000
0010
,  // measure 44
0001
0100
1000
0100
0010
0100
0001
1000
,  // measure 45
1000
0010
0100
0010
1000
0001
0010
0100
,  // measure 46
1000
1000
0001
0001
0010
0100
0010
0100
,  // measure 47
1000
0001
0000
1000
0001
0000
0100
0000
0010
0000
1000
0000
0101
0000
0000
0000
,  // measure 48
0010
0000
0010
1000
0000
1000
0001
0000
0010
0000
0100
0000
1000
0000
0100
0000
,  // measure 49
0010
0000
0010
0001
0000
0001
1000
0000
0010
0000
1000
0000
0010
0000
0001
0000
,  // measure 50
0010
0000
0010
0100
0000
0100
0001
0000
1000
0000
0100
0000
1001
0000
0000
0000
,  // measure 51
0010
0000
0001
0010
0000
0100
1000
0000
0020
0000
0100
0000
0130
0000
0000
0000
,  // measure 52
1010
0000
1000
0100
0000
0100
0010
0000
0001
0000
0010
0000
1000
0000
0010
0000
,  // measure 53
0001
0000
0001
0100
0000
0100
0010
0000
1000
0000
0100
0000
0001
0000
0100
0000
,  // measure 54
1000
0000
1000
0010
0000
0010
0100
0000
0001
0000
0010
0000
1001
0000
0000
0000
,  // measure 55
0110
0000
1001
0000
0110
0100
0001
1000
,  // measure 56
0001
0000
0010
0001
0000
1000
0100
0000
1000
0000
0010
0000
0001
0000
0010
0000
,  // measure 57
1000
0000
1000
0001
0000
0001
0010
0000
0100
0000
1000
0000
0100
0000
0001
0000
,  // measure 58
0100
0000
1000
0010
0000
0100
0001
0000
1000
0000
0010
0000
0001
0000
0010
0000
,  // measure 59
0100
0010
1001
0000
1000
0001
0110
0000
,  // measure 60
1000
0000
0010
0000
0110
0000
0000
0000
0001
0000
0001
0010
0000
0010
0100
0000
,  // measure 61
1000
0000
0010
0000
0110
0000
0000
0000
1000
0000
1000
0100
0000
0100
0010
0000
,  // measure 62
0001
0100
0010
1000
0100
0010
0001
1000
,  // measure 63
0010
0100
0000
0010
0100
0000
0010
0100
0000
0001
1000
0000
0001
0000
0010
0000
,  // measure 64
0220
0000
0000
0000
,  // measure 65
0330
0000
0000
0000
;
