#TITLE:深海の夢;
#SUBTITLE:;
#ARTIST:BEMANI Sound Team "HuΣeR" feat.霜月はるか;
#TITLETRANSLIT:Shinkai no yume;
#SUBTITLETRANSLIT:;
#ARTISTTRANSLIT:HuMeR feat.Haruka Shimotsuki;
#GENRE:;
#CREDIT:;
#BANNER:Shinkai no yume_banner.png;
#BACKGROUND:Shinkai no yume_bg.png;
#LYRICSPATH:;
#CDTITLE:;
#MUSIC:Shinkai no yume.ogg;
#OFFSET:-0.900000;
#SAMPLESTART:56.476002;
#SAMPLELENGTH:9.470000;
#LASTBEATHINT:401.000000;
#SELECTABLE:YES;
#BPMS:0.000000=190.000000
,254.000000=95.000000
,274.000000=190.000000
;
#STOPS:
;
#BGCHANGES:;
#KEYSOUNDS:;
#ATTACKS:;

//---------------dance-single - ----------------
#NOTES:
     dance-single:
     :
     Easy:
     5:
     0.147230,0.290179,0.051165,0.175423,0.000000,141.000000,134.000000,7.000000,24.000000,0.000000,0.000000,0.147230,0.290179,0.051165,0.175423,0.000000,141.000000,134.000000,7.000000,24.000000,0.000000,0.000000:
0000
0000
0000
0000
,
0000
0000
0000
0000
,
0000
0000
0000
0000
,
0000
0000
0000
0000
,
0000
0000
0000
0000
,
0020
0000
0000
0000
,
0000
0030
0000
0000
,
0000
0000
0000
0000
,
0000
0000
0000
0000
,
0000
0000
0000
0000
,
1000
0000
0000
1000
,
0000
0000
0001
0000
,
0000
0001
0000
0000
,
0100
0000
0000
0100
,
0000
0000
0100
0000
,
0000
0010
0000
0000
,
1000
0000
0000
0100
,
0000
0000
0010
0000
,
0000
0001
0000
0000
,
0100
0000
0000
0010
,
0000
0000
1000
0000
,
0000
1001
0000
0000
,
0100
0000
0000
0001
,
0000
0000
0010
0000
,
0000
0100
0000
0000
,
1000
0000
0000
0010
,
0000
0000
0100
0000
,
0000
0001
0000
0000
,
0010
0000
0000
0100
,
0000
0000
1000
0000
,
0000
0001
0000
0000
,
0010
0000
0000
0010
,
0000
0000
0100
0000
,
0000
0100
0000
0000
,
2002
0000
3003
0000
,
0000
0010
0000
0000
,
0100
0000
0010
0000
,
0000
1000
0000
0001
,
0000
0000
0100
0000
,
0001
0000
0000
0010
,
0000
0100
0000
0000
,
1000
0000
0010
0000
,
0000
0100
0000
0001
,
0000
0000
0110
0000
,
2000
0000
3000
0002
,
0000
1003
0000
0000
,
0020
0000
0130
0000
,
0000
0200
0000
0310
,
0000
0000
1000
0000
,
0200
0000
0000
1300
,
0000
0001
0000
0000
,
0010
0000
2002
0000
,
0000
3003
0000
0000
,
0100
0000
0000
0010
,
0000
0000
0100
0000
,
0000
0001
0000
0000
,
0010
0000
0000
0001
,
0000
0000
1000
0000
,
0000
0010
0000
0000
,
0100
0000
0000
0010
,
0000
0000
1000
0000
,
0000
0001
0000
0000
,
0010
0000
0000
0001
,
0000
0000
2002
3003
,
0000
0010
0000
0000
0100
0000
0010
0000
,
0000
1000
0000
0100
0000
0000
1000
0000
,
0001
0000
0000
0010
0000
0001
0000
0000
,
0100
0000
0010
0000
0000
1000
0000
0001
,
0000
1001
0200
0000
,
0000
0310
0000
0010
,
0000
0000
1000
0000
,
0200
0000
0000
0310
,
0000
0001
0000
0000
,
0100
0000
0002
0000
,
0000
1003
0000
0010
,
0000
0000
0100
0000
,
0001
0000
0000
0010
,
0000
0220
0000
0000
,
0000
0330
0000
0000
,
0000
0000
0000
0000
,
0000
0000
0000
0000
,
0001
0000
0000
1000
,
0000
0020
0000
0000
,
0130
0000
0001
0000
,
0010
0001
0000
1000
,
0010
0000
0100
0010
,
0200
0000
0000
0300
,
0000
0002
0000
0000
,
1003
0000
2000
0000
,
0000
3010
0000
0020
,
0000
0000
0030
0000
,
0100
0000
0000
0010
,
0000
2000
0000
0001
,
3001
0000
0200
0000
,
0000
0000
0000
0000
,
0000
0000
0000
0000
,
0000
0300
0010
0000
,
0000
0010
0000
0000
,
0010
0000
0000
1000
,
0001
1000
0000
0000
;

//---------------dance-single - ----------------
#NOTES:
     dance-single:
     :
     Medium:
     9:
     0.352935,0.544086,0.168114,0.226588,0.003655,338.000000,315.000000,23.000000,31.000000,0.000000,0.000000,0.352935,0.544086,0.168114,0.226588,0.003655,338.000000,315.000000,23.000000,31.000000,0.000000,0.000000:
0000
0000
0000
0000
,
0000
0000
0000
0000
,
0000
0000
0000
0000
,
0000
0000
0000
0000
,
0000
0000
0000
0000
,
2002
0000
0000
3003
,
0000
0220
0000
0000
,
0000
0000
0000
0000
,
0000
0000
0330
0000
,
0000
0000
0000
0001
,
0010
0000
0001
1000
,
0000
0010
0100
0000
,
0010
1000
0000
0100
,
1000
0000
0010
1000
,
0000
0001
0100
0000
,
0010
0000
0220
0000
0000
0330
0000
0000
,
1000
0100
1000
0010
,
1000
0100
0010
0001
,
0100
0001
0000
1000
,
1001
0000
0010
0110
,
0000
0001
0010
0100
,
1000
0000
2002
0000
0000
3003
0000
0000
,
0010
0100
0010
1000
,
0100
1000
0001
0100
,
0001
0011
0000
0100
,
1000
0010
1000
0100
,
0010
0001
1000
0010
,
0100
0000
0202
0000
0000
0303
0000
0000
,
0010
1000
0100
0010
,
0100
1000
0001
0100
,
0010
1010
0000
0100
,
0001
0010
0100
1000
,
0001
1000
0010
0100
,
0001
1000
0001
0000
0000
0000
0100
0000
,
0220
0000
0330
0010
,
0010
1000
0000
0100
,
1000
0001
0200
0000
,
0010
0310
1000
0001
,
0000
0010
0001
1000
,
1200
0000
0000
0310
,
0001
1000
0000
0010
,
1000
0000
0001
0000
0100
0000
0000
0001
,
0000
0010
0100
1000
,
0010
0100
0220
0330
,
1001
0000
0010
0001
,
1000
0100
2000
0000
0000
0000
3010
0000
,
0100
0001
0010
0000
,
0001
0000
1000
0000
0001
0010
0200
0000
,
0000
0000
1300
0010
,
1000
0001
0100
0010
,
0100
0010
0100
0000
0001
0000
0010
0000
,
0001
0000
1100
0010
,
1000
0010
1000
0100
,
0010
0001
0100
0001
,
1000
0001
0010
0001
,
1000
0010
1000
0100
,
1000
0001
0010
0220
,
0000
0330
0000
0000
0001
0000
0100
0000
,
0010
0100
0001
1000
,
0010
0100
0010
1000
,
0100
0100
1000
0010
,
1000
0001
0010
0001
,
0100
0000
0010
0100
0010
0000
1000
0000
,
0001
0000
1000
0000
0110
0000
0001
0001
,
0010
0200
0000
0000
1300
0010
1000
0000
,
0100
1000
0010
0200
0000
0000
0301
0000
,
0011
0000
1000
0010
0100
0010
0000
1000
,
0100
0000
0010
0000
0001
0000
0000
0100
0000
0000
0001
0000
0010
0000
0100
0000
,
1000
0010
0020
0030
0110
0000
0000
0000
,
0010
1000
0100
0010
,
0000
0001
0100
0001
,
0010
0000
0100
1000
,
0001
1000
0000
0010
,
2020
3030
0100
0001
,
0010
0001
0100
0010
,
1000
0100
1000
0000
,
1001
0000
0000
0010
0000
0100
0010
0000
,
1000
0100
0000
0010
,
0001
0000
0100
0000
0001
0000
0010
0100
,
0010
0100
1000
0010
,
0100
0010
0100
0000
0001
0000
0000
0000
,
1001
0000
0000
0100
0000
1000
0010
0000
,
1000
0000
0001
0000
0000
0010
0001
0000
,
1000
0100
0010
0000
,
0010
0100
1000
0001
,
1000
0010
0100
0001
,
0021
0000
0130
1000
,
0010
0200
0000
0301
,
1000
0100
2000
0000
,
3010
0100
0001
0020
,
0000
0031
1000
0001
,
1000
0000
0100
1000
0000
0100
1000
0000
,
0001
0000
0100
0000
0001
0010
0000
0001
,
0010
0001
2000
0000
,
0000
0010
0000
0000
,
0001
0000
0000
0010
,
0000
3000
0002
0000
,
0000
0100
0000
0000
,
1000
0000
0000
0103
,
0010
1001
0000
0000
;

//---------------dance-single - ----------------
#NOTES:
     dance-single:
     :
     Hard:
     13:
     0.649484,0.906810,0.518960,0.314300,0.062129,622.000000,551.000000,71.000000,43.000000,0.000000,0.000000,0.649484,0.906810,0.518960,0.314300,0.062129,622.000000,551.000000,71.000000,43.000000,0.000000,0.000000:
// measure 0
0000
0000
0000
0000
,  // measure 1
0000
0000
0000
0000
,  // measure 2
0000
0000
0000
0000
,  // measure 3
0000
0000
0000
0000
,  // measure 4
0000
0000
0000
0000
,  // measure 5
0220
0000
0000
0000
,  // measure 6
0330
2002
0000
0000
,  // measure 7
0000
3003
0022
0000
,  // measure 8
0000
0000
0000
0000
,  // measure 9
0033
0000
0000
0100
,  // measure 10
1200
1300
0010
0120
,  // measure 11
0130
0001
0012
0013
,  // measure 12
0001
0100
1000
0000
1000
0100
0001
0000
,  // measure 13
2001
3010
0100
0120
,  // measure 14
1030
0100
0120
0031
,  // measure 15
0100
0010
0100
0000
0001
0010
0100
0000
,  // measure 16
1100
0000
1000
0010
0100
0000
0110
0000
,  // measure 17
0100
0001
0010
0000
0011
0000
0001
1000
,  // measure 18
0100
0010
0001
0000
0100
0010
1000
0000
,  // measure 19
0101
0000
0010
0100
0001
0000
0011
0000
,  // measure 20
0010
0100
1000
0000
1001
0000
0010
0001
,  // measure 21
1000
0010
1000
0100
0001
0100
1000
0000
,  // measure 22
1001
0000
0010
0100
0010
1000
0010
0000
,  // measure 23
0100
0001
0100
1000
0100
0000
0001
0010
,  // measure 24
0100
0010
0001
0000
1000
0010
0100
0010
,  // measure 25
1000
0000
0001
0010
1000
0010
0001
0000
,  // measure 26
1000
0100
0001
0100
1000
0000
0001
0100
,  // measure 27
1000
0001
0020
0000
1030
0000
0001
0000
,  // measure 28
1001
0000
0010
0100
1000
0000
1001
0000
,  // measure 29
0100
0010
0001
0000
1001
0000
0010
0100
,  // measure 30
0001
1000
0100
0000
1000
0010
0100
0000
,  // measure 31
0110
0000
0001
0010
0100
0000
0110
0000
,  // measure 32
1000
0100
0010
0001
0100
0000
0010
1000
,  // measure 33
0100
0001
2000
0000
3010
0000
0001
0000
,  // measure 34
1001
0000
0010
0010
0000
0100
0100
0010
,  // measure 35
1000
0000
1001
0000
0010
0010
0000
0100
,  // measure 36
0001
0010
0100
0000
1100
0000
0001
0001
,  // measure 37
0000
1000
0010
0100
0010
0000
0101
0000
,  // measure 38
0010
0010
0000
0100
1000
0100
0010
0000
,  // measure 39
1100
0000
0001
0001
0000
0010
0100
1000
,  // measure 40
0001
0000
0101
0000
0010
0001
0100
0001
,  // measure 41
0010
0100
1000
0000
1001
0000
0000
0010
,  // measure 42
0000
0100
0100
0010
1000
0000
1100
0000
,  // measure 43
1001
0110
2002
3003
,  // measure 44
1002
0000
0100
0100
0000
1003
0010
1000
,  // measure 45
0001
0000
2010
0000
0100
0100
0000
3100
,  // measure 46
0010
0001
0100
0000
0120
0000
1000
1000
,  // measure 47
0000
0130
0001
1000
0100
0000
1002
0000
,  // measure 48
0100
0100
0000
0013
0001
1000
0010
0000
,  // measure 49
0120
0000
0001
0001
0000
1030
0001
1000
,  // measure 50
0100
0000
0210
0000
0001
0001
0000
1300
,  // measure 51
0010
0001
1000
0000
0110
0000
0001
0010
,  // measure 52
0100
1000
0010
0000
1000
0100
0010
0001
,  // measure 53
0100
0000
0010
0100
0001
0100
0010
1000
,  // measure 54
0001
0000
1001
0000
1100
0000
0010
1000
,  // measure 55
0100
1000
0010
0000
0100
0001
0010
0001
,  // measure 56
0100
0000
0001
1000
0010
0100
0001
0010
,  // measure 57
0100
0000
1001
0000
0101
0000
1000
0100
,  // measure 58
0001
0100
1000
0000
0001
0010
1000
0010
,  // measure 59
0001
0000
1000
0100
0001
1000
0010
0001
,  // measure 60
0100
0000
0110
0000
0011
0000
1000
0001
,  // measure 61
0010
0100
1000
0010
1000
0001
0100
0010
,  // measure 62
1000
0100
0010
0001
1000
0001
0100
1000
,  // measure 63
0001
0000
0010
0000
1000
0000
0000
0000
0120
0000
0100
0100
0000
1000
1030
0000
,  // measure 64
0001
0000
0021
0000
0000
0100
0000
0130
0010
0000
0001
0000
1002
0000
0010
0010
,  // measure 65
0000
0100
0103
0000
0010
0000
1010
0000
1000
0100
0010
0001
0100
0000
0010
0000
,  // measure 66
0210
0000
0001
0001
0000
0010
0310
0000
1000
0000
1200
0000
0010
0010
0000
1300
,  // measure 67
1000
0010
0100
0000
0001
0000
0010
0001
0000
0001
0010
0100
1000
0000
0010
0100
,  // measure 68
0010
1001
0220
0330
1200
0000
0010
0010
,  // measure 69
0000
1300
1000
0010
0100
0000
0021
0000
,  // measure 70
0100
0100
0000
0031
0001
1000
0010
0000
,  // measure 71
0102
0000
0010
0010
0000
1003
1000
0010
,  // measure 72
0100
0000
2001
0000
0010
0010
0000
3100
,  // measure 73
0010
1000
0001
0000
0011
0000
0010
0100
,  // measure 74
1000
0010
0100
0000
0010
0000
1010
0000
,  // measure 75
1000
0100
0010
0100
1000
0001
0100
0000
,  // measure 76
0110
0000
0001
1000
0100
1000
0010
0100
,  // measure 77
0010
1000
0200
0000
0310
0001
0100
0010
,  // measure 78
0100
0001
0010
0001
1000
0100
0001
1000
,  // measure 79
0010
0001
1000
0001
0100
1000
0001
0010
,  // measure 80
1000
0001
1000
0100
0010
0000
0001
0000
,  // measure 81
1001
0000
0010
0100
0001
0010
0001
0100
,  // measure 82
0010
0100
0002
0000
1003
0010
0100
0001
,  // measure 83
1000
0001
0010
0100
1000
0010
0001
1000
,  // measure 84
0100
0001
0010
1000
0001
0100
1000
0001
,  // measure 85
0010
0001
0100
0010
1000
0100
0001
0100
,  // measure 86
2000
0000
0010
0010
0000
0001
3001
0010
,  // measure 87
0100
0000
0012
0000
0100
0100
0000
1003
,  // measure 88
1000
0010
0100
0000
2010
0000
0001
0001
,  // measure 89
0000
3010
0100
0010
1000
0000
1200
0000
,  // measure 90
0010
0010
0000
1300
0001
0100
0010
0000
,  // measure 91
1001
0000
0010
0001
0010
0100
1000
0000
,  // measure 92
0010
0100
0010
0000
1000
0100
0010
0001
,  // measure 93
0100
0010
0100
0100
0200
0000
0001
0000
,  // measure 94
0301
0002
0010
0013
,  // measure 95
2000
0010
3010
0200
,  // measure 96
0010
0000
0310
0000
1001
0000
0100
1000
,  // measure 97
0100
0000
0110
0000
0010
1000
0010
0000
,  // measure 98
0110
0000
0100
0001
0100
0000
0011
0000
,  // measure 99
0110
1100
0000
0000
;
