#VERSION:0.83;
#TITLE:雪月花;
#SUBTITLE:;
#ARTIST:Ryu☆;
#TITLETRANSLIT:Setsugekka;
#SUBTITLETRANSLIT:;
#ARTISTTRANSLIT:;
#GENRE:HARD HOUSE;
#ORIGIN:;
#CREDIT:;
#BANNER:Setsugekka_banner.png;
#BACKGROUND:Setsugekka.png;
#PREVIEWVID:;
#JACKET:;
#CDIMAGE:;
#DISCIMAGE:;
#LYRICSPATH:;
#CDTITLE:;
#MUSIC:Setsugekka.ogg;
#OFFSET:-0.410000;
#SAMPLESTART:84.643997;
#SAMPLELENGTH:12.720000;
#SELECTABLE:YES;
#BPMS:0.000=151.000;
#STOPS:;
#DELAYS:;
#WARPS:;
#TIMESIGNATURES:0.000=4=4;
#TICKCOUNTS:0.000=4;
#COMBOS:0.000=1;
#SPEEDS:0.000=1.000=0.000=0;
#SCROLLS:0.000=1.000;
#FAKES:;
#LABELS:0.000=Song Start;
#LASTSECONDHINT:110.078880;
#BGCHANGES:;
#KEYSOUNDS:;
#ATTACKS:
;

//---------------dance-single - ----------------
#NOTEDATA:;
#CHARTNAME:;
#STEPSTYPE:dance-single;
#DESCRIPTION:;
#CHARTSTYLE:;
#DIFFICULTY:Easy;
#METER:4;
#RADARVALUES:0.191173,0.267589,0.077703,0.051802,0.000000,155.000000,146.000000,9.000000,6.000000,0.000000,0.000000,0.000000,0.000000,0.000000,0.191173,0.267589,0.077703,0.051802,0.000000,155.000000,146.000000,9.000000,6.000000,0.000000,0.000000,0.000000,0.000000,0.000000;
#CREDIT:;
#NOTES:
0000
0000
0000
0000
,
0000
0000
0000
0000
,
0000
0000
0000
0000
,
0000
0000
0000
0000
,
0000
0000
0000
0000
,
0000
0000
0000
0000
,
0000
0000
0000
0000
,
0000
0000
0000
0000
,
0000
0000
0000
0000
,
0000
0000
0000
0000
,
0010
0100
0010
0000
,
1000
0010
1000
0000
,
0001
0010
0001
0000
,
0100
0001
1000
0000
,
0001
0010
0100
0000
,
0010
0100
1000
0000
,
0010
0100
0001
1000
,
2002
0000
3003
0000
,
1000
0010
0100
0000
,
0010
0100
0001
0000
,
0001
0010
0100
0000
,
0010
0100
1000
0000
,
0001
1000
0100
0000
,
0100
1000
0001
0000
,
0010
1000
0001
0000
,
0001
0100
0010
1000
,
0220
0000
0330
0000
,
0000
0000
0000
0001
,
1001
0000
0000
0000
,
1000
0000
0010
0000
,
1100
0000
0000
0000
,
0101
0000
0000
0000
,
0110
0000
0010
0000
,
1000
0001
1000
0001
,
1000
0000
0100
0010
,
0100
0000
0010
0001
,
1000
0000
1000
0010
,
0100
0000
0100
0001
,
0010
0000
0010
0100
,
1000
0000
1000
0001
,
0100
0000
0110
0000
,
0001
0000
1001
0000
,
0200
0000
0300
0000
,
0100
0000
0000
0000
,
0100
0000
0000
0000
,
0100
0000
0000
0000
,
0010
0000
0000
0000
,
0010
0000
0000
0000
,
0010
0000
0000
0000
,
0010
0000
0000
0000
,
0001
0000
0001
0000
,
1000
0000
1000
0000
,
0010
0100
0002
0000
,
1003
0000
1000
0100
,
0010
0000
0001
0010
,
0001
0000
0100
0010
,
1000
0000
1001
0000
,
0010
0000
0010
1000
,
0100
0000
0100
0010
,
0001
0000
0001
0100
,
0010
0000
0010
1000
,
0010
0000
0100
0001
,
1000
0000
0001
1000
,
0100
0000
0100
1000
,
0001
0000
0100
0100
,
0010
0000
0010
1000
,
0001
0000
0010
0001
,
1000
0001
0100
0000
,
0010
0000
0000
0000
0010
0000
0100
0100
;

//---------------dance-single - ----------------
#NOTEDATA:;
#CHARTNAME:;
#STEPSTYPE:dance-single;
#DESCRIPTION:;
#CHARTSTYLE:;
#DIFFICULTY:Medium;
#METER:11;
#RADARVALUES:0.478550,0.535178,0.172673,0.207207,0.060435,388.000000,368.000000,20.000000,24.000000,0.000000,0.000000,0.000000,0.000000,0.000000,0.478550,0.535178,0.172673,0.207207,0.060435,388.000000,368.000000,20.000000,24.000000,0.000000,0.000000,0.000000,0.000000,0.000000;
#CREDIT:;
#NOTES:
0000
0000
0000
0000
,
0000
0000
0000
0000
,
0000
0000
0000
0000
,
0000
0000
0000
0000
,
0000
0000
0000
0000
,
1002
0000
0000
0000
,
0203
0000
0310
1000
,
2001
0000
0000
0000
,
3020
0000
0200
0330
,
2002
0000
0000
0000
0000
3003
0000
0000
,
0010
0100
0001
0000
0010
0100
1000
0100
,
0010
0001
0100
0000
0010
1000
0001
1000
,
0100
0010
0001
0000
0100
0010
0001
0010
,
0100
0001
1000
0000
1000
0100
0010
0001
,
0100
0010
0100
0000
0001
0010
0100
1000
,
0010
1000
0100
0000
0100
1000
0001
0010
,
0001
0100
0001
0000
0010
0100
1000
0001
,
2002
0000
0000
0000
0000
3003
0000
0000
,
0100
0001
0010
0001
1000
0010
0100
0000
,
0010
1000
0100
0010
0100
1000
0001
0000
,
0100
0001
0010
0001
1000
0100
0010
0000
,
0001
1000
0010
0100
0001
0010
0100
1000
,
0010
0100
0010
1000
0001
0010
1000
0000
,
1000
0010
0001
1000
0010
0100
0010
0000
,
1000
0100
1000
0010
0100
0001
0010
0000
,
0001
0100
0001
0010
0001
1000
0100
0010
,
0002
0000
0003
0000
,
1001
0000
0100
0010
,
0220
0000
0330
0000
,
1010
0000
0000
0000
0000
0000
0000
0000
0001
0000
0000
0001
0000
0000
0001
0000
,
0102
0000
0013
1000
,
2010
0000
0000
0000
3100
0000
1000
0100
,
1100
0000
0001
0010
0011
0000
1000
0001
,
0010
1000
0010
0001
1000
0100
0001
0100
,
1000
0010
0100
0001
0010
0100
1000
0010
,
0100
0001
1000
0100
0010
0001
1000
0000
,
0001
0010
0100
1000
0010
0100
0001
0010
,
0100
1000
0010
0100
0001
1000
0100
0000
,
0010
0100
1000
0001
0010
0100
1000
0001
,
1000
0010
0100
0001
1000
0010
0100
0000
,
0010
1000
0100
1000
0001
0010
0001
0100
,
0010
0000
0100
0010
0000
0000
0100
0000
0001
0000
0000
1001
0000
0000
1000
0000
,
0200
0000
0310
0010
,
0002
0000
1003
0010
,
1020
0000
1030
0100
,
1002
0000
0013
0100
,
2200
0000
0000
3300
,
0201
0000
0310
0100
,
2002
0000
0000
0003
,
0010
0000
3001
0011
,
1000
0000
0100
0000
0010
0000
0100
0000
1000
0000
0001
1000
0000
0000
0001
0000
,
0100
0010
0100
0010
1000
0001
1000
0001
,
1000
0100
0001
0100
1000
0001
1001
0000
,
0010
0100
0001
0000
0010
0100
1000
0010
,
0100
0000
0000
0100
0001
0000
0010
0000
0100
0000
1000
0000
0001
0000
0000
0000
,
1000
0010
0100
0000
0010
0100
0001
0010
,
0100
0000
0000
0100
1000
0000
0010
0000
0100
0000
0010
0000
2000
0000
0000
0000
,
3001
0100
0010
0000
1000
0100
0010
0001
,
1000
0000
0000
1000
0010
0000
0100
0000
0001
0000
1000
0000
0100
0000
0010
0000
,
0001
0100
0010
0000
1000
0010
0001
0010
,
0100
0000
0000
0100
0010
0000
0000
0010
1000
0000
0001
0000
0010
0000
0100
0000
,
1000
0100
0001
0000
0001
0100
1000
0010
,
0100
0000
0000
0100
0010
0000
1000
0000
0001
0000
0010
0000
0100
0000
1000
0000
,
0010
1000
0010
0000
0100
0001
0100
0010
,
1000
0000
0000
1000
0010
0000
0100
0000
0001
0000
0010
0000
0100
0000
0010
0000
,
0001
1000
0010
0000
1000
0010
0100
0001
,
0010
0000
0000
0010
0100
0000
0010
0000
0001
0000
1000
0000
0010
0000
0100
0000
,
0010
1000
0100
1000
0010
0100
0001
0010
,
0001
0000
0000
1000
0010
0000
0100
0000
0000
0001
0010
0000
0100
0000
0110
0000
;

//---------------dance-single - ----------------
#NOTEDATA:;
#CHARTNAME:;
#STEPSTYPE:dance-single;
#DESCRIPTION:;
#CHARTSTYLE:;
#DIFFICULTY:Hard;
#METER:16;
#RADARVALUES:0.770861,0.802767,0.388514,0.112237,0.824513,625.000000,580.000000,45.000000,13.000000,0.000000,0.000000,0.000000,0.000000,0.000000,0.770861,0.802767,0.388514,0.112237,0.824513,625.000000,580.000000,45.000000,13.000000,0.000000,0.000000,0.000000,0.000000,0.000000;
#CREDIT:;
#NOTES:
// measure 0
0000
0000
0000
0000
,  // measure 1
0000
0000
0000
0000
,  // measure 2
0000
0000
0000
0000
,  // measure 3
0000
0000
0000
0000
,  // measure 4
0000
0000
0000
0000
,  // measure 5
1000
0001
0010
0100
1000
0010
0100
0001
,  // measure 6
0010
0100
1000
0001
0100
0010
1000
0000
,  // measure 7
0010
0100
0001
0010
0001
1000
0100
0010
,  // measure 8
0001
0100
0010
1000
0001
0010
0100
0000
,  // measure 9
0220
0000
0000
0330
,  // measure 10
0001
0100
0001
0000
1000
0000
0010
1000
0000
0001
0000
0010
0000
0001
0100
0000
,  // measure 11
0010
1000
0010
0000
1000
0000
0100
0010
0000
0001
0000
0100
0000
0010
1000
0000
,  // measure 12
0001
1000
0001
0000
0010
0000
0100
1000
0000
0010
0000
0100
0000
0001
0010
0000
,  // measure 13
0100
1000
0100
0000
1000
0000
0010
0100
0010
0000
1000
0100
0010
0000
0001
0000
,  // measure 14
0100
0010
0100
0000
0001
0000
0010
0001
0000
1000
0000
0010
0000
0100
0001
0000
,  // measure 15
1000
0010
1000
0000
0001
0000
0010
0001
0000
1000
0000
0100
0000
1000
0010
0000
,  // measure 16
0100
0001
0100
0000
0001
0000
0010
0001
0000
1000
0000
0010
0000
0100
0001
0000
,  // measure 17
1000
0000
0010
0100
0010
0000
1000
0000
0001
0000
0010
0100
0010
0000
0001
0000
,  // measure 18
1000
0010
0100
0000
0001
0000
0010
0100
0000
1000
0000
1010
0000
0100
0001
0000
,  // measure 19
0010
0001
0100
0000
0010
0000
1000
0001
0000
0011
0000
0100
0000
0010
1000
0000
,  // measure 20
0100
1000
0001
0000
0100
0000
0010
1000
0000
0001
0000
1001
0000
0100
0010
0000
,  // measure 21
1000
0010
0100
0000
0001
0000
0010
0001
1000
0000
0010
0100
0010
0000
1000
0000
,  // measure 22
0001
0010
0100
0000
0010
0000
0001
1000
0000
0010
0000
0110
0000
1000
0100
0000
,  // measure 23
1000
0001
0010
0000
0001
0000
0100
0010
0000
1000
0000
1100
0000
0001
0100
0000
,  // measure 24
0010
1000
0001
0000
0010
0000
0100
1000
0000
0001
0000
0101
0000
1000
0010
0000
,  // measure 25
0100
0000
0001
0010
0001
0000
1000
0000
0010
0100
0010
0100
0010
0000
1000
0000
,  // measure 26
0001
0000
0010
0001
0010
0000
0010
0000
0100
0000
1000
0100
1000
0000
0100
0000
,  // measure 27
1000
0000
0010
1000
0010
0000
1000
0000
0001
0000
1000
0000
1001
0000
0000
0000
,  // measure 28
0110
0000
0000
0100
0000
0000
0100
0000
1010
0000
0000
0010
0000
0000
0010
0000
,  // measure 29
1001
0000
0000
1000
0000
0000
1000
0000
0101
0000
0000
1100
0000
0000
0101
0000
,  // measure 30
0110
0000
0000
0011
0000
0000
1100
0000
1010
0000
0000
0011
0000
0000
1001
0000
,  // measure 31
1010
0000
0000
1100
0000
0000
1001
0000
0011
0000
0000
1001
0000
0000
0101
0000
,  // measure 32
0110
0000
0000
1001
0000
0000
1001
0000
0110
0000
0000
1001
0000
0000
1001
0000
,  // measure 33
0010
0000
0100
0001
0010
0000
0100
1000
0010
0000
0100
0010
0100
0000
0001
0000
,  // measure 34
1000
0000
0100
1000
0010
0000
0100
0000
0001
0000
0010
0001
0100
0000
0010
0000
,  // measure 35
1000
0000
0010
0100
0001
0000
0010
0000
0001
0000
0100
0010
1000
0000
0100
0000
,  // measure 36
1000
0000
0100
0010
0100
0000
1000
0000
0001
0000
0100
0010
0100
0000
0001
0000
,  // measure 37
0100
0000
0001
1000
0001
0000
0100
0000
0010
0000
1000
0001
1000
0000
0010
0000
,  // measure 38
0100
0000
0001
0010
0001
0000
1000
0000
0010
0000
1000
0100
1000
0000
0010
0000
,  // measure 39
0100
0000
0010
1000
0010
0000
0100
0000
0001
0000
0010
0100
0010
0000
0001
0000
,  // measure 40
1000
0000
0001
0010
0100
0000
0010
0000
0001
0000
1000
0010
0100
0000
0010
0000
,  // measure 41
1000
0000
0000
0000
1100
0000
0000
0000
0000
0000
0100
0000
0001
0000
0000
0000
0010
0100
0010
0100
0010
0000
0000
0000
0010
0000
0000
0000
1000
0000
0001
0000
,  // measure 42
0020
0001
0000
0001
0000
0100
0000
0100
,  // measure 43
0000
0001
0000
1000
0000
0001
0000
0031
,  // measure 44
2000
0010
0000
0010
0000
0100
0000
0100
,  // measure 45
0000
0001
0000
3001
0100
0010
1000
0100
,  // measure 46
0010
0001
0020
0000
0000
0000
0000
0000
1000
0000
0000
0000
0000
0000
0000
0000
,  // measure 47
0002
0000
0030
0000
0103
0010
1000
0100
,  // measure 48
1000
0020
2000
0000
0000
0000
0000
0000
0000
0000
0030
0000
0000
0000
0000
0000
,  // measure 49
0200
3300
0101
0110
,  // measure 50
1000
0001
1000
0001
1000
0001
1000
0001
0010
0000
0100
0010
0000
0100
0010
0100
,  // measure 51
0001
0000
0010
0001
0100
0000
0010
1000
0100
0000
1000
0010
0100
0000
0001
0100
,  // measure 52
0001
0000
1001
0000
0001
0000
1001
0000
1000
0010
0100
0001
0010
0100
2000
0000
,  // measure 53
3001
0000
0100
0010
0000
0100
0010
0100
0001
1000
0000
1000
0010
0100
0001
0000
,  // measure 54
0010
0000
0000
0010
0001
0000
1000
0000
0010
0100
0001
0000
1000
0000
0100
0000
,  // measure 55
1000
0000
0010
0100
0000
0010
1000
0010
0100
0001
0000
0001
0010
0100
1000
0000
,  // measure 56
0001
0000
0000
0001
0100
0000
0010
0000
1000
0100
0000
1100
0000
0010
1000
0100
,  // measure 57
1000
0000
0010
0100
0000
0100
0010
0100
0001
1000
0000
1000
0100
1000
0010
0000
,  // measure 58
0100
0000
0000
0100
0001
0000
0010
0000
0100
1000
0010
0000
0100
0000
0001
0000
,  // measure 59
0010
0000
0001
1000
0000
0010
0100
0010
1000
0001
0000
0001
0010
0001
0100
0000
,  // measure 60
0010
0000
0100
0010
0100
0000
0010
0000
1000
0001
0100
0001
1000
0000
1010
0000
,  // measure 61
0100
0000
0001
0010
0000
0001
1000
0001
0000
0100
0010
0100
0010
0000
0110
0000
,  // measure 62
0001
0000
0010
0001
0010
0000
0100
0000
1000
0000
0010
0100
0010
0000
1010
0000
,  // measure 63
0001
0000
1000
0010
0000
1000
0100
1000
0000
0001
0010
0001
1000
0000
1010
0000
,  // measure 64
0100
0000
0000
0100
0001
0000
0010
0001
1000
0000
0010
0000
0110
0000
0010
0000
,  // measure 65
1000
0000
0100
1000
0000
0010
0000
0110
0000
1000
0001
1000
0010
0000
0100
0001
,  // measure 66
1000
0000
0000
1000
0010
0000
0100
0001
0010
0001
0010
0000
0001
0000
1000
0000
,  // measure 67
0010
0010
0200
0000
0310
0010
0200
0000
0310
0010
0200
0000
0301
0010
0100
1000
,  // measure 68
0010
0000
1000
0100
0000
1000
0001
0000
0000
0001
0100
0010
0100
0001
0101
0000
;

//---------------dance-single - ----------------
#NOTEDATA:;
#CHARTNAME:;
#STEPSTYPE:dance-single;
#DESCRIPTION:;
#CHARTSTYLE:;
#DIFFICULTY:Challenge;
#METER:17;
#RADARVALUES:0.826363,0.891963,0.397147,0.146772,0.962651,670.000000,624.000000,46.000000,17.000000,0.000000,0.000000,0.000000,0.000000,0.000000,0.826363,0.891963,0.397147,0.146772,0.962651,670.000000,624.000000,46.000000,17.000000,0.000000,0.000000,0.000000,0.000000,0.000000;
#CREDIT:;
#NOTES:
0000
0000
0000
0000
,
0000
0000
0000
0000
,
0000
0000
0000
0000
,
0000
0000
0000
0000
,
0000
0000
0000
0000
,
1000
0010
0100
0001
1000
0010
0100
0001
,
0010
0100
1000
0001
0010
0100
1001
0000
,
0010
0001
0100
0010
1000
0100
0010
0001
,
1000
0100
0010
0001
0010
0100
1001
0000
,
0220
0000
0000
0330
,
1000
0001
0010
0000
0001
0000
0100
0010
0000
1000
0000
0001
0000
0010
0100
1000
,
0001
1000
0010
0000
0100
0000
0010
1000
0000
0001
0000
0010
0000
0001
1000
0100
,
1000
0010
0100
0000
0010
0000
1000
0100
0000
0010
0000
0001
0000
0100
0010
0100
,
0001
1000
0100
0000
1000
0000
0010
0100
0001
0010
0100
0010
0001
0000
1000
0000
,
0010
0100
0001
0000
0010
0000
0001
1000
0000
0100
0000
0011
0000
0100
1000
0010
,
0100
0010
1000
0000
0010
0000
0100
0001
0000
1000
0000
0101
0000
1000
0010
1000
,
0001
0100
0010
0000
1000
0000
0010
1000
0000
0001
0000
0110
0000
0001
0010
0100
,
1000
0010
0100
0001
0010
0001
1000
0000
0010
0100
0001
0100
0010
0000
1000
0000
,
0001
0010
0100
0000
0010
0000
0001
0100
0000
0110
0000
0010
0000
1000
0100
1000
,
0010
1000
0100
0000
1000
0000
0010
0100
0000
0110
0000
0001
0000
0010
0100
1000
,
0001
1000
0001
0000
0100
0000
0001
0010
0000
0100
0000
1100
0000
0010
0100
0010
,
1000
0001
0100
0000
0010
0000
1000
0001
1000
0100
0010
0001
1000
0000
0010
0000
,
0100
0001
1000
0000
0010
0000
1000
0100
0000
0010
0000
0011
0000
1000
0001
1000
,
0010
0100
0010
0000
1000
0000
0001
1000
0000
0100
0000
0110
0000
0100
1000
0001
,
0100
0010
0100
0000
0001
0000
0010
0001
0000
1000
0000
0101
0000
0010
0100
0010
,
1000
0000
0100
0010
0100
0000
1000
0001
1000
0010
0100
0010
1000
0000
0001
0000
,
0010
0000
0001
0010
0001
0000
0010
0000
0100
0000
1000
0100
1000
0000
0100
0000
,
1000
0000
0010
1000
0010
0000
1000
0000
0001
0000
1000
0000
1001
0000
0000
0000
,
0110
0000
0000
1010
0000
0000
1100
0000
1001
0000
0000
0011
0000
0000
1001
0000
,
0110
0000
0000
0101
0000
0000
1100
0000
1010
0000
0000
0101
0000
0000
0011
0000
,
2001
0000
0000
3010
0000
0000
1010
0000
0012
0000
0000
1003
0000
0000
0011
0000
,
1200
0000
0000
0010
0000
0000
1300
0000
2100
0000
0000
0001
0000
0000
3100
0000
,
1002
0000
0000
0010
0000
0000
1003
0000
0210
0000
0000
0001
0000
0000
0310
0000
,
0010
0000
0000
0000
1000
0100
1000
0100
1000
0000
0000
0000
0010
0001
0010
0001
0010
0000
0000
0000
0001
0000
1000
0000
0000
0000
0000
0000
0100
0000
0000
0000
,
0010
0000
0100
1000
0001
0000
1000
0000
0010
0000
0100
0001
1000
0000
0010
0000
,
1000
0000
0001
0010
0100
0000
1000
0000
0010
0000
0100
0001
0010
0000
0100
0000
,
1000
0000
0100
1000
0010
0000
1000
0000
0001
0000
0010
0001
0100
0000
0001
0000
,
1000
0000
0010
0100
0001
0000
0010
0000
0100
0000
1000
0001
0100
0000
0010
0000
,
1000
0000
0100
0010
0001
0000
1000
0000
0001
0000
0010
0100
1000
0000
0001
0000
,
0100
0000
0001
0010
0100
0000
1000
0000
0010
0000
0100
0010
1000
0000
0100
0000
,
0010
0000
0001
0100
0010
0000
0100
0000
0010
0000
1000
0100
0010
0000
0001
0000
,
1000
0000
0000
0000
1010
0000
0000
0000
0000
0000
0101
0000
0000
0000
0000
0000
0001
0010
0100
1000
0001
0000
0000
0000
1000
0000
0000
0000
0100
0000
0010
0000
,
0200
1000
0000
0001
0000
1000
0000
1300
,
0002
0000
0010
0000
0000
0000
1000
0000
0000
0000
0013
0100
1000
0000
0010
0000
,
0200
0001
0000
1000
0000
0001
0000
0301
,
2000
0000
0010
0000
0000
0000
0100
0000
0000
0000
3100
0010
0001
0000
1000
0000
,
0010
0100
0020
0000
0000
0000
0000
0000
2000
0000
0000
0000
0030
0000
0000
0000
,
0002
0000
0000
3000
0000
0000
0013
0100
1000
0001
1000
0010
,
0100
0010
0200
0000
0000
0000
0000
0000
0000
0000
0000
0000
0000
0000
0000
0000
,
1000
0000
0301
0011
,
1000
0100
0010
0100
1000
0001
0100
0010
0100
0000
0001
0010
0001
0000
1000
0010
,
1000
0000
1000
0100
1000
0000
1000
0001
1000
0000
1000
0010
1000
0000
1000
0100
,
0010
0000
0010
0100
0010
0000
0010
0100
0010
0100
1000
0001
0100
0010
0200
0000
,
0301
0000
0010
0001
0100
0010
0001
0010
1000
0100
0000
0100
1000
0001
0010
0000
,
0001
0000
1000
0100
0010
0000
0100
0000
1000
0010
0100
0000
0010
1000
0100
0000
,
0010
0000
0100
1000
0001
1000
0010
0100
0010
0001
0000
0001
0010
0100
0010
0000
,
1000
0000
0100
0010
0001
0000
0010
0000
0001
1000
0000
1001
0000
0100
0010
0000
,
0100
0000
0010
1000
0001
1000
0010
0000
0100
0001
0000
0001
0010
0100
1000
0000
,
0010
0000
0100
0001
1000
0000
0010
0000
0100
0001
0010
0000
0001
0100
0010
0000
,
0100
0000
1000
0100
0010
0100
0001
0010
0001
1000
0000
1000
0010
0100
0010
0000
,
1000
0000
0000
0000
0100
0010
0100
0010
0100
0000
0000
0000
1000
0100
1000
0100
1000
0000
0000
0000
0001
0000
0010
0000
0100
0000
0000
0000
0110
0000
0000
0000
,
0010
0000
0001
1000
0010
1000
0001
0000
0100
0010
0000
1000
0100
0010
0001
0000
,
1000
0000
0010
0100
1000
0000
0100
0000
0010
0100
0001
0000
0010
0100
1000
0000
,
0010
0000
1000
0001
1000
0010
0100
0000
0001
0010
0000
0010
0100
1000
0001
0000
,
0100
0000
0010
1000
0100
0000
1000
0000
0001
0000
0011
0000
0001
0000
1001
0000
,
1000
0000
0001
0010
0100
0010
0001
0000
1000
0010
0000
0010
0100
0010
0100
0010
,
1000
0000
0100
1000
0001
0000
0010
0100
0010
0000
0110
0000
0010
0000
0110
0000
,
0100
0100
1001
0000
0100
0100
1001
0000
0100
0100
1001
0000
0010
0100
0001
1000
,
0100
0000
0010
0100
0000
1000
0010
0000
0000
0100
0010
0100
0001
1000
1001
0000
;
