#TITLE:Scream out!;
#SUBTITLE:;
#ARTIST:A-One;
#TITLETRANSLIT:;
#SUBTITLETRANSLIT:;
#ARTISTTRANSLIT:;
#GENRE:;
#CREDIT:;
#BANNER:Scream_out!_banner.png;
#BACKGROUND:Scream_out!.png;
#LYRICSPATH:;
#CDTITLE:;
#MUSIC:Scream out!.ogg;
#OFFSET:-0.720000;
#SAMPLESTART:70.099998;
#SAMPLELENGTH:16.000000;
#SELECTABLE:YES;
#BPMS:0.000000=166.000000
;
#STOPS:
;
#BGCHANGES:;
#KEYSOUNDS:;
#ATTACKS:;

//---------------dance-single - ----------------
#NOTES:
     dance-single:
     :
     Easy:
     6:
     0.303820,0.333606,0.166803,0.166803,0.000000,255.000000,235.000000,20.000000,20.000000,0.000000,0.000000,0.303820,0.333606,0.166803,0.166803,0.000000,255.000000,235.000000,20.000000,20.000000,0.000000,0.000000:
0000
0000
0000
0000
,
0000
0000
0000
0000
,
0000
0000
0000
0000
,
0000
0000
0000
0000
,
0001
0100
0010
1000
,
0010
1000
0100
0010
,
0001
0000
1000
0000
0010
0000
1000
0001
,
0000
0000
0000
0000
,
0110
0000
0100
0001
,
1000
0010
1000
0000
,
0001
0010
0100
1000
,
2002
0000
3003
0000
,
0200
0000
0310
1000
,
0001
0010
0100
0000
,
1000
0100
0010
0001
,
0220
0000
0330
0000
,
1001
0000
0100
0010
,
1000
0010
0100
0000
,
0001
0010
0001
0100
,
0002
0000
0003
0000
,
1100
0000
1000
0001
,
0010
0100
1000
0000
,
0010
0100
0001
1000
,
2002
3003
0000
0000
,
0010
1000
0100
1000
,
0001
0100
0001
0000
,
0100
0010
1000
0100
,
1000
0001
0010
0000
,
0001
0100
0010
1000
,
0100
1000
0010
0000
,
0100
0001
0010
0001
,
1000
0010
0100
0000
,
0001
0100
0001
0010
,
0100
1000
1000
0000
,
0001
1000
0100
1000
,
0020
0000
0030
0000
,
0100
0001
0010
0100
,
1000
0001
0001
0000
,
0010
1000
0100
1000
,
2002
0000
3003
0000
,
0100
0010
0110
0000
,
0001
0100
0101
0000
,
1000
0010
1000
0100
,
1000
0001
1000
0000
,
0010
0100
0110
0000
,
1000
0010
1010
0000
,
0002
0000
2003
0000
,
3010
0100
0110
0000
,
2000
0000
3001
0010
,
0100
1000
0100
0000
,
0010
0100
0010
0001
,
2002
0000
3003
0000
,
0200
0000
0310
1000
,
0001
0010
0001
0000
,
1000
0100
0010
0001
,
1001
0000
0100
0010
,
0110
0000
1001
0000
,
0010
0100
1000
0000
,
0001
0010
0100
0010
,
0002
0000
1003
0000
,
1000
0010
0100
0001
,
0010
0100
1000
0000
,
0010
0100
0010
0100
,
0220
0330
0001
1001
,
1000
0100
1000
0100
,
1000
0100
1000
0000
,
0001
0100
0001
0100
,
0001
0000
0010
0010
,
1000
0010
1000
0010
,
1000
0010
1000
0000
,
0001
0010
0001
0010
,
0001
0000
0100
0110
,
0010
1000
0100
0000
,
0010
0001
0100
0000
,
0010
0100
0001
0000
,
0010
0100
1000
0000
,
0001
0010
0100
0000
,
1000
0100
0010
0000
,
0001
1000
0100
0000
,
1000
0001
0010
0000
,
1001
0000
0000
0000
;

//---------------dance-single - ----------------
#NOTES:
     dance-single:
     :
     Medium:
     10:
     0.447985,0.467048,0.233524,0.108422,0.070891,376.000000,348.000000,28.000000,13.000000,0.000000,0.000000,0.447985,0.467048,0.233524,0.108422,0.070891,376.000000,348.000000,28.000000,13.000000,0.000000,0.000000:
0000
0000
0000
0000
,
0000
0000
0000
0000
,
0000
0000
0000
0000
,
0000
0000
0000
0000
,
1000
0000
0000
1000
0000
0000
0000
0000
0001
0000
0000
0001
0000
0000
0000
0000
,
0100
0000
0000
0100
0000
0000
0100
0000
0010
0000
0000
0010
0000
0000
0010
0000
,
0100
0000
1001
0000
0010
0000
0100
0002
,
0000
0003
1000
0010
,
0101
0000
0010
1000
,
0010
0000
0000
0100
0000
0000
0010
0000
0100
0000
0000
0000
0001
0000
0000
0000
,
0010
0000
0001
0010
0100
0000
1000
0000
,
1000
0010
1000
0000
0001
0100
0001
0000
,
0200
0000
0310
0010
,
1000
0001
0010
0001
0000
0000
1001
0000
,
0100
0100
0010
0010
,
2002
3003
0100
0010
,
0220
0330
2002
3003
,
0001
0000
0000
0010
0000
0000
0100
0000
1000
0000
0000
0000
0001
0000
0000
0000
,
0100
0000
0010
0100
0010
0000
1000
0000
,
0100
0010
0100
0000
0010
0001
0010
0000
,
0002
0000
1003
0010
,
0100
0010
0100
0001
0000
0000
1000
0000
,
0100
1000
0100
0000
0010
0001
0010
0000
,
0001
0101
1000
1010
,
1000
0000
0010
0100
0010
0000
0100
0000
,
0001
0000
0010
0100
0010
0000
0100
0000
,
1000
0000
0001
0010
0001
0000
0100
0000
,
0010
0000
1000
0100
1000
0000
0001
0000
,
0100
0000
0100
0010
0100
0000
0001
0000
,
0010
0000
0001
1000
0001
0000
0100
0000
,
0010
0000
1000
0100
1000
0000
0001
0000
,
1000
0010
1000
0000
0001
0100
0001
0000
,
0010
0000
0001
0000
1000
0100
0010
0100
,
0000
0000
0010
0000
0001
0100
0010
0000
,
1000
0000
0001
0000
0100
0010
0100
0000
,
0001
0010
0100
1000
,
0001
0000
0100
0000
0010
1000
0010
0000
,
0100
0000
0001
0000
0010
0001
0010
0000
,
0100
0000
1000
0000
0001
0000
0100
0010
,
0000
0010
0000
0010
0000
0110
0000
0000
,
1000
0000
0000
1000
0000
0000
1000
0000
0000
0000
0000
0000
0110
0000
0000
0000
,
0001
0000
0000
0001
0000
0000
0001
0000
0000
0000
0000
0000
0110
0000
0000
0000
,
1000
0000
0001
0000
0010
0001
0000
1000
,
0000
0001
0000
1000
0000
1001
0000
0000
,
0100
0000
0000
0100
0000
0000
0100
0000
0000
0000
0000
0000
1001
0000
0000
0000
,
0010
0000
0000
0010
0000
0000
0010
0000
0000
0000
0000
0000
1001
0000
0000
0000
,
0110
0000
0000
0000
1010
0000
0000
0100
,
0000
0001
0100
0020
0000
0030
0000
0000
,
1100
0000
0000
0000
1000
0000
0001
0010
,
0001
0000
1000
0100
1000
0000
0010
0000
,
0100
0000
0010
0000
0100
0001
0100
0000
,
0001
0010
0100
1000
,
0020
0000
1030
0100
,
0010
0001
0010
0001
0000
0000
1001
0000
,
0100
0010
0100
0000
0010
0100
0010
0000
,
1000
0100
0010
0001
,
2000
0000
3010
0010
,
0100
0000
0000
0001
0000
0000
1000
0000
0010
0000
0000
0000
1000
0000
0000
0000
,
0001
0000
0001
0000
0010
0100
1000
0000
,
0010
0100
0010
0000
1000
0000
0001
0000
,
0200
0000
0000
0000
0301
0000
0010
0001
,
1000
0000
0010
0100
0000
0000
0110
0000
,
1000
0000
0001
0000
0100
0010
0100
0000
,
1010
0000
0011
1100
,
0001
0000
0000
0001
0000
0000
0001
0000
0000
0000
0100
0000
0100
0000
0000
0000
,
0010
0000
0000
0010
0000
0000
0010
0000
0000
0000
1000
0000
1000
0000
0000
0000
,
0100
0000
0000
0100
0000
0000
0100
0000
0000
0000
0010
0000
0010
0000
0000
0000
,
0011
0000
0101
1010
,
1000
0000
0000
1000
0000
0000
1000
0000
0000
0000
0010
0000
0010
0000
0000
0000
,
0100
0000
0000
0100
0000
0000
0100
0000
0000
0000
0001
0000
0001
0000
0000
0000
,
0010
0000
0000
0010
0000
0000
0010
0000
0000
0000
0100
0000
0100
0000
0000
0000
,
1001
0000
0010
0110
,
0100
0000
0001
0010
0001
0100
0001
0000
,
1000
0000
1000
0010
1000
0100
1000
0000
,
0010
0000
0010
1000
0010
0100
0010
0000
,
0100
0000
0100
0001
0100
0010
0100
0000
,
0001
0000
0001
0010
0100
0010
0001
0000
,
0100
0000
0010
0100
1000
0100
0010
0000
,
1000
0000
0100
0010
0001
0010
0100
0000
,
0010
0001
1000
0100
,
1001
0000
0000
0000
;

//---------------dance-single - ----------------
#NOTES:
     dance-single:
     :
     Hard:
     14:
     0.736316,0.700572,0.567130,0.125102,0.296075,618.000000,550.000000,68.000000,15.000000,0.000000,0.000000,0.736316,0.700572,0.567130,0.125102,0.296075,618.000000,550.000000,68.000000,15.000000,0.000000,0.000000:
// measure 0
0000
0000
0000
0000
,  // measure 1
0000
0000
0000
0000
,  // measure 2
0000
0000
0000
0000
,  // measure 3
0000
0000
0000
0000
,  // measure 4
1000
0000
0010
0100
0000
0010
1000
0000
0001
0000
0010
0100
0000
0010
0001
0000
,  // measure 5
1000
0000
0001
0100
0000
0010
0100
0000
0001
0000
1000
0010
0000
0100
0010
0000
,  // measure 6
1000
0000
0101
0000
0010
1000
0100
0020
,  // measure 7
0000
0031
0101
1010
,  // measure 8
1000
0010
0100
0001
0010
0001
0100
0010
,  // measure 9
1000
0000
0000
1001
0000
0000
0001
0000
0100
0000
0000
0000
0010
0000
0100
0000
,  // measure 10
0001
0010
0001
0100
0010
0001
0010
0100
,  // measure 11
0010
0000
1000
0100
1000
0000
0001
0000
0100
0000
0010
0000
1000
0000
0100
0000
,  // measure 12
0020
0000
0031
0010
0100
0000
1010
1000
,  // measure 13
0001
0100
0010
0100
0001
0000
1000
0000
0000
0000
0001
0000
0100
0000
1000
0000
,  // measure 14
0100
0010
0100
0001
1000
0100
0010
0100
,  // measure 15
0001
0000
0101
0000
0010
0100
1000
0100
,  // measure 16
1000
1001
0001
0110
,  // measure 17
1010
0000
0000
0011
0000
0000
0100
0000
0010
0000
0000
0000
1000
0000
0001
0000
,  // measure 18
0100
0001
0010
0100
1000
0010
0100
0001
,  // measure 19
1000
0000
0010
0100
0010
0000
0100
0000
0002
0000
0023
0000
0230
0000
2300
0000
,  // measure 20
3020
0000
0130
0001
0010
0000
0110
0100
,  // measure 21
1000
0001
0100
0010
0000
0010
0100
0001
,  // measure 22
1000
0100
0001
0100
1000
0010
0100
0010
,  // measure 23
0100
0001
0101
0000
1010
0000
1100
0000
,  // measure 24
0001
0000
0010
0001
0000
0100
0010
0000
1000
0000
0100
0000
0001
0000
0100
0000
,  // measure 25
1000
0000
0010
0100
0000
0001
0010
0000
0001
0000
0100
0000
1000
0000
0100
0000
,  // measure 26
0001
0000
1000
0100
0000
1000
0010
0000
0100
0000
0001
0000
0010
0000
0001
0000
,  // measure 27
1000
0000
0001
0010
0000
0001
0100
0000
0010
0000
1000
0000
0100
0000
1000
0000
,  // measure 28
0010
0000
0100
0001
0000
0100
0010
0000
0100
0000
0001
0000
0010
0000
0100
0000
,  // measure 29
1000
0000
0010
0100
0000
0010
1000
0000
0001
0000
0010
0000
0100
0000
1000
0000
,  // measure 30
0001
0000
0100
0010
0000
0100
0001
0000
0010
0000
0100
0000
1000
0000
0010
0000
,  // measure 31
0100
0000
0001
1000
0000
0010
0100
0000
0010
0000
0000
1001
0000
0000
0100
0000
,  // measure 32
0010
0100
1000
0100
0001
0010
0100
0010
,  // measure 33
0000
0001
0010
1000
0000
1000
0010
0001
,  // measure 34
0100
0000
0110
0010
1000
0100
1000
0001
,  // measure 35
0100
0000
0010
0000
0100
0001
0000
0001
0010
0000
0100
0000
1000
0000
0010
0000
,  // measure 36
0100
0001
0010
0001
1000
0010
0100
0010
,  // measure 37
0000
1000
0100
0001
0000
0001
0100
1000
,  // measure 38
0010
0000
0110
0100
0001
0010
0100
1000
,  // measure 39
0000
0101
0000
1010
0000
1001
0000
0000
,  // measure 40
0110
0000
0000
0110
0000
0000
1001
0000
0000
0000
0100
0000
0001
0000
0010
0000
,  // measure 41
0110
0000
0000
1100
0000
0000
0101
0000
0000
0000
0001
0000
1000
0000
0010
0000
,  // measure 42
1000
0000
1010
0000
0001
0010
0000
1010
,  // measure 43
0000
0011
0000
1010
0000
0202
0000
0303
,  // measure 44
0100
0000
0000
0110
0000
0000
1001
0000
0000
0000
0001
0000
1000
0000
0010
0000
,  // measure 45
0100
0000
0000
0101
0000
0000
1010
0000
0000
0000
1000
0000
0010
0000
0100
0000
,  // measure 46
0002
0000
0013
0000
2000
0000
3010
0100
,  // measure 47
0000
0010
0100
0110
0000
2002
0000
3003
,  // measure 48
0001
0010
0100
0010
0001
1000
0010
0100
,  // measure 49
0010
0000
0000
1010
0000
0000
0100
0000
0001
0000
0000
0000
0011
0000
0010
0000
,  // measure 50
0100
0000
0010
0100
1000
0001
0100
0001
,  // measure 51
1000
0000
0010
0100
0010
0000
0100
0000
0001
0000
0010
0000
0001
0000
0100
0000
,  // measure 52
0020
0000
1030
0100
1000
0000
1001
0001
,  // measure 53
0100
0010
0100
0001
0000
0001
1000
0100
,  // measure 54
0010
0001
0100
0010
1000
0100
0010
0100
,  // measure 55
1000
0000
0001
0010
0001
0000
1000
0000
0010
0000
0100
0000
0010
0000
1000
0000
,  // measure 56
0001
0000
0100
0010
0100
0000
0010
0000
1000
0000
0010
0100
0010
0000
0100
0000
,  // measure 57
0001
0000
0000
0011
0000
0000
0010
0000
0100
0000
0000
0000
1100
0000
1000
0000
,  // measure 58
0010
0100
0010
0001
0010
1000
0100
0010
,  // measure 59
0001
0000
0100
0010
0100
0000
0010
0000
1000
0000
0010
0000
0100
0000
0010
0000
,  // measure 60
2000
0000
3001
0010
0001
0100
1000
0100
,  // measure 61
0001
0010
1000
0010
0000
0100
1000
0100
,  // measure 62
0010
0100
0010
0100
0010
0001
1000
0100
,  // measure 63
1000
0001
1001
0000
0110
0000
1001
0000
,  // measure 64
1100
0000
0000
0101
0000
0000
1100
0000
0000
0000
0010
0000
0100
0000
0010
0000
,  // measure 65
0011
0000
0000
1010
0000
0000
0011
0000
0000
0000
0100
0000
0010
0000
0100
0000
,  // measure 66
1100
0000
0000
0101
0000
0000
0011
0000
0000
0000
0010
0000
0100
0000
1000
0000
,  // measure 67
0100
0000
1000
0000
0001
0010
0000
0010
0001
0000
0000
0000
1100
0000
0000
0000
,  // measure 68
1010
0000
0000
0101
0000
0000
1100
0000
0000
0000
0010
0000
0100
0000
0010
0000
,  // measure 69
0011
0000
0000
0101
0000
0000
1010
0000
0000
0000
0100
0000
0010
0000
0100
0000
,  // measure 70
1010
0000
0000
0101
0000
0000
1001
0000
0000
0000
0100
0000
0001
0000
0010
0000
,  // measure 71
0100
0000
1000
0000
0010
0100
0000
0100
0010
0000
0100
0000
0110
0000
0000
0000
,  // measure 72
0001
0000
0100
0001
0000
0010
0001
0000
1000
0000
0010
0000
0001
0000
0010
0000
,  // measure 73
1000
0000
0100
1000
0000
0010
1000
0000
0001
0000
0010
0000
1000
0000
0010
0000
,  // measure 74
0001
0000
0100
0010
0000
0100
0001
0000
1000
0000
0010
0000
0100
0000
0010
0000
,  // measure 75
1000
0000
0001
0010
0000
0100
0010
0000
0001
0000
1000
0000
1001
0000
0000
0000
,  // measure 76
0010
0000
0001
0010
0000
0100
0010
0000
0001
0000
0010
0000
0100
0000
1000
0000
,  // measure 77
0100
0000
1000
0100
0000
0010
0100
0000
1000
0000
0100
0000
0010
0000
0001
0000
,  // measure 78
0100
0000
0010
1000
0000
0001
0100
0000
0010
0000
0100
0000
0001
0000
1000
0000
,  // measure 79
0010
0000
1000
0010
0000
0100
0001
0000
0010
0000
0000
0011
0000
0000
1000
0000
,  // measure 80
1010
0000
0000
0000
;
