#TITLE:Scars of FAUNA;
#SUBTITLE:;
#ARTIST:猫叉Master;
#TITLETRANSLIT:;
#SUBTITLETRANSLIT:;
#ARTISTTRANSLIT:Nekomata Master;
#GENRE:WORLD/ELECTRONICA;
#CREDIT:;
#BANNER:Scars_of_FAUNA_banner.png;
#BACKGROUND:Scars_of_FAUNA.png;
#LYRICSPATH:;
#CDTITLE:;
#MUSIC:Scars of FAUNA.ogg;
#OFFSET:-0.550000;
#SAMPLESTART:80.180000;
#SAMPLELENGTH:12.000000;
#SELECTABLE:YES;
#BPMS:0.000000=165.000000
;
#STOPS:120.000000=0.727000
;
#BGCHANGES:;
#KEYSOUNDS:;
#ATTACKS:;

//---------------dance-single - ----------------
#NOTES:
     dance-single:
     :
     Easy:
     6:
     0.253570,0.293982,0.057523,0.131481,0.000000,216.000000,209.000000,7.000000,16.000000,0.000000,0.000000,0.253570,0.293982,0.057523,0.131481,0.000000,216.000000,209.000000,7.000000,16.000000,0.000000,0.000000:
0000
0000
0000
0000
,
0000
0000
0000
0000
,
0000
0000
0000
0000
,
1000
0000
1000
0001
,
0000
0001
1000
0000
,
1000
0001
0000
0100
,
0010
0000
0010
0100
,
0000
0100
0010
0000
,
0010
0100
0000
0100
,
0001
0000
0001
1000
,
0000
1000
0010
0000
,
0010
0100
0000
0010
,
2000
0000
3000
0100
,
0000
0100
0020
0000
,
0030
0001
0000
0001
,
0200
0000
0300
0010
,
0000
0010
1000
0000
,
0001
1000
0000
0001
,
2002
3003
0000
0100
,
0000
0100
0010
0000
,
0010
1000
0000
1000
,
0001
0000
0001
1000
,
0000
1000
0010
0000
,
0010
0100
0000
0100
,
0001
0010
0001
1000
,
0000
1000
0010
1000
,
0010
0100
0000
0100
,
0001
0010
0100
1000
,
0000
0100
1000
0010
,
0100
0001
0000
0001
,
0000
0010
0010
0010
,
0100
0000
0100
0001
,
0001
0001
1000
0000
,
1000
0100
0100
0100
,
0010
0000
0010
0100
,
1000
0000
0001
0000
2002
0000
0000
3003
,
0000
0010
0000
0010
,
0100
0000
0100
0001
,
0000
0001
1000
0100
,
0010
0001
0000
1000
,
0010
0000
0010
0100
,
0000
0100
0001
0010
,
0100
1000
0000
0001
,
1000
0000
0010
0100
,
0000
0001
0010
0000
,
0001
1000
0010
0000
,
0100
0001
0010
0200
,
0000
0000
0300
0000
,
0000
0001
1000
0001
,
0100
0000
0100
0010
,
1000
0001
0010
0000
,
0010
0000
0200
0000
0000
0300
0000
0000
,
2000
0000
0000
3000
0000
0000
1001
0000
,
0000
0000
0011
0000
,
0000
0100
0001
0100
,
0001
0000
1000
0010
,
1000
0010
0100
0000
,
0001
1000
0010
1000
,
0001
0000
1000
0200
,
0000
0300
0020
0000
,
0030
0001
0010
0100
,
0010
0100
1000
0001
,
0000
1000
2002
3003
,
0000
0010
0000
0010
,
0100
0000
1000
1010
,
0000
0000
0001
0010
,
0100
2000
0000
3000
,
0002
0000
0003
0100
,
0000
0100
0010
0000
,
0010
1000
0000
1000
,
0100
0000
0100
0010
,
0000
0010
0001
0000
,
0001
1000
0010
1000
,
0001
0000
0001
0010
,
0001
1000
0100
0000
,
0100
1000
0001
1000
,
0010
0000
0010
0100
,
0001
1000
0010
0000
,
0010
1000
0000
1000
,
0001
0000
1001
0000
;

//---------------dance-single - ----------------
#NOTES:
     dance-single:
     :
     Medium:
     11:
     0.473095,0.489971,0.279396,0.230091,0.152024,403.000000,369.000000,34.000000,28.000000,0.000000,0.000000,0.473095,0.489971,0.279396,0.230091,0.152024,403.000000,369.000000,34.000000,28.000000,0.000000,0.000000:
0000
0000
0000
0000
,
0000
0000
0000
0000
,
0000
0000
0000
0000
,
0001
0000
0000
0001
0000
0000
0001
0000
1000
0000
0000
0000
0100
0000
0000
0100
,
0000
0000
0100
0000
0010
0000
0000
0000
0001
0000
0000
0001
0000
0000
0001
0000
,
0100
0000
0000
0000
0010
0000
0000
0010
0000
0000
0010
0000
1000
0000
0000
0000
,
0100
0000
0000
1000
0000
0000
0001
0000
0100
0000
0000
0000
0010
0000
0000
1000
,
0000
0000
0001
0000
0010
0000
0000
0000
0100
0000
0000
1000
0000
0000
0100
0000
,
0010
0000
0000
0000
0001
0000
0000
0100
0000
0000
0010
0000
0100
0000
0000
0000
,
0110
0000
0000
0001
0000
0000
1000
0000
0001
0000
0000
0000
0010
0000
0000
0100
,
0000
0000
1000
0000
0001
0000
0000
0000
1000
0000
0000
0010
0000
0000
0100
0000
,
0001
0000
0000
0000
0011
0000
0000
1000
0000
0000
0100
0000
1000
0000
0000
0000
,
1020
0000
0100
0230
,
0000
0301
0002
0000
,
0013
0020
0000
0130
,
2100
0000
3001
1002
,
0000
0103
0210
0000
,
0301
0010
0100
1000
,
2001
0000
0010
0010
,
0000
3001
1002
0000
,
0010
0010
0000
0103
,
1000
0000
0000
0001
0000
0000
0010
0000
0100
0000
0000
0000
1000
0000
0000
0010
,
0000
0000
0100
0000
0001
0000
0000
0000
1000
0000
0000
0100
0000
0000
0010
0000
,
0001
0000
1000
0010
1000
0000
0001
0000
,
0010
0000
0000
0001
0000
0000
0100
0000
0010
0000
0000
0000
1000
0000
0000
0010
,
0000
0000
0100
0000
0010
0000
0000
0000
1000
0000
0000
0100
0000
0000
0010
0000
,
0100
0000
0000
0000
1000
0000
0000
0001
0000
0000
0100
0000
0010
0000
0000
0000
,
0110
0000
0000
0100
0000
0000
0001
0000
0010
0000
0000
0000
0100
0000
0000
1000
,
0000
0000
0001
0000
1000
0000
0000
0000
0010
0000
0000
1000
0000
0000
0010
0000
,
0100
0000
0000
0000
0001
0000
0000
0010
0000
0000
0001
0000
0100
0000
0000
0000
,
0010
1000
1001
1001
,
0010
0000
0100
0001
0010
0100
1000
0000
,
1001
0000
1001
0000
0010
0000
0100
0001
,
1000
0100
0010
0000
0011
0000
0011
0000
,
1000
0000
0001
0010
0100
1000
0010
0000
,
1010
0000
1010
0000
0100
0000
0001
1000
,
0000
0010
2000
0000
0100
0000
3100
0000
,
0002
0010
0013
0200
,
0010
0000
0310
1000
0001
0000
0010
0100
,
0000
1000
0002
0000
0100
0000
0103
0000
,
2000
0010
3010
0002
,
0010
0000
0013
0100
1000
0010
0100
0010
,
0000
0010
2000
0000
0001
0000
3001
0000
,
0021
0000
0130
1000
0100
0010
0001
0000
,
0100
0000
0101
0000
0020
0000
1030
0001
,
1000
0100
0010
0000
0100
0000
1000
0000
,
1100
0000
0001
0100
0010
0100
0002
0000
,
0010
0000
0013
0000
1000
0000
0100
0010
,
0000
0010
0100
0000
1000
0000
0001
0000
,
1001
0000
0010
0100
0001
0100
0010
0000
,
1000
0000
0001
0000
0011
0000
1000
0100
,
0010
0100
1000
0000
0001
0000
0100
0000
,
0110
0000
1000
0001
0010
0000
0200
0000
,
0000
0000
1300
0010
,
0100
0000
0001
0010
0100
0010
0001
0000
,
1001
0000
0010
1000
0100
1000
0010
0000
,
1000
0100
0000
0010
0002
0000
0000
0000
,
0103
0000
0010
1000
0001
1000
0010
0000
,
0100
0000
0001
0010
0000
0100
2000
0000
,
0000
0000
0000
0000
3001
0000
0000
0000
0100
0000
0000
0010
0000
0000
0100
0000
,
0002
0000
1003
0100
0010
0100
1000
0000
,
1001
0000
0100
0001
0010
0001
0100
0000
,
0001
0010
0000
0100
2000
0000
0000
0000
,
3001
0000
0010
0100
1000
0000
0001
0000
,
0100
0000
0010
0100
0000
0001
1000
0000
,
0000
1001
0010
0100
,
0001
0012
1000
1003
,
2010
0000
0001
0000
3001
0010
0200
0000
,
0010
0310
0002
1000
,
1003
0000
0000
0000
0010
0000
0000
1000
0000
0000
0010
0000
0100
0000
0000
0000
,
0001
0000
0000
0010
0000
0000
0100
0000
0010
0000
0000
0000
0001
0000
0000
1000
,
0000
0001
0100
0000
0010
1000
0010
0000
,
0100
0000
0000
0000
0001
0000
0000
0010
0000
0000
0100
0000
1000
0000
0000
0000
,
1000
0000
0000
0010
0000
0000
0100
0000
0001
0000
0000
0000
0001
0000
0000
1000
,
0000
0000
0100
0000
1000
0000
0000
0000
1000
0000
0000
0010
0000
0000
0100
0000
,
0010
0000
0000
0000
0010
0000
0000
1001
0000
0000
0100
0000
0100
0000
0000
0000
,
0010
0000
0000
1100
0000
0000
0001
0000
0001
0000
0000
0000
0100
0000
0000
1010
,
0000
0000
0100
0000
0100
0000
0000
0000
0001
0000
0000
1100
0000
0000
0010
0000
,
0010
0000
0000
0000
0001
0000
0000
0011
0000
0000
0001
0000
1000
0000
0000
0000
,
1000
0000
0000
1010
0000
0000
1000
0000
0001
0000
0000
0000
0000
0000
0000
0000
;

//---------------dance-single - ----------------
#NOTES:
     dance-single:
     :
     Hard:
     13:
     0.718447,0.783953,0.764231,0.287614,0.267070,612.000000,519.000000,93.000000,35.000000,0.000000,0.000000,0.718447,0.783953,0.764231,0.287614,0.267070,612.000000,519.000000,93.000000,35.000000,0.000000,0.000000:
// measure 0
0000
0000
0000
0000
,  // measure 1
0000
0000
0000
0000
,  // measure 2
0000
0000
0000
0000
,  // measure 3
2100
0000
0000
0001
0000
0000
3100
0000
0110
0000
0000
0000
0012
0000
0000
1000
,  // measure 4
0000
0000
0103
0000
0110
0000
0000
0000
1020
0000
0000
0100
0000
0000
1030
0000
,  // measure 5
1001
0000
0000
0000
0021
0000
0000
0100
0000
0000
0031
0000
1001
0000
0000
0000
,  // measure 6
1000
0000
0000
0110
0000
0000
0010
0000
1010
0000
0000
0000
0001
0000
0000
0101
,  // measure 7
0000
0000
0010
0000
0011
0000
0000
0000
1000
0000
0000
1100
0000
0000
0001
0000
,  // measure 8
0101
0000
0000
0000
0010
0000
0000
1001
0000
0000
1000
0000
1010
0000
0000
0000
,  // measure 9
0110
0000
0000
0001
0000
0000
0010
0100
0010
0000
0000
0000
0011
0000
0000
1000
,  // measure 10
0000
0000
0100
0010
0100
0000
0000
0000
1100
0000
0000
0001
0000
0000
1000
0010
,  // measure 11
1000
0000
0000
0000
0101
0000
0000
0110
0000
0000
0101
0000
1000
0000
0100
0000
,  // measure 12
0020
0000
0001
0002
,  // measure 13
0030
0000
0103
0020
2000
0030
0000
0000
,  // measure 14
3001
0000
0000
0000
1002
0000
0000
0000
0000
0000
0000
0000
1003
0000
0010
0100
,  // measure 15
0020
0000
0000
0000
1030
0100
0002
0000
,  // measure 16
0100
0000
0103
1000
0020
0000
1030
0200
,  // measure 17
0000
0310
0001
0100
0010
1000
0100
0010
,  // measure 18
0002
0000
1003
2001
,  // measure 19
0000
0000
3010
0200
0020
0300
0000
0000
,  // measure 20
1030
1200
0010
0310
,  // measure 21
0101
0000
0000
0011
0000
0000
1100
0000
1001
0000
0000
0000
1010
0000
0000
0101
,  // measure 22
0000
0000
0011
0000
1001
0000
0000
0000
1100
0000
0000
0101
0000
0000
0110
0000
,  // measure 23
0101
0000
0010
1000
0010
0100
1000
0100
,  // measure 24
0001
0000
0010
0001
0000
1000
0100
0000
1000
0000
0010
0000
0100
0000
0001
0010
,  // measure 25
0000
0100
1000
0000
0010
0000
0100
0000
0001
0000
1000
0100
0000
0010
0001
0000
,  // measure 26
0100
0000
0010
0000
1000
0000
0001
1000
0000
0010
1000
0000
0001
0000
0001
0000
,  // measure 27
0010
0000
0100
1000
0000
0100
0010
0000
0100
0000
1000
0000
0001
0000
0100
0010
,  // measure 28
0000
0100
0001
0000
0010
0000
0100
0000
1000
0000
0001
0010
0000
0001
0100
0000
,  // measure 29
0010
0000
0100
0000
0001
0000
1000
0001
0000
0000
1000
0010
0100
0000
0200
0000
,  // measure 30
0300
0000
0000
0000
1001
0000
0000
0000
0110
0000
0000
0000
1000
0000
0001
0010
,  // measure 31
0001
1000
0010
0100
0010
1000
0100
0000
,  // measure 32
1100
0000
0000
0000
0001
0000
0100
0010
1000
0000
0001
0000
0010
0000
0100
0000
,  // measure 33
1000
0001
1001
0000
0110
0000
0001
0010
,  // measure 34
0100
0000
0010
0000
0100
0000
1000
0010
1000
0000
0001
0000
0100
0000
0010
0000
,  // measure 35
1010
0000
0000
0000
0001
0000
0010
0100
0010
0000
0001
0000
1000
0000
0010
0000
,  // measure 36
0100
0010
1000
0100
0001
0100
1000
1000
,  // measure 37
0001
0100
1000
0100
0001
0001
0010
1000
,  // measure 38
0010
0001
0001
1000
0010
0001
0010
1000
,  // measure 39
1000
0001
1000
0100
0001
0010
0100
1000
,  // measure 40
0010
0100
0001
1000
0100
0010
0100
1000
,  // measure 41
0010
0000
0001
0000
1000
0000
0001
1000
0001
0000
0100
0000
0010
0000
0001
0000
,  // measure 42
0020
0000
1030
0000
1000
0010
0001
0010
,  // measure 43
1020
0000
1030
0100
0001
0100
2100
0000
,  // measure 44
3001
0010
1000
0010
0012
0000
0103
1000
,  // measure 45
0100
0001
2001
0000
3010
0100
0010
1000
,  // measure 46
1200
0000
0310
0001
0100
0010
2000
0000
,  // measure 47
0001
0000
0000
0000
3001
0000
0010
0100
0010
0000
0001
0000
0010
0000
0100
0000
,  // measure 48
0000
0100
1000
0010
0001
0010
1010
0000
,  // measure 49
2001
0000
3001
0010
1000
0010
0011
0000
,  // measure 50
1000
0010
0001
0010
2010
0000
3001
0010
,  // measure 51
1000
0010
0012
0000
0103
1000
0100
0001
,  // measure 52
2001
0000
3100
0010
0100
1000
2002
0000
,  // measure 53
3003
0000
0000
0000
0000
0000
0010
0100
0001
0000
0010
0000
0100
0000
1000
0000
,  // measure 54
1001
0000
0100
0010
0100
0001
0010
0100
,  // measure 55
1000
0000
0100
0000
0010
0000
0100
0000
1000
0000
0001
0000
0100
0000
0010
1000
,  // measure 56
0010
0100
0001
0010
0210
0000
1300
0001
,  // measure 57
0000
0001
1000
0010
0001
0010
1000
0001
,  // measure 58
1000
0100
0001
0100
1000
0010
0110
0000
,  // measure 59
0001
0000
1000
0000
0100
0000
0010
0000
0001
0000
0000
0110
0000
0000
1001
0000
,  // measure 60
0010
0010
0010
0100
0010
1000
0100
0010
,  // measure 61
0001
0000
0010
0000
0100
0000
0010
0000
0001
0000
1000
0000
0010
0000
0100
0001
,  // measure 62
0100
0010
1000
0100
0120
0000
0031
1000
,  // measure 63
0000
1000
0001
0100
1000
0100
0001
1000
,  // measure 64
0100
0001
0100
1000
0010
0100
0210
0000
,  // measure 65
0301
0000
1000
0000
0100
0000
0010
0000
0001
0000
1000
0100
1000
0000
0001
0000
,  // measure 66
0100
0010
0100
0000
0001
0000
0010
0000
0100
0000
1000
0000
0100
0000
0000
0000
,  // measure 67
1000
0010
0100
0001
0010
0001
1000
0010
,  // measure 68
0100
0010
1000
0000
0001
0010
0100
1000
,  // measure 69
0001
0000
1000
0000
1010
0000
0000
0101
0000
0000
1010
0000
1001
0000
0000
0000
,  // measure 70
0011
0000
0000
1100
0000
0000
0011
0000
1001
0000
0000
0000
0100
0000
0010
0000
,  // measure 71
0100
0000
0001
0000
0010
0000
0000
0000
0100
0000
1000
0001
1000
0000
0010
0000
,  // measure 72
0100
0001
0100
0000
0010
0000
0000
1010
0000
0000
0100
0000
0110
0000
0000
0000
,  // measure 73
0001
0000
0000
1100
0000
0000
0010
0000
0110
0000
0000
0000
1000
0000
0000
0011
,  // measure 74
0000
0000
0100
0000
0110
0000
0000
0000
0001
0000
0000
1100
0000
0000
0001
0000
,  // measure 75
0110
0000
0000
0000
1010
0000
0000
1100
0000
0000
0001
0010
0001
0000
0100
0000
,  // measure 76
0101
0000
0000
0011
0000
0000
1000
0100
1000
0000
0010
0000
0110
0000
0000
1010
,  // measure 77
0000
0000
0100
0001
0100
0000
0001
0000
0010
0000
0000
0011
0000
0000
1000
0010
,  // measure 78
1000
0000
0001
0000
1001
0000
0000
1100
0000
0000
0101
0000
1001
0000
0000
0000
,  // measure 79
0011
0000
0000
1010
0000
0000
1100
0000
1001
0000
0000
0000
0000
0000
0000
0000
;
