#TITLE:Scarlet Lance;
#SUBTITLE:;
#ARTIST:MASAKI(ZUNTATA);
#TITLETRANSLIT:;
#SUBTITLETRANSLIT:;
#ARTISTTRANSLIT:;
#GENRE:;
#CREDIT:from「GROOVE COASTER」;
#BANNER:Scarlet_Lance_banner.png;
#BACKGROUND:Scarlet_Lance.png;
#LYRICSPATH:;
#CDTITLE:;
#MUSIC:Scarlet Lance.ogg;
#OFFSET:0.360000;
#SAMPLESTART:83.959999;
#SAMPLELENGTH:15.000000;
#LASTBEATHINT:387.000000;
#SELECTABLE:YES;
#BPMS:0.000000=185.000000
,27.000000=370.000000
,29.000000=185.000000
,69.000000=370.000000
,70.000000=185.000000
,70.500000=92.500000
,71.000000=185.000000
,77.000000=370.000000
,78.000000=185.000000
,78.500000=92.500000
,79.000000=185.000000
,85.000000=370.000000
,86.000000=185.000000
,86.500000=92.500000
,87.000000=185.000000
,93.000000=370.000000
,94.000000=185.000000
,94.500000=92.500000
,95.000000=185.000000
,260.000000=370.000000
,262.000000=185.000000
,382.000000=370.000000
,383.000000=92.500000
;
#STOPS:382.000000=0.162163
;
#BGCHANGES:;
#KEYSOUNDS:;
#ATTACKS:;

//---------------dance-single - ----------------
#NOTES:
     dance-single:
     :
     Easy:
     8:
     0.352178,0.489343,0.179432,0.241844,0.070213,316.000000,293.000000,23.000000,31.000000,0.000000,0.000000,0.352178,0.489343,0.179432,0.241844,0.070213,316.000000,293.000000,23.000000,31.000000,0.000000,0.000000:
0000
0000
0000
0000
,
0000
0000
0000
0000
,
0000
0000
0000
0000
,
0000
0000
0000
0000
,
0000
0000
0000
0000
,
1000
0001
1000
0001
,
0010
0100
1000
0002
,
0000
0000
0000
0000
0103
0000
0000
0100
0000
0000
0100
0000
0010
0000
0000
0010
,
0000
0000
0010
0000
1000
0000
0000
1000
0000
0000
1000
0000
0002
0000
0000
0000
,
0000
0013
0100
1000
,
0010
0100
0001
0010
,
0001
1000
0010
0100
,
0001
0010
0100
0220
,
0330
0000
0000
0000
1000
0000
0000
1000
0000
0000
1000
0000
0001
0000
0000
0001
,
0000
0000
0001
0000
0010
0000
0000
0010
0000
0000
0010
0000
0200
0000
0000
0000
,
0000
0310
0001
1000
,
0010
0100
0001
1000
,
0100
2200
3300
0001
,
0000
0100
0000
0010
,
0000
1000
0000
0010
,
0000
0100
0000
0010
,
0000
0110
0000
0001
,
0000
0010
0000
0100
,
0000
2000
3000
0010
,
0100
0220
0000
0000
,
0330
0001
0000
1000
,
0000
0001
0010
0100
,
1000
0010
0100
0001
,
0100
0010
1000
0100
,
0000
1000
0010
0100
,
0010
2002
0000
3003
,
0000
0100
0010
0100
,
0001
0010
0100
1000
,
0000
0010
0100
0001
,
1000
0100
0010
0001
,
0000
1000
0001
0110
,
0000
0000
1000
0000
0110
0000
0000
0001
,
0000
0001
0000
0000
0001
0000
1100
0000
,
0000
0020
0000
0000
,
0130
0100
0001
0100
,
1000
0100
0010
0100
,
0001
1000
0100
0010
,
0100
1000
0001
0200
,
0000
0310
1000
0001
,
0010
0001
0010
0100
,
1000
0000
0010
0000
0000
0100
0000
0000
,
0010
0000
0000
1000
0000
0000
0001
0000
,
0001
1000
0010
0100
,
0010
1000
0100
0010
,
0001
0000
0001
0000
0000
0101
0000
0000
,
0000
0000
1000
0000
0000
1010
0000
0000
,
0000
0000
0100
0000
0000
2002
0000
0000
,
3003
0110
0000
0001
,
0000
2100
0000
0000
,
0000
3002
0000
0000
,
0000
0203
0000
0000
,
0000
0320
0000
0000
,
0030
2002
0000
0000
,
3003
0202
0000
0000
,
0303
0010
0100
0001
,
1000
0100
1000
0010
,
0100
0001
0010
0100
,
1000
0001
1000
0010
,
0100
0001
1000
0001
,
1000
0100
0010
0100
,
0020
0000
0000
0000
0000
0000
0000
0000
0031
0000
0000
0001
0000
0000
0001
0000
,
1000
0000
0000
1000
0000
0000
1000
0000
0100
0000
0000
0100
0000
0000
0100
0000
,
0020
0000
0130
1000
,
0001
0100
0010
1000
,
0001
0010
0011
0000
,
1000
0010
0100
0001
,
0010
0000
0000
0000
0100
0000
0000
0000
1000
0000
0000
1000
0000
0000
1000
0000
,
0010
0000
0000
0010
0000
0000
0010
0000
0100
0000
0000
0100
0000
0000
0100
0000
,
0002
0000
0013
0001
,
1000
0010
0100
0001
,
1000
0100
0110
0000
,
1000
0000
1001
0000
,
0110
0000
0000
0000
0001
0000
0000
0001
,
0000
0000
0001
0000
0000
0001
0000
0000
,
0001
0001
1000
0010
,
0100
0000
0101
0000
,
1100
0000
0000
0000
1000
0000
0000
1000
,
0000
0000
1000
0000
0000
1000
0000
0000
,
1000
0010
0100
0010
,
1000
0001
0010
0100
,
1000
0000
0000
0000
0010
0000
0000
0010
,
0000
0000
0010
0000
0000
0010
0000
0000
,
0010
0100
0001
1000
,
0100
1000
0010
0100
,
0002
0000
0023
0000
,
0000
0000
0000
0000
,
0000
0000
0000
0000
0030
0000
0000
0000
0100
0000
0000
1000
0000
0000
0100
0000
,
0010
0000
0000
0001
0000
0000
0010
0000
0001
0000
0000
1000
0000
0000
0001
0000
,
0100
0000
0000
0000
0010
0000
0000
0000
1000
0000
0000
1000
0000
0000
1000
0000
,
0001
0000
0000
0001
0000
0000
0001
0000
0010
0000
0000
0010
0000
0000
0010
0000
,
0100
0110
0000
2002
,
0000
0000
3003
0000
;

//---------------dance-single - ----------------
#NOTES:
     dance-single:
     :
     Medium:
     14:
     0.782370,0.866883,1.146807,0.218439,0.249645,702.000000,555.000000,147.000000,28.000000,0.000000,0.000000,0.782370,0.866883,1.146807,0.218439,0.249645,702.000000,555.000000,147.000000,28.000000,0.000000,0.000000:
0000
0000
0000
0000
,
0000
0000
0000
0000
,
0000
0000
0000
0000
,
0000
0000
0000
0000
,
0000
0000
0000
0000
,
1000
0001
0010
0001
1000
0010
0100
0010
,
1000
0100
0010
0001
0100
0010
0110
0000
,
0000
0000
0000
0000
1100
0000
0000
1010
0000
0000
1100
0000
1001
0000
0000
0011
,
0000
0000
0101
0000
0110
0000
0000
0101
0000
0000
1010
0000
2002
0000
0000
0000
,
3003
0000
0000
0000
0010
0000
0100
0000
0001
0000
0010
0000
0001
0000
0000
1000
,
0000
0000
0100
0000
1000
0000
0010
0000
0100
0000
0001
0000
0010
0000
0000
0100
,
0000
1000
0010
0100
0010
1000
0001
0010
,
1000
0010
0001
0100
0010
1000
0100
0010
,
0011
0000
0000
0000
1100
0000
0000
1001
0000
0000
1010
0000
0110
0000
0000
0101
,
0000
0000
0011
0000
1001
0000
0000
1100
0000
0000
1010
0000
0100
0000
0001
0000
,
0010
0000
0100
0000
1000
0000
0010
0000
1000
0000
0001
0000
0010
0000
0001
0100
,
0000
0010
1000
0000
0100
0000
1000
0000
0100
0000
0010
0000
0001
0000
0100
0000
,
1000
0000
0100
0000
0002
0000
0000
0000
0000
0000
1003
0000
0010
0000
0000
1010
,
0000
0000
0001
0000
0010
0000
0000
0011
0000
0000
0100
0000
0010
0000
0000
1001
,
0000
0000
0100
0000
0020
0000
0000
0000
0000
0000
1030
0000
1100
0000
0000
0001
,
0000
0000
0011
0000
1000
0000
0000
0110
0000
0000
0001
0000
0100
0000
0000
0101
,
0000
0000
1000
0000
0002
0000
0000
0000
0000
0000
0013
0000
0100
0000
0000
1000
,
0000
0000
1100
0000
0001
0000
0000
0010
0000
0000
0011
0000
1000
0000
0000
0001
,
0000
0000
1001
0000
0020
0000
0000
0000
0000
0000
0130
0000
0101
0000
0000
1100
,
0000
0101
0220
0000
0000
0000
0000
0000
,
0330
0000
0000
0000
1000
0000
0000
0010
0000
0000
0001
0000
1000
0000
0100
0000
,
0001
0100
0010
1000
0100
0001
0100
1000
,
0020
0000
1030
0000
0001
0010
0001
1000
,
0000
0010
0100
0010
1000
0010
0000
0100
,
0000
0101
0000
1000
0010
0100
0001
1000
,
0000
0100
1000
0010
0100
0001
0000
0010
,
0002
0000
0013
0100
1000
0010
0100
0001
,
0010
0000
0001
0100
0010
1000
0100
0010
,
0001
0000
0010
0100
1000
0010
0100
0001
,
0010
0001
1000
0010
0100
0001
1000
0001
,
0010
0100
2000
0000
3010
0100
0001
1000
,
0000
1000
0001
0010
0100
1000
0000
0110
,
0000
1010
0000
0100
0001
0010
0001
1000
,
0000
0010
0100
0001
0010
0001
0000
0001
,
1001
0000
1000
0010
0100
0010
1000
0001
,
0010
0001
0100
0010
1000
0100
0001
0100
,
1000
0010
0100
0001
0100
0010
1000
0100
,
0010
0001
0010
1000
0010
0001
0100
0010
,
1000
0100
2000
0000
0001
0000
3010
0000
,
0001
0010
0001
1000
0010
1000
0010
0100
,
0101
0000
0010
0011
0000
1000
1010
0000
,
0001
0101
0000
0010
0110
0000
1001
0000
,
0110
0000
0000
1000
0000
1010
0000
1010
0000
0001
0000
0101
,
0000
0101
0000
0010
0000
0110
0000
0110
0000
1000
0000
1001
,
0000
0000
1001
0000
0000
0000
0011
0000
0000
0000
0000
0000
1000
0000
0000
2200
0000
0000
0000
0000
0000
0000
0000
0000
,
3300
0000
0101
0000
0010
0220
0000
0000
,
0330
0000
1010
0000
0001
0011
0000
0001
,
1000
0000
0010
0000
0100
0000
0000
1010
0000
0000
0100
0000
0010
0000
0000
0101
,
0000
1000
0002
0000
0000
0013
0000
0000
,
1100
0000
0000
0110
0000
0000
2002
0000
,
3003
0000
0110
0000
0000
1010
0000
0000
,
0011
0000
0000
0101
0000
0000
2002
0000
,
3003
0000
0110
0000
0000
1000
0010
0000
,
1000
0010
0001
0010
0100
0000
0010
1000
,
0100
0000
0010
0001
0100
0010
1000
0100
,
0001
0100
1000
0010
0100
0001
1000
0010
,
0001
0010
1000
0100
0010
0001
0010
0100
,
1000
0001
0100
0010
0100
0010
0001
0010
,
0100
1000
0100
0001
0010
0100
1000
0010
,
0100
0001
0100
1000
0010
0001
0010
0100
,
0020
0000
0000
0000
0030
0000
0000
0000
1001
0000
0000
1100
0000
0000
1001
0000
,
0011
0000
0000
1001
0000
0000
1100
0000
1001
0000
0000
0101
0000
0000
0011
0000
,
1000
0010
0100
0001
1000
0001
0010
0100
,
1000
0000
0010
0100
0000
0001
0010
0000
0001
0000
0100
0000
0010
0000
1000
0000
,
0100
0000
1000
0001
0000
0010
0100
0000
1000
0000
0010
0000
0100
0000
0010
0000
,
1000
0100
0001
0100
1000
0010
0100
0001
,
0010
0000
0100
0000
1100
0000
0000
0000
0011
0000
0000
0101
0000
0000
1001
0000
,
1010
0000
0000
1001
0000
0000
0101
0000
1001
0000
0000
0110
0000
0000
1001
0000
,
1000
0001
0010
0100
1000
0010
0100
0001
,
0010
0000
0001
0100
0000
0010
1000
0000
0010
0000
1000
0000
0100
0000
0010
0000
,
0001
0100
0110
0000
2002
0000
3003
0000
,
1100
0000
0000
1001
0000
0000
0101
0000
0011
0000
0000
1001
0000
0000
1010
0000
,
0110
0000
0000
1001
0000
0000
0110
0000
0100
0000
0000
0000
0001
0000
0011
0000
,
0000
1000
1010
0000
0001
0101
0000
1000
,
1100
0000
1010
0000
0100
0001
0010
0001
,
1000
0000
0000
1010
0000
0000
0100
0000
0011
0000
0000
0001
0000
0000
0101
0000
,
0010
0000
0000
1000
0000
0000
1001
0000
0010
0000
0000
0000
0100
0000
1001
0000
,
0000
0100
1001
0000
0100
1001
0000
0100
,
1001
0000
0110
0000
0010
1000
0001
0010
,
0001
0000
0000
0101
0000
0000
1010
0000
1001
0000
0000
1100
0000
0000
1010
0000
,
0110
0000
0000
0101
0000
0000
0011
0000
1001
0000
0000
0000
0010
0000
1001
0000
,
0000
0010
1001
0000
0010
1001
0000
0010
,
1001
0000
0110
0000
1000
0001
0010
0100
,
0010
0000
0000
1100
0000
0000
0101
0000
0110
0000
0000
1010
0000
0000
1001
0000
,
0101
0000
0000
0010
0000
0000
1000
0000
2002
0000
0000
0000
0000
0000
0000
0000
,
0000
0000
3003
0000
,
0000
0000
0000
0000
0000
0000
0000
0000
0110
0000
0000
0101
0000
0000
0110
0000
,
1010
0000
0000
0110
0000
0000
1010
0000
1100
0000
0000
1001
0000
0000
0101
0000
,
0001
0000
0010
0000
0100
0000
1000
0000
1000
0000
0100
1000
0000
0010
0100
0000
,
0001
0000
0010
0001
0000
0100
0010
0000
1000
0000
0010
0100
0000
0001
0010
0000
,
0001
0010
0100
1100
0000
0000
0022
0000
,
0000
0000
0000
0000
0000
0033
0000
0000
;

//---------------dance-single - ----------------
#NOTES:
     dance-single:
     :
     Hard:
     18:
     0.989664,1.055335,1.115601,0.187234,0.842552,888.000000,745.000000,143.000000,24.000000,0.000000,0.000000,0.989664,1.055335,1.115601,0.187234,0.842552,888.000000,745.000000,143.000000,24.000000,0.000000,0.000000:
// measure 0
0000
0000
0000
0000
,  // measure 1
0000
0000
0000
0000
,  // measure 2
0000
0000
0000
0000
,  // measure 3
0000
0000
0000
0000
,  // measure 4
0000
0000
0000
0000
,  // measure 5
1000
0001
0100
0010
1000
0001
0010
0100
,  // measure 6
1000
0001
0010
0000
0001
1000
0010
0000
0100
0001
0010
0100
2000
0000
0000
0000
,  // measure 7
0000
0000
0000
0000
3001
0000
0100
0010
0000
1000
0100
0000
1000
0000
0010
0100
,  // measure 8
0000
0001
0010
0000
0001
0000
0100
0010
0000
1000
0100
0010
0100
0000
1000
0000
,  // measure 9
0010
0000
0100
0000
0001
0000
0010
0001
1000
0000
0010
0000
0100
0000
0001
0100
,  // measure 10
0000
0010
0100
0000
0010
0000
1000
0100
0010
0000
0100
0000
1000
0000
0001
1000
,  // measure 11
0000
0010
1000
0000
0100
0000
1000
0010
1000
0000
0100
0000
1000
0000
0010
0000
,  // measure 12
0001
0000
0010
0000
0100
0000
0001
0000
0010
0000
0100
1000
0000
0001
1000
0000
,  // measure 13
0110
0000
0000
0000
1001
0000
0010
0100
0000
0010
0100
0000
1010
0000
1000
0100
,  // measure 14
0000
1000
0100
0000
0011
0000
0001
0100
0000
0001
0100
0010
0100
0000
0001
0000
,  // measure 15
0010
0000
0100
0000
1000
0000
0010
0100
0001
0100
0010
0000
1000
0000
0100
1000
,  // measure 16
0000
0010
1000
0000
0001
0000
0010
0001
0010
0100
1000
0000
0010
0000
0100
0000
,  // measure 17
0101
0000
0000
0000
0000
0000
0000
0000
2100
0000
0000
0000
0000
0000
0000
0000
0000
0000
0000
0000
3001
0010
0001
0000
0101
0000
0000
0000
0000
0000
1100
0000
,  // measure 18
0000
0000
1010
0000
0011
0000
0000
1001
0000
0000
1100
0000
1001
0000
0000
0101
,  // measure 19
0000
0000
0000
0000
0110
0000
0000
0000
0102
0000
0000
0000
0000
0000
0000
0000
0000
0000
0000
0000
1003
0010
1000
0000
0110
0000
0000
0000
0000
0000
0101
0000
,  // measure 20
0000
0000
0011
0000
1010
0000
0000
1001
0000
0000
1100
0000
0110
0000
0000
1100
,  // measure 21
0000
0000
0000
0000
1001
0000
0000
0000
0021
0000
0000
0000
0000
0000
0000
0000
0000
0000
0000
0000
0031
1000
0001
0000
1010
0000
0000
0000
0000
0000
1001
0000
,  // measure 22
0000
0000
0110
0000
0101
0000
0000
0011
0000
0000
1001
0000
1100
0000
0000
0011
,  // measure 23
0000
0000
0000
0000
0110
0000
0000
0000
2100
0000
0000
0000
0000
0000
0000
0000
0000
0000
0000
0000
3010
0100
0010
0000
1010
0000
0000
0000
0000
0000
0011
0000
,  // measure 24
0000
1100
0220
0000
0000
0000
0000
0000
,  // measure 25
0330
0000
0000
0000
0000
0000
0000
0000
0000
0000
0000
0000
0001
0000
0000
0000
0000
0000
0000
0000
0000
0010
0000
0000
0000
0000
0000
0000
0000
0000
1000
0000
0000
0000
0000
0000
0010
0000
0000
0000
0001
0000
0000
0000
0100
0000
0000
0000
,  // measure 26
0010
0000
1000
0000
0100
0000
1000
0000
0010
0000
0100
0000
0001
0000
0010
0000
0100
0000
1000
0000
0000
0100
0000
0000
,  // measure 27
0001
0100
1100
0000
0001
0010
0001
0101
,  // measure 28
0000
1000
0010
0100
0010
1010
0000
1100
,  // measure 29
0000
1001
0010
0100
0001
0010
0001
1001
,  // measure 30
0000
0010
1000
0100
0010
0110
0000
0100
,  // measure 31
1001
0000
0000
0000
0010
0000
0100
0000
0001
0000
1000
0100
0000
1000
0010
0000
,  // measure 32
0100
0001
0010
0000
0001
1000
0100
0000
0100
1000
0001
0000
0010
0001
1000
0000
,  // measure 33
1000
0001
0010
0000
0001
0100
0001
0000
1000
0010
1000
0000
0001
0100
0010
1000
,  // measure 34
0100
0000
1000
0000
0010
0100
0010
0000
1000
0100
1000
0001
0000
0001
0010
0000
,  // measure 35
0001
0100
0020
0000
1030
0100
1000
0101
,  // measure 36
0000
0010
1000
0001
0010
1100
0000
1001
,  // measure 37
0000
0011
0001
0100
0010
1000
0001
0011
,  // measure 38
0000
1100
0010
1000
0001
0110
0000
1000
,  // measure 39
1001
0000
0000
0000
0100
0010
1000
0000
0001
0010
0100
1000
0000
1000
0010
0000
,  // measure 40
0100
0001
0010
0000
0001
0100
0010
0000
1000
0100
0010
0001
0000
0001
0010
0000
,  // measure 41
0001
1000
0100
0000
1000
0010
0100
0000
0010
0100
0010
0100
0000
0010
0100
0000
,  // measure 42
0001
0010
0100
0000
1000
0100
1000
0100
0010
0001
0010
0001
0000
0001
1000
0000
,  // measure 43
0010
0100
0002
0000
1000
0000
0100
0000
,  // measure 44
1003
0000
0000
0100
0010
0100
0010
1000
0001
1000
0001
1000
,  // measure 45
1001
0000
0100
0101
0000
0001
0011
0000
,  // measure 46
1000
1010
0000
0100
1001
0000
0010
0100
,  // measure 47
1001
0000
0000
1000
0010
0001
0010
1000
0010
1000
0001
0100
,  // measure 48
1000
0100
1000
0100
0001
0010
0100
1000
0001
1000
0010
0100
,  // measure 49
0001
0000
0010
0000
0100
0000
1100
0000
0000
0000
0000
0000
0001
0000
0000
0011
0000
0000
0000
0000
0000
0110
0000
0000
,  // measure 50
0110
0000
1001
0000
1000
1001
0000
0011
,  // measure 51
0011
0000
1100
0000
0010
0110
0000
1010
,  // measure 52
1010
0000
0000
0000
0100
0000
0000
0011
0000
0000
0110
0000
1100
0000
0000
1001
,  // measure 53
0000
0000
0101
0000
0020
0000
0000
0000
0000
0000
1030
0100
0001
0000
0000
0000
,  // measure 54
0001
0100
1000
0000
0000
0000
0001
0010
1000
0000
0000
0000
2020
0000
0000
0000
,  // measure 55
3030
0000
0001
0000
0012
0000
0000
0000
0000
0000
1003
0010
0100
0000
0000
0000
,  // measure 56
0100
0010
1000
0000
0000
0000
0001
0010
0100
0000
0000
0000
2200
0000
0000
0000
,  // measure 57
3300
0000
0001
0000
1001
0000
0000
0000
0000
0000
0100
0010
0100
0000
0000
0000
,  // measure 58
0001
0100
0000
1000
0100
0000
0010
0000
,  // measure 59
0110
0000
1000
0010
1000
0010
0100
0001
,  // measure 60
0100
0001
0010
0001
0010
0001
1000
0100
,  // measure 61
1000
0100
0010
0010
0100
0100
1000
1000
,  // measure 62
0001
0001
0010
0010
1000
1000
0001
0001
,  // measure 63
0100
0000
0100
0000
0010
0100
0010
0000
1000
0010
1000
0000
0001
0100
0001
0000
,  // measure 64
1000
0010
1000
0000
0001
0010
0100
0000
1000
0001
1000
0001
1000
0000
0010
0000
,  // measure 65
0220
0000
0000
0000
0330
0000
0000
0000
1010
0000
1000
0001
0000
0100
0001
0000
,  // measure 66
0011
0000
0001
1000
0000
0001
1000
0000
1010
0000
0100
0001
0000
0010
0001
0000
,  // measure 67
1000
0000
0010
0000
0001
0000
0010
0000
0100
0000
0001
0010
0100
0000
1000
0000
,  // measure 68
0010
0000
0100
0001
0000
1000
0100
0000
1000
0000
0010
0100
0001
0000
1000
0000
,  // measure 69
0001
0000
0010
0100
0000
1000
0001
0000
1000
0000
0010
0100
0010
0100
0010
0000
,  // measure 70
1000
0000
0100
0000
0001
0000
0100
0000
1000
0000
0001
0000
0100
0010
0000
0010
,  // measure 71
1000
0000
0001
0000
0011
0000
0000
0000
1001
0000
1000
0100
0000
1000
0100
0000
,  // measure 72
1010
0000
0100
0010
0000
0100
0010
0000
0101
0000
0010
0001
0000
0010
0001
1000
,  // measure 73
0001
0000
0010
0000
1000
0000
0010
0000
0001
0000
1000
0010
1000
0010
0100
0000
,  // measure 74
0001
0000
0010
0001
0000
0100
0010
0000
1000
0000
0100
0010
0100
0010
0100
0000
,  // measure 75
1000
0000
0001
0000
1001
0000
0000
0000
1010
0000
0000
0000
0100
0001
0100
0000
,  // measure 76
0011
0000
0000
1100
0000
0000
1010
0000
0101
0000
0000
1001
0000
0000
1100
0000
,  // measure 77
1010
0000
0000
0011
0000
0000
1100
0000
1001
0000
0010
0100
0010
0000
1001
0000
,  // measure 78
0010
0100
0010
0000
1001
0000
0010
0100
0010
0000
1001
0000
0010
0100
0010
0000
,  // measure 79
1001
0000
0000
0000
0110
0000
0000
0000
1000
0000
0001
0000
0010
0001
0100
0010
,  // measure 80
1000
0000
0000
1100
0000
0000
1001
0000
0011
0000
0000
0101
0000
0000
1010
0000
,  // measure 81
1001
0000
0000
0110
0000
0000
0101
0000
0110
0000
1000
0001
1000
0000
0110
0000
,  // measure 82
1000
0001
1000
0000
0110
0000
1000
0001
1000
0000
0110
0000
1000
0001
1000
0000
,  // measure 83
0110
0000
0001
0010
0002
0000
0000
0000
1003
0000
0010
0000
0100
0001
0010
0100
,  // measure 84
1000
0000
0000
1001
0000
0000
0011
0000
0110
0000
0000
1001
0000
0000
1010
0000
,  // measure 85
0101
0000
0000
0110
0000
0000
1001
0000
0010
0000
1000
0100
0010
0001
0100
0000
,  // measure 86
0010
0100
0001
1000
0100
0000
1000
0010
0100
0001
0010
0000
0001
0100
0010
1000
,  // measure 87
0100
0000
0010
0100
1000
0000
0000
0000
1100
0000
0001
0000
0010
0001
1000
0000
,  // measure 88
1010
0000
0000
0101
0000
0000
1100
0000
1010
0000
0000
0011
0000
0000
1001
0000
,  // measure 89
0110
0000
0000
1010
0000
0000
1100
0000
0202
0000
0000
0000
0000
0000
0000
0000
,  // measure 90
0000
0000
0000
0000
,  // measure 91
0303
0000
0000
0000
0000
0000
0000
0000
0010
1000
0001
1000
0000
0010
0100
0000
,  // measure 92
0001
0010
0100
0010
0000
0001
1000
0000
0100
1000
0001
1000
0000
0010
0100
0000
,  // measure 93
0001
0000
0010
0000
1000
0000
0010
0000
0001
1000
0010
1000
0000
0001
0010
0000
,  // measure 94
0001
1000
0010
1000
0000
0001
0010
0000
0001
0100
1000
0100
0000
0100
0010
0000
,  // measure 95
1000
0100
0001
0202
0303
0000
2020
0000
,  // measure 96
0000
0000
0000
0000
0000
3030
0000
0000
;
