#TITLE:Saturday Night Love;
#SUBTITLE:-Phunk Disco Mix-;
#ARTIST:Sota Fujimori;
#TITLETRANSLIT:;
#SUBTITLETRANSLIT:;
#ARTISTTRANSLIT:;
#GENRE:;
#CREDIT:;
#BANNER:Saturday Night Love -Phunk Disco Mix-_banner.png;
#BACKGROUND:Saturday Night Love -Phunk Disco Mix-.png;
#LYRICSPATH:;
#CDTITLE:;
#MUSIC:Saturday Night Love -Phunk Disco Mix-.ogg;
#OFFSET:-0.450000;
#SAMPLESTART:60.889999;
#SAMPLELENGTH:14.200000;
#LASTBEATHINT:234.000000;
#SELECTABLE:YES;
#BPMS:0.000000=135.000000
;
#STOPS:64.000000=3.111000
;
#BGCHANGES:;
#KEYSOUNDS:;
#ATTACKS:;

//---------------dance-single - ----------------
#NOTES:
     dance-single:
     :
     Easy:
     5:
     0.191011,0.203183,0.087390,0.061173,0.000000,153.000000,143.000000,10.000000,7.000000,0.000000,0.000000,0.191011,0.203183,0.087390,0.061173,0.000000,153.000000,143.000000,10.000000,7.000000,0.000000,0.000000:
0000
0000
0000
0000
,
0000
0000
0000
0000
,
0000
0000
0000
0000
,
0000
0000
0000
0000
,
0010
0000
0001
0000
,
1000
0000
0010
0000
,
0100
0000
0001
0000
,
1000
0100
0100
0000
,
0001
0010
0001
0000
,
1000
0010
1000
0000
,
0010
0100
0010
0000
,
0100
0001
0100
0000
,
0010
1000
0010
0000
,
0100
0001
0100
0000
,
0001
0010
0001
0000
,
1000
0000
0110
0000
,
0000
0001
0000
0100
,
1000
0100
0000
1000
,
0010
0100
0000
0011
,
0000
0002
0003
2000
,
3000
0010
0000
0010
,
0100
0010
0000
1000
,
0100
2000
0000
3001
,
0000
0010
0100
1000
,
0000
1001
0000
0010
,
0100
0001
0000
0010
,
0000
0100
0000
1000
,
1000
0020
0000
0130
,
0000
0001
0000
0001
,
1000
0100
0000
0100
,
1000
0010
0000
0110
,
0000
0001
0000
1001
,
0000
1000
0010
1000
,
0000
0001
0010
0001
,
0000
1000
0100
0100
,
0000
0001
0010
0010
,
0000
0100
1000
0100
,
0000
0010
0001
0010
,
0000
2002
0000
0000
,
0000
3003
0000
0010
,
0010
1000
0000
0100
,
1000
0100
0000
1001
,
0000
0001
0010
0001
,
0000
0100
0000
0110
,
0000
0100
0010
1000
,
0000
0001
0010
0100
,
0000
1000
0010
0020
,
0000
0030
0000
0100
,
0100
0100
0000
0001
,
1000
0001
0000
1010
,
0000
0100
0001
0001
,
0000
0010
0000
0101
,
0000
1000
0100
1000
,
0000
0001
0100
0001
,
0000
1000
0010
1000
,
0000
0001
0010
0001
,
0000
0000
1000
0000
0000
0001
0000
0000
,
0000
0100
0000
0000
0000
0010
0000
0100
,
0000
0010
0000
0000
0000
0000
0000
0000
;

//---------------dance-single - ----------------
#NOTES:
     dance-single:
     :
     Medium:
     8:
     0.344568,0.355570,0.096129,0.122347,0.030587,276.000000,265.000000,11.000000,14.000000,0.000000,0.000000,0.344568,0.355570,0.096129,0.122347,0.030587,276.000000,265.000000,11.000000,14.000000,0.000000,0.000000:
0000
0000
0000
0000
,
0000
0000
0000
0000
,
0000
0000
0000
0000
,
0000
0000
0000
0000
,
0021
0001
0001
0031
,
1200
1000
1000
1300
,
2000
0010
0010
3010
,
0001
0000
0011
0000
1000
0100
0010
0000
,
0001
0000
1000
0000
0010
0100
0010
0000
,
1000
0000
0100
0000
1000
0001
0010
0000
,
0001
0000
0100
0000
0010
1000
0100
0000
,
0010
0000
0100
0000
1000
0001
0100
0000
,
0010
0000
0110
0000
1000
0001
0100
0000
,
0001
0000
1001
0000
0100
0010
1000
0000
,
0001
0010
0001
0000
1000
0100
1000
0000
,
0010
0100
0010
0000
1000
0001
0010
0000
,
1001
0000
0200
0000
0310
0000
0001
1000
,
0010
0000
0000
0000
0100
0000
0000
0000
0001
0000
0000
0000
1000
0000
0000
0010
,
0000
1000
0001
0000
0000
0200
0000
0000
,
0300
0000
0000
0000
0010
0000
0000
0100
0000
0000
0010
0000
1000
0000
0000
0001
,
0000
1000
0100
0000
0010
0100
0000
1000
,
0001
0000
0100
0000
0010
1000
0000
0001
,
0010
0000
0000
0000
2002
0000
0000
0000
3003
0000
0000
0000
0010
0000
0000
0100
,
0000
0010
1000
0000
0001
0010
0200
0000
,
1300
0000
0010
0000
0100
0000
0001
1000
,
0100
0000
0000
0000
0010
0000
0000
0000
0100
0000
0000
0000
1000
0000
0000
0001
,
0000
0100
0010
0000
0000
2000
0000
0000
,
3000
0000
0000
0000
0001
0000
0000
0010
0000
0000
0001
0000
1000
0000
0000
0100
,
0000
1000
0010
0000
0100
0010
0000
0100
,
0010
0000
1000
0000
0001
1000
0000
0001
,
1000
0220
0000
0000
,
0330
0000
1000
0001
0010
0000
0001
1000
,
0100
0000
1000
0010
0000
0010
0000
0000
,
1000
0001
0100
0000
0010
1000
0000
1000
,
0001
0000
0010
0001
0010
0000
0100
1000
,
0100
0000
1000
0001
0100
0010
0000
0100
,
0100
0000
0001
1000
0010
0000
1000
0100
,
0010
0000
0001
0100
0010
1000
0000
0100
,
1000
0000
0001
0000
0010
0002
0000
0000
,
0000
0000
0000
0000
0003
0000
1000
1000
,
1000
0000
0010
0100
0010
0000
1000
0001
,
0010
0000
0001
0000
1000
0100
0000
0010
,
0001
0000
0100
0010
1000
0000
0001
0010
,
0100
0000
1000
0001
0100
0010
0000
0100
,
0100
0000
0001
0100
0001
0000
1000
0010
,
1000
0000
0010
0000
1000
0010
0000
0100
,
0001
0000
0010
0000
0100
2000
0000
0000
,
0000
0000
0000
0000
3000
0000
0001
0001
,
0001
0000
0100
0000
0010
0100
0000
0001
,
1000
0001
0000
1000
0100
0000
0010
0000
,
0110
0000
1000
0000
0001
1000
0000
0100
,
0010
0000
0001
0010
0100
2000
0000
0000
,
3001
0000
0010
0100
0010
0000
1000
0000
,
0001
0000
0010
0000
0100
1000
0000
0001
,
0001
0000
0100
0010
1000
0000
0001
0010
,
0100
0000
0010
0100
1000
0001
0000
1000
,
1000
0000
0010
0000
0100
0010
0000
1000
,
0001
1000
0000
0001
0010
0100
0000
1100
,
0000
0011
0000
0000
0000
0000
0000
0000
;

//---------------dance-single - ----------------
#NOTES:
     dance-single:
     :
     Hard:
     12:
     0.491883,0.507957,0.218476,0.113608,0.148564,394.000000,369.000000,25.000000,13.000000,0.000000,0.000000,0.491883,0.507957,0.218476,0.113608,0.148564,394.000000,369.000000,25.000000,13.000000,0.000000,0.000000:
// measure 0
0000
0000
0000
0000
,  // measure 1
0000
0000
0000
0000
,  // measure 2
0000
0000
0000
0000
,  // measure 3
0000
0000
0000
0000
,  // measure 4
0001
0000
0100
0001
0000
0100
0001
0000
1000
0000
0100
0000
0001
0000
0100
0000
,  // measure 5
1000
0000
0010
1000
0000
0010
1000
0000
0001
0000
0100
0000
1000
0000
0100
0000
,  // measure 6
0010
0000
0100
0010
0000
0100
0010
0000
1000
0000
0001
0000
0100
0000
0010
0000
,  // measure 7
1000
0000
0000
1000
0100
0000
0000
0100
0010
0000
0001
0000
1000
0000
0010
0000
,  // measure 8
0100
0001
0100
0000
0010
1000
0010
0100
,  // measure 9
0001
0010
1000
0001
0100
1000
0001
0000
,  // measure 10
1000
0010
1000
0000
0001
0100
0001
0010
,  // measure 11
0001
0100
1000
0001
0010
1000
0001
0000
,  // measure 12
1000
0010
0010
0000
0001
0100
0100
0000
,  // measure 13
0010
1000
0100
0001
0100
0010
1000
0000
,  // measure 14
0010
0001
0101
0000
1000
0010
0110
0000
,  // measure 15
0001
0000
0100
0000
1000
0000
0100
0000
0010
0000
1000
0000
0001
0000
0010
0100
,  // measure 16
0000
0000
1001
0000
0010
0000
0100
0001
,  // measure 17
1000
0000
0100
0000
0010
0000
0000
0000
0010
0000
0001
0000
1000
0000
0000
1001
,  // measure 18
0000
0010
0100
0000
0002
2000
0000
0000
,  // measure 19
3003
0000
0000
0000
0110
0000
0000
0010
0000
0000
1000
0000
1001
0000
0000
0001
,  // measure 20
0000
0010
0100
0000
1000
0001
0000
1000
,  // measure 21
0001
0100
0010
0000
1000
0010
0000
0100
,  // measure 22
0001
0000
1000
0000
0001
0000
0000
0000
0011
0000
0000
0000
1000
0000
0100
1000
,  // measure 23
0000
0010
1000
0000
0001
0000
0010
0000
0100
0000
0010
0000
0001
0000
0100
0000
,  // measure 24
1000
0000
0201
0000
0010
0000
0301
1000
,  // measure 25
0100
0000
0010
0000
0001
0000
0000
0000
1001
0000
0010
0000
0100
0000
0000
1010
,  // measure 26
0000
0100
0001
0000
0010
2000
0000
3010
,  // measure 27
0001
0000
0100
0000
0010
0000
0000
1100
0000
0000
1000
0000
0001
0000
0000
0011
,  // measure 28
0000
0010
0200
0000
0310
0001
0000
1000
,  // measure 29
0010
1000
0001
0100
0010
0100
0000
0001
,  // measure 30
0010
0100
2000
0000
0001
0000
0010
0000
,  // measure 31
3001
0000
0000
0000
0010
0000
0001
0000
1000
0000
0010
0000
0100
0010
0100
0000
,  // measure 32
0001
0000
1000
0010
0100
0001
0000
0010
,  // measure 33
0100
1000
0001
0100
0001
0010
0100
1000
,  // measure 34
1001
0000
0010
0100
0001
0100
1000
0100
,  // measure 35
0001
0010
1000
0010
0001
0100
0010
1000
,  // measure 36
0110
0000
0001
1000
0100
1000
0010
0100
,  // measure 37
1000
0001
0010
1000
0100
0001
0100
1000
,  // measure 38
0001
0200
0000
0000
0010
0020
0000
0000
,  // measure 39
0000
0000
0000
0330
0000
0000
0110
1001
,  // measure 40
0110
0000
0000
0000
0001
0000
0100
0000
0010
0000
0100
0000
0001
1000
0001
0000
,  // measure 41
1000
0100
0001
0100
1000
0010
0100
0001
,  // measure 42
1001
0000
0010
0100
0001
1000
0010
0001
,  // measure 43
0010
1000
0100
0001
0100
1000
0001
0001
,  // measure 44
0011
0000
0000
0000
1000
0000
0010
0000
0100
0000
0010
0000
1000
0001
1000
0000
,  // measure 45
0010
0100
0001
0010
0100
1000
0010
0100
,  // measure 46
0010
1000
0000
1000
0200
0020
0000
0000
,  // measure 47
0000
0000
0000
0330
0000
0000
0011
1100
,  // measure 48
0011
0000
0000
0000
1000
0000
0010
0000
0100
0000
0010
1000
0000
0001
0100
0000
,  // measure 49
0001
0000
0010
0000
0001
0000
1000
0000
0100
0000
1000
0100
0000
0010
0001
0000
,  // measure 50
2000
0000
0000
0000
3010
0000
0100
0000
0001
0000
0010
0001
0000
1000
0001
0000
,  // measure 51
0100
0010
1000
0100
0001
0200
0000
1000
,  // measure 52
1300
0000
0000
0000
0010
0000
0100
0000
0010
0000
1000
0001
0000
1000
0001
0000
,  // measure 53
0010
0000
0100
0000
0010
0000
0001
0000
1000
0000
0010
0100
0000
0010
0100
0000
,  // measure 54
0002
0000
0000
0000
0013
0000
0100
0000
0010
0000
0001
0010
0000
0100
1000
0000
,  // measure 55
0010
0000
0100
0000
0010
0000
1000
0000
0100
0000
1000
0010
0000
0100
0001
0000
,  // measure 56
1000
0000
1000
0010
0001
0010
0000
0100
,  // measure 57
0001
0100
0000
0001
0010
0110
0000
1100
,  // measure 58
0000
0101
0000
0000
0000
0000
0000
0000
;
