#TITLE:去る金合戦;
#SUBTITLE:;
#ARTIST:あさきのくりむ童話;
#TITLETRANSLIT:Saru kanegassen;
#SUBTITLETRANSLIT:;
#ARTISTTRANSLIT:Asakinocrimmdouwa;
#GENRE:crimms TALES 2;
#CREDIT:;
#BANNER:Saru_kanegassen_banner.png;
#BACKGROUND:Saru_kanegassen.png;
#LYRICSPATH:;
#CDTITLE:;
#MUSIC:Saru kanegassen.ogg;
#OFFSET:-0.430000;
#SAMPLESTART:65.900002;
#SAMPLELENGTH:12.000000;
#LASTBEATHINT:261.000000;
#SELECTABLE:YES;
#BPMS:0.000000=164.000000
;
#STOPS:224.000000=1.098000
;
#BGCHANGES:;
#KEYSOUNDS:;
#ATTACKS:;

//---------------dance-single - ----------------
#NOTES:
     dance-single:
     :
     Easy:
     6:
     0.240010,0.286886,0.070003,0.100004,0.000000,168.000000,161.000000,7.000000,10.000000,0.000000,0.000000,0.240010,0.286886,0.070003,0.100004,0.000000,168.000000,161.000000,7.000000,10.000000,0.000000,0.000000:
0000
0000
0000
0000
,
0000
0000
0000
0000
,
0000
0000
0000
0000
,
0000
0000
0000
0000
,
1000
0000
1000
0000
,
0001
0000
0001
0000
,
0010
0000
0010
0000
,
0100
0000
0100
0000
,
1000
0000
0010
0000
,
1000
0000
0001
0010
,
0001
0000
0100
0000
,
0001
0000
1000
0100
,
2000
0000
3010
0000
,
0010
0100
0010
0000
,
0100
0000
0001
0000
,
1000
0001
1000
0000
,
0001
0000
0010
0001
,
0100
0000
0010
0000
,
1000
0000
0100
1000
,
0010
0000
0100
0000
,
1001
0000
0001
0010
,
1000
0000
0010
0000
,
0001
1000
0100
0000
,
1000
0010
0001
0000
,
0110
0000
0001
1000
,
0001
0000
1001
0000
,
0100
0010
0100
0000
,
0001
1000
0001
0000
,
0010
0001
0010
0000
,
0100
1000
0100
0000
,
1000
0010
1000
0000
,
0001
0100
0001
0000
,
0100
0001
1000
0000
,
0010
1000
0100
0000
,
0010
0001
1000
0000
,
0010
0100
0001
0000
,
1000
0000
0000
0010
0000
0000
2000
0000
,
0000
3000
0000
0000
,
0001
0000
0000
0010
0000
0000
0002
0000
,
0000
0003
0000
0000
,
0100
0000
0000
0010
0000
0000
0200
0000
,
0000
0300
0000
0000
,
0001
0000
0000
1000
0000
0000
0001
0000
,
0000
0100
0010
0100
,
0220
0000
0330
0000
,
0001
0010
0100
1000
,
0001
0000
1000
0000
,
0010
1000
0001
0100
,
0001
0010
0001
0000
,
1000
0100
1000
0000
,
0001
0010
0001
0000
,
1000
0000
1001
0000
,
0010
0100
0001
1000
,
0002
0003
2000
3000
,
0020
0030
0200
0300
,
0001
0010
0100
0000
,
0110
0001
1000
0001
,
1000
0001
1000
0001
,
0000
0100
0010
0100
,
0010
0100
0010
0100
,
0000
0001
0010
0001
,
0010
0001
0010
0001
,
0000
1000
0100
1000
,
0100
0010
0001
1001
;

//---------------dance-single - ----------------
#NOTES:
     dance-single:
     :
     Medium:
     9:
     0.434303,0.480019,0.280011,0.200008,0.000000,304.000000,276.000000,28.000000,20.000000,0.000000,0.000000,0.434303,0.480019,0.280011,0.200008,0.000000,304.000000,276.000000,28.000000,20.000000,0.000000,0.000000:
0000
0000
0000
0000
,
0000
0000
0000
0000
,
0000
0000
0000
0000
,
0000
0000
0000
0000
,
2000
0010
0000
3010
,
0002
0100
0000
0103
,
1000
0000
0100
1000
0100
0000
0010
0001
,
0010
0000
0001
1000
0001
0000
1001
0000
,
0100
0000
0000
0010
0100
0000
0010
0100
,
0010
0000
1000
0001
0010
0100
1000
0000
,
0010
0000
0000
0010
1000
0000
0000
0010
,
1000
0000
0001
1000
0100
0010
0001
0000
,
1000
0000
0100
0000
0000
1000
0001
0010
,
0001
0100
0220
0330
,
1000
0000
0001
0100
0010
0100
0001
0000
,
1000
0001
0110
0000
,
1000
0000
0010
1000
0010
1000
0000
0001
,
0000
0010
0100
0000
1000
0000
0001
0000
,
0010
0000
0001
0100
0001
0100
0000
0010
,
0000
1000
0010
0000
0100
0010
1000
0000
,
0001
0000
0010
0001
1000
0001
0000
0100
,
0000
0010
0000
0100
0001
0000
1001
0000
,
0100
0000
0010
1000
0010
0000
0100
0001
,
0000
0010
0001
0000
1000
0000
1100
0000
,
0010
0000
0001
1000
0100
0000
1000
0000
,
0010
0000
0100
0001
2000
0000
0000
0000
,
3010
0000
0100
0010
0100
0000
0001
1000
,
0001
0100
0220
0330
,
0001
0000
1000
0000
0100
0010
0000
0001
,
0000
1000
0100
0000
1000
0000
1010
0000
,
0100
0000
0001
0000
0010
1000
0000
0010
,
0000
0001
0100
0000
0010
0100
0010
0000
,
1000
0000
0100
1000
0100
0010
0000
0001
,
0000
1001
0000
0000
0100
0000
0110
0000
,
0010
0000
1000
0100
1000
0000
0001
0010
,
0000
0001
0100
0000
0010
0000
1000
0000
,
1010
0000
0000
0001
0000
0000
2002
0000
,
0000
3003
0100
0100
,
0110
0000
0000
1000
0000
0000
2002
0000
,
0000
3003
0010
0010
,
0101
0000
0000
0010
0000
0000
2200
0000
,
0000
3300
0001
0001
,
1000
0010
0000
1000
0010
0000
0100
0001
,
0000
1000
0001
0000
0010
0000
0001
0000
,
2002
0000
3003
0000
,
0010
0000
0110
0000
1000
0000
0100
1000
,
0001
0010
0100
0000
0010
0000
0001
0000
,
0100
0000
0010
0100
0010
0000
1000
0000
,
0100
1000
0100
1000
0001
0010
0001
0000
,
1000
0001
2002
3003
,
0010
0100
0110
1000
,
0010
1000
0010
0000
0100
0001
0100
0000
,
0010
1000
0001
1000
0100
0010
0001
0000
,
1000
1100
0001
0101
,
1000
1010
0001
0011
,
1000
0001
0000
0001
1000
0010
0000
0100
,
0020
0030
0000
0000
0100
0000
0000
0000
0100
0000
0001
0000
0100
0000
0000
0000
,
0100
0000
0010
1000
0010
0000
0110
0000
,
0010
0000
0010
0000
0010
1000
0010
0000
,
0010
0000
0010
0100
0010
0000
0110
0000
,
0100
0000
0100
0001
0010
0000
0001
1000
,
0100
0000
1000
0010
0100
0000
0101
0000
,
0010
0000
1000
0010
0100
0010
1000
0001
,
0010
0011
0100
2200
,
3300
0000
0000
0000
;

//---------------dance-single - ----------------
#NOTES:
     dance-single:
     :
     Hard:
     12:
     0.597167,0.576023,0.360014,0.160006,0.005000,418.000000,382.000000,36.000000,16.000000,0.000000,0.000000,0.597167,0.576023,0.360014,0.160006,0.005000,418.000000,382.000000,36.000000,16.000000,0.000000,0.000000:
0000
0000
0000
0000
,
0000
0000
0000
0000
,
0000
0000
0000
0000
,
0000
0000
0000
0000
,
0100
0010
1000
0000
0001
0010
0100
0000
,
1000
0001
0100
0010
1000
0100
0010
0000
,
0001
0100
0001
0100
0010
1000
0010
1000
,
0001
0100
1000
0100
0010
0100
0001
0000
,
1010
0000
0100
0010
0100
0000
0001
0010
,
0001
0000
1000
0100
0010
0100
1000
0000
,
0101
0000
1000
0010
0100
0000
0010
1000
,
0001
0000
0010
0001
1000
0100
0010
0000
,
0012
0000
1003
0000
0010
0100
0010
1000
,
0001
0010
0100
0000
2100
0000
3001
0000
,
0110
0000
0010
1000
0001
0100
0010
0100
,
0001
0010
1000
0010
0002
0000
0103
0000
,
0010
1000
0001
1000
0010
0100
0000
0101
,
0000
1000
0100
0010
0100
1000
0002
0000
,
0013
0000
0001
1000
0100
0001
0000
1100
,
0000
1000
0010
0100
0010
1000
0001
0000
,
0010
0100
1000
0010
0100
0010
0000
1010
,
0000
0100
0010
0001
0010
0100
1000
0000
,
0100
0010
1000
0010
0100
0001
0010
0001
,
0000
1001
0000
1000
0100
0010
0100
0000
,
1000
0010
1000
0001
0010
0100
1000
0100
,
1000
0010
0100
0001
0020
0000
0031
0000
,
0001
1000
0001
0100
0010
1000
0100
1000
,
0010
0100
0001
0100
0020
0000
0130
0000
,
0001
0010
0100
1000
0100
0010
0000
0011
,
0000
1100
0000
0010
0100
0001
0100
0000
,
0010
1000
0100
1000
0001
0100
0000
1100
,
0000
0011
0000
1000
0010
0100
0002
0000
,
0013
0100
1000
0010
0100
0001
0000
1001
,
0000
1000
0100
0010
0100
1000
0002
0000
,
0013
0001
1000
0001
0010
1000
0010
0001
,
0000
1000
0100
0001
0100
1000
0010
0000
,
1010
0000
0100
0101
0000
0010
2010
0000
,
0000
0001
0000
0010
3010
0000
0110
0000
,
0101
0000
0010
1010
0000
1000
1200
0000
,
0000
0010
0000
0010
0310
0000
1000
0000
,
0011
0000
0001
1001
0000
0100
0120
0000
,
0000
1000
0000
1000
1030
0000
0001
0000
,
0010
0001
0000
1000
0100
0000
1000
0010
,
0000
0100
0001
0100
0010
1000
0100
1000
,
0002
0000
0013
0100
0010
0100
0010
0100
,
1000
0000
1001
0000
0100
0001
1000
0010
,
0100
0000
0010
0100
0010
0000
0100
0000
0010
0000
0000
0000
1010
0000
0000
0000
,
0100
0001
0100
0010
1000
0100
0001
0100
,
1000
0010
0100
0001
1000
0100
0010
0001
,
0200
0000
0310
0000
1001
0000
0001
0010
,
0100
0000
1100
0000
0011
0000
1000
0010
,
0100
0010
1000
0000
0001
0100
0010
0100
,
0001
0010
0100
1000
0010
0100
0001
0010
,
0001
0000
0001
0100
0010
0100
0010
1000
,
1100
0000
0100
1000
0001
0010
0100
0000
,
0110
0110
0000
1000
0001
1001
0000
0010
,
0200
0300
0000
0000
0001
0000
0010
0000
0001
0000
0010
0000
0100
0000
1000
0000
,
0100
1000
0001
0010
1000
0010
0001
0100
,
0010
0000
1000
0100
1000
0100
0010
0001
,
0010
0001
1000
0010
0001
0010
1000
0100
,
0010
0000
0010
0001
1000
0001
0100
0010
,
0001
0010
1000
0100
0010
0001
0100
0010
,
1000
0000
0001
0010
1000
0010
0001
0100
,
0010
1001
0110
2002
,
3003
0000
0000
0000
;

//---------------dance-single - ----------------
#NOTES:
     dance-single:
     :
     Challenge:
     14:
     0.684313,0.800032,0.680027,0.180007,0.155006,479.000000,411.000000,68.000000,18.000000,0.000000,0.000000,0.684313,0.800032,0.680027,0.180007,0.155006,479.000000,411.000000,68.000000,18.000000,0.000000,0.000000:
// measure 0
0000
0000
0000
0000
,  // measure 1
0000
0000
0000
0000
,  // measure 2
0000
0000
0000
0000
,  // measure 3
0000
0000
0000
0000
,  // measure 4
1000
0010
0100
0010
1000
0001
0010
0100
,  // measure 5
0010
0001
1000
0100
0010
0100
1000
0000
,  // measure 6
0001
0100
0010
1000
0001
0010
1000
0010
,  // measure 7
0001
0100
0010
1000
0001
1000
1001
0000
,  // measure 8
0110
0000
1000
0100
1100
0000
0001
0010
,  // measure 9
0011
0000
1000
0010
0001
0010
0100
0000
,  // measure 10
0110
0000
0010
1000
1100
0000
0001
0100
,  // measure 11
0101
0000
1000
0001
0010
0100
1000
0000
,  // measure 12
2100
0000
0001
0000
3010
0100
0001
0010
,  // measure 13
0001
1100
0202
0303
,  // measure 14
0010
0000
1000
0000
0100
0000
1000
0000
0001
0000
0010
0001
0010
0000
0100
0000
,  // measure 15
1000
0010
0100
0001
2002
0000
3003
0000
,  // measure 16
0100
0010
1000
0010
0100
0001
0000
0011
,  // measure 17
0000
1100
1000
0100
0010
0100
2000
0000
,  // measure 18
3001
0010
0100
0010
0001
1000
0000
1001
,  // measure 19
0000
0110
0000
0001
1000
0100
0020
0000
,  // measure 20
0031
1000
0100
1000
0010
0100
0000
1010
,  // measure 21
0000
1000
0010
0001
1000
0100
0001
0000
,  // measure 22
0010
0000
0001
0000
1000
0000
0100
0000
1000
0000
0010
0100
0010
0000
0100
0000
,  // measure 23
0000
0101
0000
0010
0100
0001
1000
0010
,  // measure 24
1000
0000
0100
0000
1000
0000
0010
0000
0100
0000
0001
0010
0001
0000
1000
0000
,  // measure 25
0010
0000
0100
0010
0100
0000
0001
0000
2000
0000
0000
0000
3100
0000
0000
0000
,  // measure 26
1000
0000
0010
1000
0010
0000
1000
0000
0001
0000
0100
0001
0100
0000
0001
0000
,  // measure 27
1000
0000
0001
0100
0010
0000
1000
0000
0100
0000
0010
0000
0001
1000
0000
0000
,  // measure 28
1001
0000
0001
0010
0001
0100
0000
1010
,  // measure 29
0000
0010
1000
0100
0010
0100
2000
0000
,  // measure 30
3001
0001
1000
1000
0010
0100
0000
0110
,  // measure 31
0000
0010
1000
0010
0001
0010
0200
0000
,  // measure 32
0301
1000
0010
0100
0001
1000
0000
1100
,  // measure 33
0000
0001
0010
0001
1000
0100
0010
0000
,  // measure 34
0001
0100
0010
1000
0001
0010
0001
1001
,  // measure 35
0000
1000
0010
1000
0100
0010
0001
0000
,  // measure 36
0011
0000
0001
1001
0000
1000
2100
0000
,  // measure 37
0000
0001
0000
0010
3010
0000
0110
0000
,  // measure 38
1010
0000
0100
0101
0000
0001
0012
0000
,  // measure 39
0000
1000
0000
1000
1003
0000
0110
0000
,  // measure 40
1010
0000
0110
0110
0000
1001
2002
3003
,  // measure 41
0000
0110
0000
1001
1001
0000
0100
0010
,  // measure 42
1010
1010
0000
0011
0011
0000
1100
1100
,  // measure 43
0000
0100
0001
0000
0010
1000
0010
0100
,  // measure 44
0002
0000
1000
1000
1003
0010
0100
0001
,  // measure 45
0010
0000
1100
0000
0001
0100
0010
0100
,  // measure 46
0001
0000
1000
0100
1000
0000
0010
0000
0100
0000
0001
0000
0011
0000
0000
0000
,  // measure 47
1001
0000
0110
0000
1000
0010
0100
0010
,  // measure 48
1000
0010
0001
0010
1000
0100
0001
0100
,  // measure 49
1000
0000
0001
0000
0011
0000
1000
0100
,  // measure 50
1100
0000
0110
0000
0011
0000
1000
0001
,  // measure 51
0010
0100
0010
0000
0001
1000
0100
1000
,  // measure 52
0010
1000
0010
0001
1000
0100
0001
0000
,  // measure 53
0110
0000
0010
1000
1010
0000
0001
0100
,  // measure 54
0101
0000
1000
0001
1001
0100
0110
0000
,  // measure 55
1010
1010
0000
0001
0011
0011
0000
1001
,  // measure 56
0200
0300
0000
0000
0100
0000
0100
0001
0100
0000
0100
0010
0100
0000
0100
0001
,  // measure 57
0100
0000
0100
0010
0100
0000
0100
1000
0100
0000
0100
1000
0100
0000
0100
1000
,  // measure 58
0100
0000
0100
0000
0100
0000
0100
0001
0100
0000
0100
0010
0100
0000
0100
0001
,  // measure 59
0100
0000
0100
0010
0100
0000
0000
0000
0110
0000
0000
0000
1001
0000
0000
0000
,  // measure 60
0110
0000
0000
0000
0100
0000
0100
1000
0100
0000
0100
0010
0100
0000
0100
1000
,  // measure 61
0100
0000
0100
1000
0100
0000
0100
0001
0100
0000
0100
0001
0100
0000
0100
0001
,  // measure 62
0100
0000
0100
0001
0100
0000
0100
1000
0100
0000
0100
0010
0100
0000
0100
0001
,  // measure 63
0100
1001
0011
2020
,  // measure 64
3030
0000
0000
0000
;
