#TITLE:Sapphire;
#SUBTITLE:;
#ARTIST:kors k;
#TITLETRANSLIT:;
#SUBTITLETRANSLIT:;
#ARTISTTRANSLIT:;
#GENRE:;
#CREDIT:;
#BANNER:Sapphire_banner.png;
#BACKGROUND:Sapphire.png;
#LYRICSPATH:;
#CDTITLE:;
#MUSIC:Sapphire.ogg;
#OFFSET:-0.429000;
#SAMPLESTART:91.287003;
#SAMPLELENGTH:15.000000;
#LASTBEATHINT:277.000000;
#SELECTABLE:YES;
#BPMS:0.000000=140.000000
;
#STOPS:
;
#BGCHANGES:;
#KEYSOUNDS:;
#ATTACKS:;

//---------------dance-single - ----------------
#NOTES:
     dance-single:
     :
     Easy:
     5:
     0.243576,0.277469,0.088469,0.064341,0.000000,212.000000,201.000000,11.000000,8.000000,0.000000,0.000000,0.243576,0.277469,0.088469,0.064341,0.000000,212.000000,201.000000,11.000000,8.000000,0.000000,0.000000:
0000
0000
0000
0000
,
0000
0000
0000
0000
,
0000
0000
0000
0000
,
0000
0000
0000
0000
,
0000
0000
0000
0000
,
1000
0001
0000
0001
,
0100
0010
0000
0010
,
1000
0001
0100
0010
,
0220
0000
0000
0000
0000
0330
0000
0000
,
0001
0010
0000
0010
,
0001
0100
0000
0100
,
0010
1000
0000
1000
,
0001
0010
0000
0110
,
1000
0001
0100
0000
,
0010
1000
0001
0000
,
1000
0001
0010
0100
,
1001
0000
0010
0010
,
0100
0001
0000
0001
,
1000
0010
0000
0010
,
0100
0001
0000
0001
,
1000
0100
0000
0100
,
0010
0001
1000
0000
,
0010
0100
0001
0000
,
1000
0001
0010
0100
,
2002
0000
3003
0000
,
0010
0100
0010
0000
,
1000
0100
0010
0001
,
0100
0010
0100
0000
,
0001
0010
0100
1000
,
0010
0100
0001
0000
,
1000
0010
0100
0001
,
0010
0100
1000
0000
,
0101
0000
0110
0000
,
1000
0001
0010
0000
,
0001
0100
0010
1000
,
0100
0010
0001
0000
,
0100
0010
1000
0001
,
1000
0010
0100
0000
,
0001
0100
0010
1000
,
0001
0010
0001
1000
,
2002
0000
0000
0000
0000
3003
0000
0000
,
0100
0010
0000
0010
,
1000
0000
0001
0010
,
0001
0100
0000
0100
,
0010
0000
0010
1000
,
0001
0010
0000
0010
,
0100
0000
1000
0001
,
1000
0010
0000
0010
,
0200
0000
0301
0010
,
0001
1000
0010
0000
,
1000
0001
0100
0000
,
0010
0100
0010
0100
,
0001
1000
1001
0000
,
0010
0100
0001
0010
,
0001
1000
0100
0000
,
1000
0010
0100
0001
,
0010
0100
1000
0000
,
0010
0100
0001
1000
,
0100
0010
0001
0000
,
0100
0010
0100
0001
,
1001
0000
0110
0000
,
0001
0010
0000
0010
,
0001
1000
0010
0100
,
0001
0100
0000
0100
,
0010
1000
0001
0010
,
0001
1000
0000
1000
,
0100
0010
0001
0100
,
0010
1000
0000
1000
,
0002
0000
0000
0000
0000
0003
0000
0000
,
0110
0000
0000
0000
;

//---------------dance-single - ----------------
#NOTES:
     dance-single:
     :
     Medium:
     11:
     0.473364,0.499445,0.168894,0.152809,0.048256,412.000000,391.000000,21.000000,19.000000,0.000000,0.000000,0.473364,0.499445,0.168894,0.152809,0.048256,412.000000,391.000000,21.000000,19.000000,0.000000,0.000000:
0000
0000
0000
0000
,
0000
0000
0000
0000
,
0000
0000
0000
0000
,
0000
0000
0000
0000
,
0000
0000
0000
0000
,
0001
0000
0000
0010
0000
0000
0200
0000
0000
0000
0010
0000
0310
0000
0000
0000
,
0001
0000
0000
1000
0000
0000
0010
0000
1000
0000
0000
0100
0000
0000
0010
0000
,
0100
0000
0000
1000
0000
0000
0020
0000
0000
0000
0100
0000
0130
0000
0000
0000
,
2002
0000
3003
0000
,
0010
0100
0001
0100
0000
0010
1000
0100
,
0000
1000
0001
0010
0000
0001
0100
0010
,
1000
0001
0010
0001
0000
0100
0010
1000
,
0000
0001
1000
0010
0100
0010
1000
0000
,
0001
0010
0100
1000
0000
0010
0100
0010
,
0000
1000
0010
0100
0000
0001
1000
0010
,
1000
0100
0010
0001
0000
0100
0001
1000
,
0010
0000
0000
0100
0000
0000
0010
0000
1000
0000
0001
0000
1000
0000
0000
0000
,
0001
0010
0001
0100
0000
0010
0100
0001
,
0000
0010
0100
0001
0000
0001
0100
0010
,
0001
1000
0010
0100
0000
0010
1000
0100
,
0000
1000
0010
0100
0000
0010
1000
0100
,
0010
0100
1000
0001
0000
0100
0010
1000
,
0000
0001
1000
0010
0100
0001
0010
0000
,
0001
1000
0010
0100
0010
0100
0001
0000
,
2020
0000
0000
0000
0000
3030
0000
0000
,
0001
0100
0000
0100
0010
1000
0100
0010
,
0001
1000
0000
1000
0001
0010
0100
1000
,
0010
0100
0000
0100
0010
1000
0001
0010
,
0001
0100
0000
0100
0010
1000
0200
0000
,
1300
0010
0000
0010
0100
0001
1000
0100
,
0010
0001
0000
0001
1000
0010
0100
0010
,
1000
0001
0000
0001
0010
0001
1000
0000
,
0010
0100
0001
1000
0001
0100
0010
0000
,
1000
0000
0010
0100
0000
0000
0010
0000
1000
0000
0100
0000
0010
0000
0001
0000
,
1000
0000
0001
0010
0000
0000
0001
0000
0100
0000
0010
0000
1000
0000
0001
0000
,
0010
0000
0001
0100
0000
0000
0010
0000
1000
0000
0001
0000
1000
0000
0100
0000
,
0010
0000
0100
1000
0000
0000
0001
0000
0100
0000
0010
0000
0110
0000
0000
0000
,
1000
0000
0001
0010
0000
0000
0001
0000
0100
0000
0010
0000
1000
0000
0100
0000
,
1000
0000
0001
0100
0000
0000
0010
0000
0100
0000
0001
0000
0010
0000
0001
0000
,
0100
0000
0010
1000
0000
0000
0001
0000
1000
0000
0100
0000
0010
0000
0001
0000
,
2002
0000
3003
0000
0010
0100
0010
1000
,
0001
0000
0010
0002
0000
0000
1003
0010
,
0000
0000
0110
0000
1000
0100
0001
0100
,
1000
0000
0010
0200
0000
0000
0301
1000
,
0000
0000
1010
0000
0001
0010
1000
0010
,
0001
0000
0100
0020
0000
0000
1030
0001
,
0000
0000
0101
0000
1000
0010
0100
0010
,
1000
0000
0001
0010
0000
0100
0010
0001
,
0000
0000
1001
0000
0100
0010
0100
1000
,
0100
0000
0001
0010
0000
0001
1000
0100
,
1000
0000
0010
0100
0000
0010
1000
0001
,
0010
0001
0100
0010
1000
0100
0010
0000
,
0001
1000
0010
0100
0001
0010
0100
0000
,
1100
0000
0011
0000
1000
0001
0010
0000
,
0101
0000
1010
0000
1000
0001
0010
0000
,
0101
0000
0011
0000
1000
0100
1000
0000
,
1010
0000
1001
0000
0100
0010
0100
0000
,
0001
0010
0100
1000
0010
0100
0001
0000
,
1000
0001
0010
0100
0010
0001
1000
0000
,
0010
0100
0010
1000
0001
0010
0100
0000
,
1000
0000
0010
0010
0010
0000
0101
0000
,
1010
0000
0100
0020
0000
1030
0001
0020
,
0000
0031
1000
0001
0100
0010
0100
0001
,
1000
0000
0100
2000
0000
3010
0100
0002
,
0000
0013
0100
1000
0010
0100
0010
0000
,
1100
0000
0001
0020
0000
0031
1000
0200
,
0000
1300
0010
0100
0010
1000
0001
0000
,
0110
0000
0001
1000
0000
1000
0010
0100
,
0002
0010
1000
0103
,
1100
0000
0000
0000
;

//---------------dance-single - ----------------
#NOTES:
     dance-single:
     :
     Hard:
     14:
     0.702004,0.693674,0.040213,0.112596,0.764046,611.000000,606.000000,5.000000,14.000000,0.000000,0.000000,0.702004,0.693674,0.040213,0.112596,0.764046,611.000000,606.000000,5.000000,14.000000,0.000000,0.000000:
// measure 0
0000
0000
0000
0000
,  // measure 1
0000
0000
0000
0000
,  // measure 2
0000
0000
0000
0000
,  // measure 3
0000
0000
0000
0000
,  // measure 4
0000
0000
0000
0000
,  // measure 5
0001
0000
0010
0100
0000
0100
1000
0000
0010
0000
0000
0000
0110
0000
0000
0000
,  // measure 6
1000
0000
0001
0010
0000
0010
0001
0000
1000
0000
0100
0010
0000
0010
0100
0000
,  // measure 7
1000
0000
0010
0100
0000
0100
0001
0000
0010
0000
0000
0000
0110
0000
0000
0000
,  // measure 8
0001
0000
0010
0000
0100
0000
1000
0000
0010
0100
0010
0100
0010
0000
0000
0000
,  // measure 9
1000
0010
0000
1000
0010
0000
0100
0001
0000
0100
0001
0000
1000
0000
0010
0000
,  // measure 10
1000
0100
0000
1000
0010
0000
0100
0001
0000
0010
0001
0000
0010
0000
0100
0000
,  // measure 11
1000
0001
0000
0010
0001
0000
0100
0010
0000
1000
0010
0000
0200
0000
0000
0000
,  // measure 12
0301
0010
0000
0001
1000
0000
0010
0100
0000
0010
1000
0000
1001
0000
0000
0000
,  // measure 13
0010
0100
0000
0010
1000
0000
0010
0100
0000
0010
1000
0000
0100
0000
0010
0000
,  // measure 14
0001
0100
0000
0001
1000
0000
0001
0010
0000
0001
1000
0000
0010
0000
0100
0000
,  // measure 15
0001
0010
0000
0001
1000
0000
0010
1000
0000
0100
1000
0000
0100
0000
0010
0000
,  // measure 16
0001
1000
0000
1000
0010
0000
0100
0010
0000
1000
0100
0000
0010
0000
0001
0000
,  // measure 17
1000
0001
0000
0100
0010
0000
1000
0100
0000
0010
0001
0000
0010
0000
0100
0000
,  // measure 18
1000
0010
0000
1000
0001
0000
1000
0100
0000
1000
0010
0000
0100
0000
0001
0000
,  // measure 19
0010
0001
0000
0010
0100
0000
0010
0001
0000
1000
0010
0000
0100
0000
0010
0000
,  // measure 20
1000
0001
0000
1000
0100
0000
0010
0100
0000
1000
0001
0000
0010
0000
0100
0000
,  // measure 21
0010
0001
0000
0100
0010
0000
1000
0100
0000
1000
0010
0000
0100
0000
0001
0000
,  // measure 22
1000
0100
0000
1000
0001
0000
0010
0001
0000
0100
0010
0000
1000
0000
0001
0000
,  // measure 23
0100
0010
0000
1000
0001
0000
0010
0001
0000
1000
0100
0000
0010
0000
0100
0000
,  // measure 24
1000
0010
0000
0100
0010
0000
1000
0010
0000
0100
0010
0000
1000
0000
0001
0000
,  // measure 25
0010
0001
0000
0001
0010
0000
0100
1000
0000
1000
0010
0000
0100
0010
0100
0000
,  // measure 26
0001
1000
0000
1000
0010
0000
0100
0001
0000
0001
0010
0000
0100
1000
0100
0000
,  // measure 27
1000
0010
0000
0010
0100
0000
0001
0010
0000
0010
0100
0000
1000
0001
1000
0000
,  // measure 28
0010
0100
0000
0100
0001
0000
0010
0100
0000
0100
1000
0000
0001
1000
0001
0000
,  // measure 29
0010
0001
0000
0001
1000
0000
0100
0010
0000
0010
0100
0000
1000
0010
1000
0000
,  // measure 30
0001
0100
0000
0100
0010
0000
1000
0010
0000
0010
1000
0000
0100
0010
0100
0000
,  // measure 31
1000
0001
0000
0001
0100
0000
0010
1000
0000
1000
0001
0000
0010
0100
0010
0000
,  // measure 32
0001
0000
0010
0000
0100
1000
0001
0000
1000
0000
0010
0000
1000
0001
0100
0000
,  // measure 33
0010
0100
0000
0100
0001
0000
1000
0010
0000
0010
0100
0000
0001
0010
0001
0000
,  // measure 34
0100
0001
0000
0001
1000
0000
0010
0100
0000
0100
0010
0000
1000
0100
1000
0000
,  // measure 35
0001
1000
0000
1000
0010
0000
0100
0010
0000
0010
1000
0000
0001
0100
0001
0000
,  // measure 36
1000
0100
0000
0100
0010
0000
0001
1000
0000
1000
0010
0000
0100
0001
0100
0000
,  // measure 37
0010
1000
0000
1000
0001
0000
0010
0001
0000
0001
0100
0000
0010
1000
0010
0000
,  // measure 38
1000
0100
0000
0100
0010
0000
0001
1000
0000
1000
0001
0000
0100
0010
0100
0000
,  // measure 39
0001
1000
0000
1000
0001
0000
0010
0001
0000
0001
1000
0000
0100
0010
0100
0000
,  // measure 40
1000
0000
0100
0000
0010
0000
0001
0000
0100
0010
0100
0010
0200
0000
0000
0000
,  // measure 41
0301
0010
1000
0020
0000
0031
1000
0200
,  // measure 42
0000
0310
1000
0010
0001
0100
1000
0100
,  // measure 43
0010
1000
0100
0020
0000
0031
0100
2000
,  // measure 44
0000
3100
0010
1000
0001
1000
0100
0010
,  // measure 45
0001
0100
0020
0001
0030
0001
0020
0100
,  // measure 46
0030
1000
0100
0010
0100
1000
0010
0100
,  // measure 47
0001
1000
0001
0020
0000
0031
0100
0020
,  // measure 48
0000
1000
1030
0000
0001
0100
1000
0100
,  // measure 49
0001
0010
0100
1000
0010
0100
0001
1000
,  // measure 50
0100
0010
0001
1000
0010
0100
0001
0010
,  // measure 51
0001
0100
0001
0000
1000
0100
1000
0000
0001
0010
0001
0000
1000
0010
1000
0000
,  // measure 52
0010
0100
0001
0000
1000
0010
0100
0000
0001
0010
0100
1000
0001
0000
0000
0000
,  // measure 53
1010
0000
0010
0000
0100
0000
0001
0010
0000
0010
0100
0000
1000
0000
0001
0000
,  // measure 54
1000
0000
0010
0000
0100
0000
0001
0010
0000
0010
0100
0000
1000
0001
1000
0000
,  // measure 55
0010
0000
1000
0000
0100
0000
1000
0010
0000
0010
0100
0000
0001
0000
0010
0000
,  // measure 56
0001
0000
0100
0000
0010
0000
1000
0100
0000
0100
0010
0000
0001
1000
0001
0000
,  // measure 57
0100
0000
0010
0000
1000
0000
0010
0100
0000
0100
0001
0000
0010
0000
0100
0000
,  // measure 58
1000
0000
0001
0000
1000
0000
0010
0100
0000
0100
0010
0000
1000
0001
1000
0000
,  // measure 59
0001
0000
0100
0000
0010
0000
1000
0001
0000
0001
1000
0000
0100
0000
0010
0000
,  // measure 60
0001
0000
1000
0010
0000
0100
0010
0100
0001
1000
0000
1000
0001
0010
0100
0000
,  // measure 61
1000
0010
0100
0020
0000
1030
0100
0020
,  // measure 62
0000
0031
0100
1000
0001
0010
1000
0001
,  // measure 63
1000
0100
0001
0200
0000
0310
0001
2000
,  // measure 64
0000
0000
3010
0000
0100
0000
0001
0000
1000
0000
0010
0000
0100
0001
0100
0000
,  // measure 65
0001
0000
0010
0000
0001
0000
1000
0010
0000
0010
0100
0000
0001
0000
1000
0000
,  // measure 66
0010
0000
0100
0000
0001
0000
0010
0100
0000
0100
1000
0000
0001
0000
1000
0000
,  // measure 67
0010
0000
0100
0000
0001
0010
0001
0000
1000
0000
0010
0000
0100
0010
0100
0000
,  // measure 68
0001
0010
0100
0000
1000
0010
0100
0000
0001
1000
0010
1000
0001
0000
0100
0000
,  // measure 69
0110
0000
0000
0000
;
