#TITLE:Sakura Luminance;
#SUBTITLE:;
#ARTIST:Ryu☆;
#TITLETRANSLIT:;
#SUBTITLETRANSLIT:;
#ARTISTTRANSLIT:;
#GENRE:;
#CREDIT:;
#BANNER:Sakura_Luminance_banner.png;
#BACKGROUND:Sakura_Luminance_bg.png;
#LYRICSPATH:;
#CDTITLE:;
#MUSIC:Sakura Luminance.ogg;
#OFFSET:-0.530000;
#SAMPLESTART:96.519997;
#SAMPLELENGTH:12.000000;
#LASTBEATHINT:339.000000;
#SELECTABLE:YES;
#BPMS:0.000000=170.000000
;
#STOPS:36.000000=1.059000
;
#BGCHANGES:;
#KEYSOUNDS:;
#ATTACKS:;

//---------------dance-single - ----------------
#NOTES:
     dance-single:
     :
     Easy:
     6:
     0.262471,0.339500,0.063906,0.183730,0.000000,230.000000,222.000000,8.000000,23.000000,0.000000,0.000000,0.262471,0.339500,0.063906,0.183730,0.000000,230.000000,222.000000,8.000000,23.000000,0.000000,0.000000:
0000
0000
0000
0000
,
0000
0000
0000
0000
,
0000
0000
0000
0000
,
0000
0000
0000
0000
,
0000
0000
0000
0000
,
0002
0000
0000
0003
,
2000
0000
0000
3000
,
0020
0000
0000
0030
,
0200
0000
0000
0300
,
0000
1000
0010
1000
,
0000
0001
0100
0001
,
0000
1000
0100
1000
,
0000
0001
0010
0001
,
0000
1000
0010
0100
,
0000
0001
0010
0100
,
0000
1000
0001
0100
,
0000
0010
1000
0001
,
0000
1000
0100
1000
,
0200
0000
0300
0001
,
0001
0010
0001
0010
,
0002
0000
0003
1000
,
1001
0001
0100
0001
,
2000
0000
3000
0010
,
0100
0010
1000
0010
,
0200
0000
0010
0310
,
0000
0001
0010
0001
,
0010
0100
1000
0100
,
0000
1000
0010
1000
,
0010
0100
0001
0100
,
0000
0001
0100
0010
,
1000
0010
1000
0100
,
0000
1000
0010
0100
,
0001
0010
0001
0100
,
0000
1000
0100
0010
,
0100
1000
0010
1001
,
0000
0001
0010
0100
,
0010
0001
0100
1001
,
0000
2000
0100
0000
,
3100
0002
0100
0000
,
0103
0200
0010
0000
,
0310
0020
0100
0000
,
0130
2000
0000
0000
,
0000
0000
0000
0000
,
3000
0002
0000
0000
,
0000
0000
0000
0000
,
0003
0200
0000
0000
,
0000
0000
0000
0000
,
0300
0020
0000
0000
,
0000
0000
0000
0000
,
0030
1000
0010
0100
,
0001
0010
0001
0100
,
0000
0010
1000
0001
,
0100
0010
1000
0100
,
0000
0010
0001
1000
,
0100
1000
0010
0100
,
0000
0001
0100
0010
,
1000
0100
1000
0010
,
0000
1000
1000
0001
,
0001
0100
0010
0110
,
0000
0010
0010
1000
,
1000
0001
0100
0101
,
0000
0100
0100
0010
,
0010
1000
0001
1000
,
0001
0100
0100
0001
,
0001
1000
0010
0100
,
0001
2000
0000
0000
,
0000
0000
0000
0000
,
3000
0010
1000
0010
,
0100
0001
0100
0010
,
0000
0001
0100
0001
,
0010
0100
1000
0100
,
0000
1000
0010
1000
,
0100
0010
0001
0010
,
0000
0100
1000
0001
,
0100
0010
0100
0110
,
0000
0001
0010
0001
,
0020
0000
0030
1000
,
1000
0100
1000
0100
,
2000
0000
3000
0001
,
1001
1000
0010
1000
,
0002
0000
0003
0100
,
0010
0100
0001
0100
,
0020
0000
0100
0130
,
0000
2002
0000
0000
,
0000
0000
0000
0000
,
3003
0000
0000
0000
;

//---------------dance-single - ----------------
#NOTES:
     dance-single:
     :
     Medium:
     9:
     0.425659,0.509250,0.247635,0.287577,0.000000,373.000000,342.000000,31.000000,36.000000,0.000000,0.000000,0.425659,0.509250,0.247635,0.287577,0.000000,373.000000,342.000000,31.000000,36.000000,0.000000,0.000000:
0000
0000
0000
0000
,
0000
0000
0000
0000
,
0000
0000
0000
0000
,
0000
0000
0000
0000
,
0000
0000
0000
0000
,
0020
0000
1030
0100
1000
0001
0100
0000
,
0001
0010
0001
0000
1000
0100
1000
0000
,
0200
0000
0310
0001
1000
0001
0100
0000
,
0010
0100
1000
0000
0202
0000
0303
0000
,
1001
0000
0110
0000
0101
0000
0001
0010
,
0100
0000
1000
0010
0100
0000
0001
0000
,
1000
0000
1010
0000
0110
0000
0001
0100
,
0001
0000
1000
0100
1000
0000
0220
0000
,
0330
0000
0001
0000
0011
0000
1000
0100
,
1000
0000
0001
0100
0001
0000
0100
0010
,
0100
0000
0010
0000
1010
0000
0100
0001
,
0100
0000
0001
0010
0001
0000
2002
0000
,
3003
0000
1000
0100
1000
0000
0001
0000
,
0010
0001
0010
0000
0100
0000
1000
0010
,
1000
0000
0001
0100
0001
0000
1000
0000
,
0020
0000
0130
0001
,
1001
0000
1000
0010
1000
0000
0100
0000
,
0010
0001
0010
0000
0100
0000
1000
0001
,
1000
0000
1000
0010
1000
0000
0001
0000
,
0200
0000
0000
0010
0310
0000
0100
0000
,
0110
1000
0100
0001
,
0100
1000
0100
0001
,
0000
1000
0010
0001
,
0010
1000
0010
0001
,
0000
1000
0100
1000
,
0010
1000
0100
0010
,
0000
0001
0100
0001
,
0010
0001
0010
0100
,
0000
0000
0010
0000
0001
0000
1000
0100
,
1000
0001
0100
0010
,
0000
0000
1000
0000
0010
0000
0100
0010
,
0100
0001
0010
0100
,
0000
2000
0100
0000
,
0010
3002
0100
0000
,
0010
2003
0100
3002
,
0100
0013
0010
0010
,
0010
2002
0000
0000
,
0003
0200
0000
0000
,
0300
0002
0000
0000
,
3000
0200
0000
0000
,
0303
0020
0000
0000
,
0000
2030
0000
0000
,
0000
3002
0000
0000
,
0000
0203
0000
0000
,
0300
0000
0001
0000
0001
0010
0100
1000
,
0100
0000
1000
0010
0100
0000
0001
0010
,
0100
0000
1000
0000
1000
0100
0010
0001
,
0100
0000
0010
1000
0010
0000
2002
0000
,
3003
0000
0010
0000
0010
0100
0001
0010
,
0100
0000
1000
0100
1000
0000
0001
0100
,
0001
0000
0100
0000
0100
0010
1000
0100
,
0010
0000
0001
0010
0100
0000
1010
0000
,
0000
0000
0100
0000
0001
0000
1000
0010
,
1000
0000
0001
0010
0001
0000
0100
0010
,
0100
0000
0001
0000
0011
0000
1000
0100
,
1000
0000
0010
0100
0010
0000
0220
0000
,
0330
0000
1000
0000
1100
0000
0001
0010
,
0001
0000
0010
0100
0010
0000
0100
1000
,
0100
0000
0010
0000
0011
0000
1000
0100
,
1000
0000
0100
0010
0100
0000
0022
0000
,
0033
0000
1000
1000
1000
0000
0001
0000
,
0002
0000
0000
0000
,
0103
0000
1010
0000
1100
0000
0001
0010
,
0001
0000
1000
0010
1000
0000
0001
0100
,
0001
0000
0010
0000
0011
0000
0100
1000
,
0100
0000
0010
0001
0010
0000
2002
0000
,
3003
0000
0110
0000
1010
0000
0001
0010
,
0001
0000
1000
0010
1000
0000
0001
0100
,
0001
0000
1000
0000
1010
0000
0001
0010
,
0001
0000
1000
0100
1000
0000
0220
0000
,
0330
0000
0001
0010
0001
0000
0100
0000
,
0010
1000
0010
0000
0100
0000
0001
1000
,
0001
0000
1000
0100
1000
0000
0010
0000
,
0100
0001
0100
0000
0001
0000
0010
0000
,
0110
0000
1000
0100
1000
0000
0010
0000
,
0100
0001
0100
0000
0001
0000
0010
0100
,
0010
0000
0001
1000
0001
0000
0100
0010
,
0100
0000
0001
0010
0001
0100
0010
0000
,
1001
0220
0000
0000
,
0000
0000
0000
0000
,
0330
0000
0000
0000
;

//---------------dance-single - ----------------
#NOTES:
     dance-single:
     :
     Hard:
     12:
     0.600259,0.605708,0.343494,0.271600,0.111835,526.000000,483.000000,43.000000,34.000000,0.000000,0.000000,0.600259,0.605708,0.343494,0.271600,0.111835,526.000000,483.000000,43.000000,34.000000,0.000000,0.000000:
// measure 0
0000
0000
0000
0000
,  // measure 1
0000
0000
0000
0000
,  // measure 2
0000
0000
0000
0000
,  // measure 3
0000
0000
0000
0000
,  // measure 4
0000
0000
0000
0000
,  // measure 5
1010
0000
0000
0000
0101
0000
0000
0000
0001
0010
0000
0001
0000
0000
0100
0000
,  // measure 6
0010
1000
0100
0010
0001
1000
0010
0100
,  // measure 7
0101
0000
0000
0000
1010
0000
0000
0000
1000
0010
0000
1000
0000
0000
0001
0000
,  // measure 8
0010
0100
0010
0001
0020
0000
0130
0000
,  // measure 9
1001
0000
0011
0000
1100
0000
1000
0010
,  // measure 10
0100
0010
0000
1000
0001
0010
0100
1000
,  // measure 11
0001
0100
0110
0000
1001
0000
0001
0010
,  // measure 12
0001
0100
0000
0010
1000
0100
1000
0001
,  // measure 13
1001
0000
0110
0000
1010
0000
0001
0100
,  // measure 14
0010
1000
0000
0001
0010
0100
1000
0010
,  // measure 15
0100
0010
1010
0000
0011
0000
0100
0001
,  // measure 16
0100
0010
0000
0010
1000
0100
0001
0000
,  // measure 17
0110
0000
1000
0100
0010
0100
2000
0000
,  // measure 18
3001
0010
0100
0010
0002
0000
0103
0010
,  // measure 19
1000
0001
1000
0100
0010
0100
0010
0001
,  // measure 20
1000
0100
0010
0100
0010
0001
1000
0001
,  // measure 21
1001
0000
0010
0100
1000
0100
0020
0000
,  // measure 22
0130
0001
0010
0001
0200
0000
0301
0010
,  // measure 23
0100
1000
0001
1000
0010
0100
0001
0010
,  // measure 24
0200
0000
0000
1300
0001
0100
0010
0100
,  // measure 25
0110
0000
1000
0010
1000
0010
0100
0001
,  // measure 26
0100
0001
0010
0001
0010
0001
1000
0100
,  // measure 27
1000
0100
0010
0100
0010
0100
1000
0001
,  // measure 28
1000
0001
0100
0010
0100
0010
1000
0100
,  // measure 29
0010
0001
0100
0001
0100
0001
1000
0010
,  // measure 30
1000
0010
1000
0100
1000
0100
0010
0001
,  // measure 31
0010
0001
1000
0010
1000
0010
0100
0001
,  // measure 32
0100
0001
1000
0100
0010
0001
1000
0100
,  // measure 33
0010
0001
0010
0100
0010
0100
1000
0100
,  // measure 34
1000
0100
0010
0001
0010
0001
0010
0100
,  // measure 35
0010
0100
1000
0001
1000
0001
0100
0010
,  // measure 36
0100
0010
1000
0010
0100
0001
1000
0100
,  // measure 37
0001
0100
2000
0010
0000
0010
0000
0010
,  // measure 38
3000
0100
0002
0010
0000
0010
0000
0010
,  // measure 39
0003
0100
2100
0000
0001
0000
0000
0000
,  // measure 40
3001
1002
0010
0000
,  // measure 41
0013
0220
0000
0000
,  // measure 42
0030
2000
0000
0000
,  // measure 43
0300
0002
0000
0000
,  // measure 44
3000
0200
0000
0000
,  // measure 45
0003
0020
0000
0000
,  // measure 46
0300
2000
0000
0000
,  // measure 47
0030
0002
0000
0000
,  // measure 48
3003
0220
0000
0000
,  // measure 49
0330
0000
0000
0000
0101
0000
0000
0000
1000
0000
0010
0000
1000
0100
0000
1000
,  // measure 50
0000
0010
0100
0001
0010
0100
0010
0001
,  // measure 51
1000
0000
0100
0000
1100
0000
0000
0000
0010
0000
0001
0000
0100
0010
0000
1000
,  // measure 52
0000
0100
0010
0001
0100
0010
2000
0000
,  // measure 53
3001
0000
0000
0000
0011
0000
0000
0000
0100
0000
1000
0000
0001
0010
0000
0001
,  // measure 54
0000
0100
0010
1000
0010
0100
0001
0010
,  // measure 55
0100
0000
0010
0000
0110
0000
0000
0000
0001
0000
0100
0000
0010
1000
0000
0001
,  // measure 56
0000
0100
0001
0010
0100
1000
2002
0000
,  // measure 57
3003
0000
0000
0000
1010
0000
0000
0000
0100
0000
0001
0000
0010
0001
0000
0100
,  // measure 58
0000
0010
1000
0100
0010
0001
0100
0010
,  // measure 59
1000
0000
0100
0000
1100
0000
0000
0000
0001
0000
0100
0000
0010
1000
0000
0001
,  // measure 60
0000
1000
0010
0100
1000
0100
0010
0000
,  // measure 61
1001
0000
0000
0000
0011
0000
0000
0000
1000
0000
0100
0000
1000
0010
0000
0100
,  // measure 62
0000
0001
0010
0001
0100
0010
1000
0100
,  // measure 63
0010
0000
0001
0000
0011
0000
0000
0000
0100
0000
1000
0000
0001
0100
0000
0010
,  // measure 64
0000
1000
0010
1000
0100
1000
0020
0000
,  // measure 65
0030
0000
1002
1000
1000
0000
0010
0000
,  // measure 66
0010
2003
0010
0010
,  // measure 67
3100
0000
0000
0000
0011
0000
0000
0000
1000
0000
0010
0000
0100
0001
0000
1000
,  // measure 68
0000
0010
0100
0001
0010
0001
1000
0100
,  // measure 69
0010
0000
0001
0000
0011
0000
0000
0000
0100
0000
0001
0000
1000
0010
0000
1000
,  // measure 70
0000
0100
1000
0010
0100
0001
0101
0000
,  // measure 71
1001
0000
0000
0000
1010
0000
0000
0000
0001
0000
0100
0000
0010
1000
0000
0001
,  // measure 72
0000
0010
0100
1000
0100
0010
0001
0010
,  // measure 73
0001
0000
0100
0000
0110
0000
0000
0000
0010
0000
1000
0000
0001
0100
0000
0010
,  // measure 74
0000
0100
0001
0010
0001
0100
0010
0000
,  // measure 75
1010
0000
0001
0100
1000
0100
0002
0000
,  // measure 76
1003
0010
0001
0010
2000
0000
3001
0010
,  // measure 77
0100
0010
0001
1000
0100
0001
0100
1000
,  // measure 78
0020
0000
0130
0001
1000
0100
0010
0001
,  // measure 79
1001
0000
0010
0100
1000
0100
0020
0000
,  // measure 80
1030
0100
0010
0100
2000
0000
3100
0010
,  // measure 81
0001
0010
0100
0010
0001
0100
0010
1000
,  // measure 82
0002
0000
0103
0010
0100
0001
1001
0000
,  // measure 83
0110
2002
0000
0000
,  // measure 84
0000
3003
0000
0000
;
