#TITLE:防人恋歌;
#SUBTITLE:;
#ARTIST:Ax feat.夏川陽子;
#TITLETRANSLIT:Sakimori renka;
#SUBTITLETRANSLIT:;
#ARTISTTRANSLIT:Ax feat.Yoko Natsukawa;
#GENRE:万葉歌;
#CREDIT:;
#BANNER:Sakimori_renka_banner.png;
#BACKGROUND:Sakimori_renka.png;
#LYRICSPATH:;
#CDTITLE:;
#MUSIC:Sakimori Renka.ogg;
#OFFSET:-0.330000;
#SAMPLESTART:45.500000;
#SAMPLELENGTH:14.000000;
#LASTBEATHINT:319.000000;
#SELECTABLE:YES;
#BPMS:0.000000=170.000000
;
#STOPS:
;
#BGCHANGES:;
#KEYSOUNDS:;
#ATTACKS:;

//---------------dance-single - ----------------
#NOTES:
     dance-single:
     :
     Easy:
     6:
     0.239884,0.306495,0.068538,0.102807,0.000000,196.000000,188.000000,8.000000,12.000000,0.000000,0.000000,0.239884,0.306495,0.068538,0.102807,0.000000,196.000000,188.000000,8.000000,12.000000,0.000000,0.000000:
0000
0000
0000
0000
,
0000
0000
0000
0000
,
0000
0000
0000
0000
,
0000
0000
0000
1000
,
0000
0001
0000
1000
,
0000
0010
0000
0200
,
0000
0000
0000
0300
0000
0000
0000
0000
,
0000
1000
0000
0010
,
0000
1000
0000
0100
,
0100
0001
0000
0010
,
0000
0001
0000
0001
,
0000
1000
0000
0010
,
0000
0100
0010
1000
,
0000
0001
0000
0100
,
0010
0200
0000
0000
,
0000
0300
0000
0000
,
0001
1000
0001
0000
,
0100
0000
0100
0010
,
0100
0000
0010
0000
,
2002
0000
0000
0000
0000
3003
0000
0000
,
0010
0100
0010
0000
,
1000
0000
0001
0000
,
0010
0100
1000
0000
,
0002
0000
0003
0000
,
0010
0000
0010
0001
,
1000
0000
1001
0000
,
0100
0000
0100
1000
,
0100
0000
0001
0000
,
0010
0000
0001
0010
,
0100
0000
1100
0000
,
2000
0000
3010
0000
,
0002
0000
0013
0000
,
0100
0000
0100
0000
,
1000
0001
1000
0000
,
0010
0000
0010
0000
,
0001
1000
0001
0000
,
0100
0010
0100
0010
,
1000
0000
1001
0000
,
0001
0010
0001
0000
,
1000
0100
1000
0000
,
0010
0000
0010
0000
,
0100
0000
0110
0000
,
2000
0000
3100
0000
,
0001
0010
0001
0000
,
1000
0010
0100
0000
,
0001
0010
0100
0000
,
1000
0000
0001
1000
,
0010
0000
0100
0000
,
0100
0000
0010
1000
,
0010
0000
0100
0000
,
0001
0000
1000
0000
,
0001
0000
0010
0100
,
0020
0000
0000
0000
0000
0030
0000
0000
,
0002
0000
0000
0000
0000
0003
0000
0000
,
0100
0000
0010
1000
,
0001
0000
1001
0000
,
0010
1000
0100
0000
,
0010
0001
0100
0000
,
0001
0010
0100
0000
,
1000
0010
0100
0000
,
0002
0000
0103
0000
,
2000
0000
3100
0000
,
0010
1000
0000
1000
,
0001
0100
0001
0000
,
0010
0100
0000
0100
,
1000
0001
1000
0000
,
0001
0010
1000
0010
,
0001
0010
1000
0000
,
0010
0001
1000
0000
,
0100
1000
0001
0000
,
1000
0010
0000
0010
,
0100
0001
0100
0000
,
0001
1000
0001
0000
,
0100
0000
0110
0000
,
0100
0001
0100
1000
,
0100
0001
0100
0000
,
0010
1000
1000
0000
,
0001
0010
0010
0000
,
0100
0000
0010
0000
,
0100
0000
1001
0000
;

//---------------dance-single - ----------------
#NOTES:
     dance-single:
     :
     Medium:
     9:
     0.369617,0.442715,0.162779,0.257019,0.000000,302.000000,283.000000,19.000000,30.000000,0.000000,0.000000,0.369617,0.442715,0.162779,0.257019,0.000000,302.000000,283.000000,19.000000,30.000000,0.000000,0.000000:
0000
0000
0000
0000
,
0000
0000
0000
0000
,
0000
0000
0000
0000
,
0000
0000
0000
1000
,
0000
0000
0001
0000
0000
0100
0000
0000
,
0010
0100
0001
0000
,
0010
0000
0000
2200
0000
0000
0000
0000
,
3300
0001
0100
0020
,
0000
1030
0000
1000
0001
0000
0100
0000
,
0001
0000
0010
0000
0010
0100
0000
1000
,
0000
0010
1000
0000
0100
0000
1000
0000
,
0001
0000
0200
0000
0000
0310
0000
0010
,
1000
0001
1000
0001
,
0010
0001
0000
1000
0000
1000
0001
0000
,
0100
0220
0000
0330
,
0000
2002
0000
3003
,
1000
0000
0100
0000
0001
0000
0000
0001
,
0000
0100
1000
0000
0010
0000
1000
0000
,
0001
0000
1000
0000
0010
0000
0100
0002
,
0000
0000
0000
0003
,
1000
0000
0010
0000
0001
0000
0000
0001
,
0000
0010
1000
0000
0001
0000
1000
0000
,
0100
0000
0010
0000
0001
0000
1000
0020
,
0000
0000
0000
0000
0000
0030
0000
0000
,
0101
0001
1000
0001
,
0010
0100
0110
0000
,
1000
0000
0100
0000
1000
0100
0010
0000
,
0001
0100
0010
1000
,
0001
1001
0100
0110
,
1000
0010
0100
0001
,
0020
0000
0031
1000
,
0200
0000
0310
0000
,
0001
0100
0001
0000
1000
0100
1000
0000
,
0001
0000
0010
0100
0010
0000
0001
0000
,
1000
0010
1000
0000
0001
0010
0001
0000
,
0100
0010
0220
0330
,
1000
0010
0100
0000
0001
0010
0100
0000
,
1000
0000
0001
1000
0001
0000
0100
0000
,
0010
0000
0100
0000
0001
0000
1000
0001
,
0000
2000
0000
0000
3010
0000
0000
0000
,
0100
0000
0001
0000
0010
0000
0100
1000
,
0000
0002
0000
0000
0103
0000
0000
0000
,
0010
0000
0000
0000
0010
0000
0000
1000
,
0000
1000
0000
0000
0001
0000
0010
0000
,
0100
0000
1000
0000
0000
0001
0000
1000
,
0000
0010
0200
0000
,
0310
0000
0000
1000
0000
0001
0000
0000
,
0010
0001
1000
0010
,
0100
0010
0000
0010
0100
0000
0001
0000
,
1002
0000
0023
0000
,
0230
0000
2300
0000
,
3020
0000
0130
0001
,
2002
0000
3003
0000
,
0220
0000
0330
0000
,
0001
0000
0010
0001
0010
0000
0001
0000
,
1000
0010
0110
0000
,
0001
0000
0100
0000
0001
0100
0010
0000
,
1000
0100
0010
0001
,
1000
0000
0010
0100
0010
0000
1000
0000
,
0001
1000
0101
0000
,
0020
0000
1030
0100
,
2000
0000
3001
0000
,
0010
0001
0010
0000
0100
1000
0100
0000
,
1000
0010
0100
0001
,
0100
0010
0100
0000
0001
1000
0001
0000
,
0100
0010
1010
0000
,
1000
0100
0010
0000
0100
0010
0001
0000
,
0010
0001
1000
0010
,
1000
0000
0001
0000
0100
0000
0010
1000
,
0000
0001
0000
1000
0100
0000
0000
0000
,
0010
0011
1000
1100
,
0001
0000
1000
0001
1000
0000
0010
0000
,
0100
0001
1000
0000
0001
1000
0100
0000
,
1000
0010
0220
0330
,
1000
0010
0001
0000
0001
0010
1000
0000
,
0001
0000
1000
0100
0010
0000
0001
0000
,
0100
0000
0010
0000
0101
0000
0000
1000
,
0000
0010
0000
1000
0001
0000
0000
0000
,
0010
0000
0100
0000
1000
0000
0000
0001
,
0000
0100
0010
0000
0110
0000
0000
0000
;

//---------------dance-single - ----------------
#NOTES:
     dance-single:
     :
     Hard:
     12:
     0.533620,0.580755,0.436932,0.291288,0.008567,436.000000,385.000000,51.000000,34.000000,0.000000,0.000000,0.533620,0.580755,0.436932,0.291288,0.008567,436.000000,385.000000,51.000000,34.000000,0.000000,0.000000:
// measure 0
0000
0000
0000
0000
,  // measure 1
0000
0000
0000
0000
,  // measure 2
0000
0000
0000
0000
,  // measure 3
0000
0000
0000
0002
,  // measure 4
0000
0000
0013
0000
0000
1100
0000
1000
,  // measure 5
0010
1000
0001
0010
0200
0000
1300
0000
,  // measure 6
0001
0000
0100
0220
0000
0000
0000
0000
,  // measure 7
0330
1000
0100
0110
,  // measure 8
0001
0010
0000
0001
1000
0100
0010
0001
,  // measure 9
1000
0000
0110
0000
0001
1000
0001
0010
,  // measure 10
0000
0010
0100
1000
0010
0100
0002
0000
,  // measure 11
1003
0000
0011
0000
1000
0100
0000
0100
,  // measure 12
1000
0010
0100
0001
0010
0000
0101
0000
,  // measure 13
0010
1000
0001
1000
0000
0010
1000
0001
,  // measure 14
0010
0100
2000
0000
0000
0000
0000
0000
,  // measure 15
0000
3001
0000
0000
,  // measure 16
0010
0000
1000
0000
0101
0000
0000
0001
,  // measure 17
0000
0010
0001
1000
0100
0010
0100
1000
,  // measure 18
0010
0000
1000
0000
1010
0000
0001
0200
,  // measure 19
0000
0010
0010
0310
,  // measure 20
0100
0000
0001
0000
1010
0000
0000
1000
,  // measure 21
0000
0100
1000
0001
0010
0100
0010
0001
,  // measure 22
0100
0000
0001
0000
1001
0000
0100
0020
,  // measure 23
0000
1000
0100
1030
,  // measure 24
1100
0000
0100
0010
0001
0000
0001
0010
,  // measure 25
0100
0011
2200
3300
,  // measure 26
0001
0000
0000
0000
1000
0000
0010
0000
1000
0000
0010
0100
0010
0000
1000
0000
,  // measure 27
0001
0010
0001
0100
0010
1000
0100
0000
,  // measure 28
0011
0000
0010
0100
1000
0000
1000
0100
,  // measure 29
0010
0000
1100
0000
0022
0000
0033
1000
,  // measure 30
2000
3010
0201
0310
,  // measure 31
1001
0000
0110
0000
,  // measure 32
1000
0010
0010
0000
0001
0010
0010
0000
,  // measure 33
0100
0010
0100
0001
0010
0000
0011
0000
,  // measure 34
0001
0100
0100
0000
1000
0100
0001
0000
,  // measure 35
1010
0101
0022
0033
,  // measure 36
1000
0100
0100
0000
0001
0100
0100
0000
,  // measure 37
1000
0010
0100
0001
0010
0000
0011
0000
,  // measure 38
1000
0000
1100
0000
0001
0000
0010
0001
,  // measure 39
0000
0101
0000
1000
0020
0000
0130
0000
,  // measure 40
0110
0000
1000
0000
0001
0000
0010
0100
,  // measure 41
0000
1000
0001
0100
0020
0000
0000
0000
,  // measure 42
2030
0000
0000
0000
3100
0000
0000
0110
,  // measure 43
0000
0001
0010
0100
0010
0100
1000
0000
,  // measure 44
0001
0000
0001
1000
0100
1000
0000
0010
,  // measure 45
0100
0010
1000
0000
0002
0000
0000
0000
,  // measure 46
0013
0000
0000
0110
0000
1000
0100
0010
,  // measure 47
0100
0010
0001
0000
1000
0000
1000
0010
,  // measure 48
0100
0010
0000
1000
0001
0010
0100
1000
,  // measure 49
0001
0021
0130
0210
,  // measure 50
1300
2100
3010
0210
,  // measure 51
0301
0000
1001
0000
0100
0010
1000
0001
,  // measure 52
0020
0000
0000
0000
,  // measure 53
0130
1000
0001
0100
0010
1000
0001
0000
,  // measure 54
1010
0000
0100
0001
0010
0000
0010
0001
,  // measure 55
0100
1010
0022
0033
,  // measure 56
1000
0000
0000
0000
0001
0000
0010
0000
0001
0000
0100
0010
0100
0000
0001
0000
,  // measure 57
1000
0100
1000
0010
0100
0001
0010
0000
,  // measure 58
0101
0000
0010
1000
0100
0000
0100
1000
,  // measure 59
0010
0100
0001
0010
0002
0000
0103
0010
,  // measure 60
0020
1030
2000
3001
,  // measure 61
0110
0000
1001
0000
,  // measure 62
0001
0010
0010
0000
1000
0010
0010
0000
,  // measure 63
0001
0100
1000
0100
0001
0000
1001
0000
,  // measure 64
1000
0100
0100
0000
0001
0100
1000
0001
,  // measure 65
0010
0110
2002
3003
,  // measure 66
0001
0010
0010
0000
1000
0010
0010
0000
,  // measure 67
0001
0010
1000
0010
0001
1000
0100
0000
,  // measure 68
1010
0000
0100
0000
0001
0000
0010
0001
,  // measure 69
0000
1000
0001
1000
0020
0000
0130
0000
,  // measure 70
1000
0010
0100
0000
0001
0010
0100
0000
,  // measure 71
1000
0010
0001
0010
1000
0000
1001
0000
,  // measure 72
0001
0100
0010
0000
1000
0100
0010
0000
,  // measure 73
0011
1001
1100
0000
,  // measure 74
0001
0100
0100
0000
1000
0100
0100
0000
,  // measure 75
0010
1000
0010
0001
0010
1000
0100
0000
,  // measure 76
0001
0000
0011
0000
1000
0000
0100
1000
,  // measure 77
0000
0110
0000
0001
0010
0000
0001
0000
,  // measure 78
1000
0000
0010
0000
0110
0000
1000
0001
,  // measure 79
0000
0001
0010
0100
2000
0000
3000
0000
;
