#TITLE:SUPER BUBBLE JOURNEY;
#SUBTITLE:;
#ARTIST:こふ;
#TITLETRANSLIT:;
#SUBTITLETRANSLIT:;
#ARTISTTRANSLIT:kohu;
#GENRE:;
#CREDIT:;
#BANNER:SUPER_BUBBLE_JOURNEY_banner.png;
#BACKGROUND:SUPER_BUBBLE_JOURNEY.png;
#LYRICSPATH:;
#CDTITLE:;
#MUSIC:SUPER BUBBLE JOURNEY.ogg;
#OFFSET:-0.620000;
#SAMPLESTART:62.549999;
#SAMPLELENGTH:12.000000;
#LASTBEATHINT:288.000000;
#SELECTABLE:YES;
#BPMS:0.000000=155.000000
;
#STOPS:
;
#BGCHANGES:;
#KEYSOUNDS:;
#ATTACKS:;

//---------------dance-single - ----------------
#NOTES:
     dance-single:
     :
     Easy:
     6:
     0.266191,0.282945,0.078733,0.096229,0.000000,213.000000,204.000000,9.000000,11.000000,0.000000,0.000000,0.266191,0.282945,0.078733,0.096229,0.000000,213.000000,204.000000,9.000000,11.000000,0.000000,0.000000:
0000
0000
0000
0000
,
0000
0000
0000
0000
,
0000
0000
0000
0000
,
0000
0000
0000
0000
,
0010
0010
0010
0000
,
0100
0100
0100
0000
,
0001
0001
0001
0000
,
1000
0000
0110
0000
,
1000
0010
1000
0000
,
0100
0001
0100
0000
,
0001
0010
0001
0000
,
0100
1000
0100
0000
,
1000
0001
1000
0001
,
0010
0100
0010
0000
,
0001
0100
0001
0100
,
0010
0000
1000
0000
,
1020
0000
0130
0000
,
0001
0010
0001
0000
,
1002
0000
0103
0000
,
0010
1000
0100
0000
,
2100
0000
3001
0000
,
0100
0010
0100
0000
,
0012
0000
1003
0000
,
0010
0100
0010
0000
,
1000
0010
1000
0001
,
0010
0001
0100
0000
,
0010
1000
0100
1000
,
0001
0010
0001
0000
,
0100
0010
0100
0010
,
1000
0001
1000
0000
,
0001
0010
0100
1000
,
0002
0000
1003
0000
,
0100
0100
0100
0000
,
0010
0010
0010
0000
,
1000
1000
1000
0000
,
0001
0001
0001
0000
,
0001
0010
0001
0000
,
1000
0010
1000
0000
,
0010
0100
0010
0100
,
2002
0000
3003
0000
,
0100
0010
1000
0010
,
1000
0100
1000
0000
,
0001
0010
0001
0100
,
0001
1000
0001
0000
,
1000
0001
0010
0100
,
1000
0001
0100
0000
,
0010
1000
0001
1000
,
0100
0010
0001
0000
,
1000
0010
1000
0001
,
0010
0001
0100
0000
,
0010
0100
0001
1000
,
0100
1000
0001
0000
,
0010
0100
1000
0010
,
1000
0100
0010
0000
,
0100
0010
0001
0100
,
0001
0010
0100
0000
,
2002
0000
0000
0000
,
3003
0000
0000
0000
,
0000
0000
0000
0000
,
0100
0000
0110
0000
,
0001
1000
0001
0000
,
0100
0010
0100
0000
,
0001
0010
0100
0000
,
1000
0000
1001
0000
,
0010
0100
0010
0010
,
0100
0010
0100
0100
,
0001
1000
0001
0001
,
1000
0001
1000
2000
,
3001
0010
0001
0000
,
1000
0100
1000
0000
,
0010
0100
0010
0000
,
1000
0000
0000
0000
0002
0000
0000
0013
;

//---------------dance-single - ----------------
#NOTES:
     dance-single:
     :
     Medium:
     11:
     0.552378,0.503014,0.288686,0.157465,0.118099,442.000000,409.000000,33.000000,18.000000,0.000000,0.000000,0.552378,0.503014,0.288686,0.157465,0.118099,442.000000,409.000000,33.000000,18.000000,0.000000,0.000000:
0000
0000
0000
0000
,
0000
0000
0000
0000
,
0000
0000
0000
0000
,
1001
0000
0000
0011
0000
0000
0000
0000
1100
0000
0000
1001
0000
0000
0000
0000
,
0210
0001
0010
0301
,
0012
1000
0100
1003
,
2100
0001
0010
3001
,
0011
0000
0000
0101
0000
0000
0000
0000
1100
0000
0000
1010
0000
0000
0000
0000
,
0010
1000
0100
1000
0001
0010
0001
0000
,
0100
0010
1000
0100
0010
0100
1000
0000
,
0001
0100
0010
0100
0001
0010
0001
0000
,
0100
0001
0010
0100
1000
0001
2000
0000
,
3010
0100
0010
0100
0001
0010
0001
0010
,
0100
1000
0100
1000
0001
0010
0100
0000
,
1000
0010
0100
0001
1000
0100
0010
0000
,
0100
0000
0000
1100
0000
0000
0000
0000
0001
0000
0000
0101
0000
0000
0000
0000
,
0120
0000
0000
0000
1030
0100
1000
0001
,
0000
0001
0010
0001
1000
0100
0010
0000
,
0021
0000
0000
0000
0031
0100
0001
1000
,
0000
0010
1000
0010
0100
0001
0010
0000
,
2100
0000
0000
0000
3001
0100
0001
0010
,
0000
0001
1000
0001
1000
0010
0100
0000
,
0120
0000
0000
0000
1030
0001
1000
0100
,
0010
0000
0000
0002
0000
0000
0000
0000
1003
0000
0000
0020
0000
0000
0000
0000
,
0130
0000
0100
0001
0100
0010
0100
0000
,
0001
0010
0001
1000
0001
0010
0001
0000
,
1000
0100
0010
0100
1000
0001
1000
0000
,
0010
0100
0001
0100
0001
0010
0100
0000
,
1000
0001
0100
0010
1000
0100
0010
0000
,
0001
0100
0010
1000
0100
0010
0001
0000
,
1000
0010
1000
0010
0100
0001
0100
0000
,
0001
0010
0001
0100
0010
1000
0100
0000
,
1001
0000
0000
0000
0010
0000
0001
0000
1000
0000
0000
0010
0000
0000
0010
0000
,
0100
0000
0001
0000
0100
0000
0000
0000
0010
0000
0000
1000
0000
0000
0010
0000
,
1000
0000
0100
0000
0010
0000
0000
0000
0001
0000
0000
1000
0000
0000
0001
0000
,
0100
0010
1000
0000
0001
0010
0100
0000
,
1000
0000
0001
0000
1000
0000
0010
0000
0100
0000
0000
0100
0000
0000
0100
0000
,
0001
0000
0010
0000
0100
0000
1000
0000
0001
0000
0000
0100
0000
0000
0001
0000
,
0010
0000
0001
0000
1000
0000
0010
0000
0100
0000
0000
0001
0000
0000
0100
0000
,
0001
0010
0100
1000
0001
1000
1001
0000
,
0100
0000
0010
0000
1000
0000
0100
0000
0010
0000
0000
0001
0000
0000
1000
0000
,
0001
0000
0010
0000
0100
0000
1000
0000
0001
0000
0000
0100
0000
0000
0010
0000
,
1000
0000
0100
0000
1000
0000
0010
0000
1000
0000
0000
1001
0000
0000
0001
0000
,
0010
0001
0100
0010
1000
0100
2000
0000
,
3001
0000
0100
0000
0010
0000
0100
0000
0001
0000
0000
1000
0000
0000
0100
0000
,
1000
0000
0010
0000
0100
0000
0010
0000
1000
0000
0000
0001
0000
0000
0010
0000
,
0001
1000
0100
0010
0000
0010
0100
1000
,
0001
0100
0010
0001
1000
0100
0110
0000
,
0001
0000
0000
0010
0000
0000
0100
0000
0000
0000
1000
0000
0100
0000
0000
0000
,
1000
0010
0100
0001
1000
0100
0010
0000
,
0001
0100
1000
0100
0001
0100
1000
0000
,
0100
0001
0100
0010
1000
0100
2000
0000
,
3010
0000
0100
0000
0010
0000
1000
0000
0100
0000
0000
0010
0000
0000
0001
0000
,
1000
0001
0010
0001
0000
0001
0100
0000
,
0010
1000
0100
1000
0001
0010
0100
0000
,
1000
0100
0001
0100
1000
0100
0001
0000
,
0220
0000
0000
0000
,
0330
0000
0000
0000
,
0001
0001
1000
1000
,
0010
0000
0000
0101
0000
0000
0000
0000
0010
0000
0000
1100
0000
0000
0000
0000
,
2001
0010
0001
3010
,
0102
1000
0100
1003
,
0210
0001
1000
0301
,
0110
0000
0000
1100
0000
0000
0000
0000
0011
0000
0000
0110
0000
0000
0000
0000
,
1000
0100
0010
0100
0000
0100
1000
0000
,
0001
0100
0010
0100
0000
0100
0001
0000
,
1000
0001
0010
0001
0000
0001
0100
0000
,
0010
1000
0100
1000
0000
1000
0002
0000
,
1003
0100
1000
0100
0010
0001
0010
0001
,
0100
0010
1000
0001
1000
0100
0010
0000
,
0001
0100
0010
1000
0001
1000
0100
0010
,
0001
0000
0000
0101
0000
0000
0000
0000
0010
0000
0000
1100
0000
0000
0001
0000
;

//---------------dance-single - ----------------
#NOTES:
     dance-single:
     :
     Hard:
     16:
     0.871057,0.911712,0.498640,0.183709,1.176615,697.000000,640.000000,57.000000,21.000000,0.000000,0.000000,0.871057,0.911712,0.498640,0.183709,1.176615,697.000000,640.000000,57.000000,21.000000,0.000000,0.000000:
// measure 0
0000
0000
0000
0000
,  // measure 1
0000
0000
0000
0000
,  // measure 2
0000
0000
0000
0000
,  // measure 3
1100
0000
0000
0101
0000
0000
0010
0000
0110
0000
0000
0011
0000
0000
1000
0000
,  // measure 4
0001
0000
0100
0000
0010
0000
0000
1100
0000
0101
0000
1000
0010
0000
0100
0000
,  // measure 5
0001
0000
0010
0000
0100
0000
0000
1001
0000
1010
0000
0001
0010
0000
0100
0000
,  // measure 6
1000
0000
0001
0000
0010
0000
0000
0101
0000
0110
0000
1000
0010
0000
0100
0000
,  // measure 7
0001
0000
0000
2100
0000
0000
3010
0000
0100
0000
0000
0012
0000
0000
1003
0000
,  // measure 8
0010
0100
0001
0000
0010
0001
0000
1010
0000
1001
0000
0001
0010
0100
1000
0000
,  // measure 9
0010
0100
0001
0000
0010
0001
0000
1100
0000
1001
0000
0010
0100
0001
1000
0000
,  // measure 10
0010
1000
0100
0000
0010
0100
0000
1100
0000
0101
0000
0010
0100
0001
0010
0000
,  // measure 11
0001
1000
0010
0000
0100
0010
0000
0101
0000
1010
0000
1000
0001
0010
0100
0000
,  // measure 12
1000
0100
1000
0000
0001
0010
0000
0001
0000
1001
0000
1000
0010
0100
0001
0000
,  // measure 13
0100
0010
0100
0000
0001
0010
0000
0001
0000
1010
0000
0100
0010
1000
0100
0000
,  // measure 14
1000
0001
1000
0001
1000
0001
1000
0001
0010
0100
0010
0100
0010
0100
0010
0100
,  // measure 15
1000
0000
0000
2010
0000
0000
0000
0000
3001
0000
0000
0011
0000
0000
0000
0000
,  // measure 16
0102
0000
0000
0000
0000
0000
0000
0000
0013
0100
1000
0100
0000
1000
0010
1000
,  // measure 17
0000
0001
0010
0001
0000
0100
0010
0100
0000
0001
1000
0001
0000
1000
0010
1000
,  // measure 18
0200
0000
0000
0000
0000
0000
0000
0000
0310
0001
0100
0001
0000
1000
0010
1000
,  // measure 19
0000
0001
0010
0001
0000
1000
0100
1000
0000
0010
0100
0010
0000
0100
0001
0100
,  // measure 20
0020
0000
0000
0000
0000
0000
0000
0000
1030
0100
1000
0001
0000
0010
0001
1000
,  // measure 21
0000
0010
0100
0001
0000
1000
0100
0010
0000
0100
1000
0001
0000
0100
0010
1000
,  // measure 22
0002
0000
0000
0000
0000
0000
0000
0000
0013
0100
1000
0001
0000
0100
0010
1000
,  // measure 23
0001
0000
0000
0201
0000
0000
0310
0000
0010
0000
0000
2100
0000
3001
0000
0000
,  // measure 24
1001
0000
0000
0000
0110
0000
0000
0000
1000
0001
0010
0001
0000
0100
0000
0110
,  // measure 25
0000
0010
1000
0010
0000
1000
0100
1000
0001
0010
0100
0000
0000
0010
0001
0010
,  // measure 26
0200
0000
0000
0000
1300
0000
0010
0000
0100
0001
1000
0001
0100
0000
0010
0000
,  // measure 27
1000
0010
0100
0010
1000
0001
0000
0001
0010
0100
0000
0100
1000
0000
0001
0000
,  // measure 28
0020
0000
0000
0000
0031
0000
1000
0010
0000
0100
0010
0100
0000
0001
0000
1001
,  // measure 29
0000
1000
0010
1000
0001
0000
0010
0100
0000
1000
0010
0000
0100
0000
0100
0000
,  // measure 30
0102
0000
0000
0000
1003
0000
0010
1000
0001
0010
0000
0010
0001
0100
0000
0100
,  // measure 31
0010
1000
0000
1000
0010
0001
0000
0001
0010
0100
0010
0100
0001
0000
1000
0000
,  // measure 32
0100
0000
1000
0000
0100
0000
0010
0000
0100
0000
0000
1100
0000
0000
0001
0000
,  // measure 33
0100
0000
0010
0000
0100
0000
0001
0000
0100
0000
0000
0011
0000
0000
0100
0000
,  // measure 34
0010
0000
0100
0000
1000
0000
0100
0000
0010
0000
0000
1001
0000
0000
0010
0000
,  // measure 35
0001
0100
1000
0001
0010
1000
0001
1000
,  // measure 36
0001
0000
0010
0000
0001
1000
0100
0000
1000
0000
0000
0110
0000
0000
0001
0000
,  // measure 37
1000
0000
0100
0000
0001
0000
0100
0000
1000
0001
0000
0101
0000
0000
0010
0000
,  // measure 38
0100
0000
0001
0000
0010
0000
0001
0000
1000
0010
0000
0110
0000
0000
0001
0000
,  // measure 39
1000
0010
0100
0000
0010
0100
0001
0000
0000
0010
0100
1000
0010
0000
0010
0000
,  // measure 40
0100
0001
1000
0000
0010
0100
0001
0000
1000
0010
0100
0010
0000
0010
1000
0000
,  // measure 41
0001
0000
0010
0000
0100
0000
0010
0000
0001
1000
0000
1001
0000
0000
0010
0000
,  // measure 42
0100
0000
0001
0000
0100
0000
0010
0000
1000
0001
0000
0011
0000
1000
0100
0000
,  // measure 43
1000
0000
0001
0010
0001
0000
0100
0001
0100
0000
0010
1000
0010
0000
0100
0000
,  // measure 44
0010
1000
0001
0000
0100
0010
1000
0000
0001
0100
0010
0100
0000
0100
0001
0000
,  // measure 45
1000
0000
0100
0000
0010
0000
0100
0000
1000
0001
0000
1001
0000
0000
0100
0000
,  // measure 46
0010
0000
1000
0000
0010
0000
0201
0000
0000
0000
0301
0000
0010
0000
0100
0001
,  // measure 47
0100
1000
0000
1000
0010
0100
0000
0100
0001
0000
0010
0000
0100
1000
0001
0000
,  // measure 48
0100
0000
0010
0100
0001
0000
1000
0000
0001
0000
0010
0000
0100
0000
1000
0001
,  // measure 49
0100
0000
0010
1000
0001
0000
0100
0010
1000
0000
0001
0000
0010
0000
0001
0000
,  // measure 50
1000
0010
0100
0010
1000
0000
0001
0010
0001
0000
0100
0010
0000
1000
0100
0000
,  // measure 51
1000
0000
0001
0010
0000
0001
0100
0000
0010
0000
1000
0010
0100
0000
0001
0000
,  // measure 52
0010
0000
0001
1000
0001
0000
0100
0000
0010
0000
1000
0001
1000
0000
0010
0000
,  // measure 53
0100
0000
0001
0010
0000
0001
0100
0000
0010
1000
0000
0100
1000
0000
0010
0000
,  // measure 54
0100
0001
0100
0010
0100
0000
0001
0000
1000
0100
1000
0010
1000
0000
0001
0000
,  // measure 55
0010
0100
0000
1000
0100
0000
0010
0100
0000
1000
0001
0000
0100
0010
1000
0001
,  // measure 56
0020
0000
0000
0000
,  // measure 57
0200
0000
0030
0000
,  // measure 58
2000
0000
0000
3300
,  // measure 59
1010
0000
0000
0012
0000
0000
1003
0000
1100
0000
0000
0201
0000
0000
0310
0000
,  // measure 60
0010
1000
0100
0000
1000
0001
0000
0010
0000
0110
0000
0010
0001
0100
0010
0000
,  // measure 61
0100
0001
0010
0000
0001
0100
0000
0010
0000
1010
0000
1000
0001
0010
0100
0000
,  // measure 62
1000
0100
0010
0000
0010
0100
0000
1000
0000
1010
0000
0010
0100
0010
1000
0000
,  // measure 63
0001
0000
0000
2100
0000
0000
3010
0000
0100
0000
0000
0012
0000
0000
1003
0000
,  // measure 64
0010
0100
1000
0000
0100
0001
0010
0100
0000
0100
0000
0100
0010
0001
1000
0000
,  // measure 65
0100
0010
0001
0000
1000
0010
0100
0010
0000
0010
0000
0010
0100
0001
1000
0000
,  // measure 66
0010
0100
0001
0000
1000
0100
0010
0001
0000
0001
0000
0001
0010
0100
1000
0000
,  // measure 67
0010
0100
0001
0000
0010
0100
1000
0001
0000
0001
0000
0001
1000
0010
0100
0001
,  // measure 68
0010
0000
0001
0000
0100
0000
0010
1000
0000
1001
0000
0001
0100
0010
1000
0000
,  // measure 69
0001
0000
0010
0000
0100
0000
1000
0010
0000
0110
0000
0010
1000
0001
0100
0000
,  // measure 70
0001
0000
0010
0000
0100
0000
1000
0100
0000
0110
0000
0100
1000
0001
1000
0000
,  // measure 71
0010
0000
0000
0102
0000
0000
0013
0000
0100
0000
0000
1100
0000
0000
0011
0000
;
