#TITLE:STARLIGHT DANCEHALL;
#SUBTITLE:;
#ARTIST:P*Light;
#TITLETRANSLIT:;
#SUBTITLETRANSLIT:;
#ARTISTTRANSLIT:;
#GENRE:HAPPY EMOTION;
#CREDIT:;
#BANNER:STARLIGHT_DANCEHALL_banner.png;
#BACKGROUND:STARLIGHT_DANCEHALL.png;
#LYRICSPATH:;
#CDTITLE:;
#MUSIC:STARLIGHT DANCEHALL.mp3;
#OFFSET:0.300000;
#SAMPLESTART:89.185997;
#SAMPLELENGTH:10.800000;
#LASTBEATHINT:328.500000;
#SELECTABLE:YES;
#BPMS:0.000000=177.000000
;
#STOPS:
;
#BGCHANGES:0.000=STARLIGHT DANCEHALL_BGA.avi=1.000=0=0=0=StretchNoLoop====,
99999=-nosongbg-=1.000=0=0=0 // don't automatically add -songbackground-
;
#KEYSOUNDS:;
#ATTACKS:;

//---------------dance-single - ----------------
#NOTES:
     dance-single:
     :
     Easy:
     7:
     0.317545,0.341331,0.149853,0.208129,0.000000,267.000000,249.000000,18.000000,25.000000,0.000000,0.000000,0.317545,0.341331,0.149853,0.208129,0.000000,267.000000,249.000000,18.000000,25.000000,0.000000,0.000000:
0000
0000
0000
0000
,
0000
0000
0000
0000
,
0000
0000
0000
0000
,
0000
0000
0000
0000
,
0000
0000
0000
0000
,
0000
0000
0000
0000
,
2000
0100
0000
3100
,
0002
0100
0000
0103
,
0020
1000
0000
1030
,
0200
0001
0000
0301
,
1000
1000
1000
1000
,
0100
0100
0100
0100
,
0010
0010
0010
0010
,
0001
0001
0001
0001
,
1001
0000
0110
0000
,
1001
0000
0110
0000
,
1000
0010
0100
0001
,
2002
0000
0000
3003
,
1000
0010
1000
0010
,
0100
0001
0100
0001
,
1000
0001
1000
0001
,
0100
0010
0100
0010
,
1000
0100
0010
0001
,
0100
0001
1000
0010
,
2010
0000
3001
0000
,
0012
0000
1003
0000
,
0100
0010
0100
0001
,
1000
0010
0100
0010
,
1000
0001
0001
0001
,
0010
0100
0100
0100
,
1000
0010
1000
0010
,
0100
0001
0100
0001
,
2000
0000
3010
0000
,
0202
0000
0000
0303
,
1000
0100
0001
0100
,
1000
0100
0001
0100
,
1000
0010
0001
0010
,
1000
0010
0001
0010
,
0100
0010
1000
0001
,
0010
0001
0100
0010
,
1000
0100
0010
0001
,
0100
0010
2002
3003
,
1000
0010
1000
0001
,
1000
0100
1000
1000
,
0001
0010
0001
1000
,
0001
0100
0001
0001
,
2000
0010
0000
0010
,
3002
0100
0000
0100
,
1003
0010
0100
0001
,
2020
0000
0000
3030
,
0100
0000
0100
0000
,
0010
0000
0010
0000
,
1000
0000
1000
0000
,
0001
0000
0001
0000
,
0100
0000
0101
0000
,
0001
0000
1001
0000
,
1000
0000
1010
0000
,
0010
0000
0110
0000
,
0100
0001
0100
0000
,
0010
1000
0010
0000
,
1000
0100
1000
0000
,
0001
0100
0001
0000
,
0020
0001
0031
0000
,
2000
0100
3100
0000
,
0001
0100
0010
1000
,
2002
0000
0000
3003
,
1000
0010
1000
0100
,
0010
0001
0100
0000
,
0001
0010
0001
0100
,
0010
1000
0100
0000
,
1000
0001
0010
0001
,
1000
0100
1000
0000
,
0001
1000
0100
1000
,
0001
0010
0220
0330
,
0010
0001
1000
0100
,
1000
0010
1000
0100
,
0010
0001
0100
0010
,
1000
0001
2002
3003
,
0100
0010
0100
0010
,
1000
0001
1000
0001
,
0010
0001
0100
0010
,
1000
1000
0001
0001
,
0110
0000
0000
0000
;

//---------------dance-single - ----------------
#NOTES:
     dance-single:
     :
     Medium:
     11:
     0.497130,0.580263,0.291380,0.258080,0.149853,418.000000,383.000000,35.000000,31.000000,0.000000,0.000000,0.497130,0.580263,0.291380,0.258080,0.149853,418.000000,383.000000,35.000000,31.000000,0.000000,0.000000:
0000
0000
0000
0000
,
0000
0000
0000
0000
,
0000
0000
0000
0000
,
0000
0000
0000
0000
,
0000
0000
0000
0000
,
0000
0000
0000
0000
,
1001
0000
0001
0000
0100
0010
0100
0000
,
0010
0000
1000
0100
0000
0100
0010
0000
,
0001
0010
0001
0100
0010
1000
0100
0000
,
0220
0000
0000
0330
,
2001
0010
0010
3010
,
1002
0100
0100
0103
,
1020
0100
0100
0130
,
0210
0001
0001
0301
,
1000
0001
1001
1001
,
0100
0010
0110
0110
,
1000
0010
0100
0001
1000
0100
1000
0010
,
0200
0000
0000
0300
,
0001
0000
0010
0000
0001
1000
0001
0000
,
1000
0000
0010
0000
1000
0001
1000
0000
,
0002
0100
0100
0103
,
2000
0100
0100
3100
,
0010
0000
0001
0000
0100
0010
0100
0000
,
0010
0000
1000
0000
0100
0010
0100
0000
,
0020
0001
0001
0031
,
2000
0100
0100
3100
,
0010
0000
0000
0001
0000
0000
1000
0000
0000
0100
0000
0000
2000
0000
0000
0000
,
3001
0000
0000
0100
0000
0000
0010
0000
0000
1000
0000
0000
0002
0000
0000
0000
,
1003
0000
1000
0100
1000
0100
1000
0000
,
0001
0000
0001
0010
0001
0010
0001
0000
,
0100
0000
0000
0010
0000
0000
0100
0000
0000
0010
0000
0000
0100
0000
0000
0000
,
0001
0000
0000
1000
0000
0000
0001
0000
0000
1000
0000
0000
0001
0000
0000
0000
,
1000
0100
0010
0001
1000
0100
0010
0000
,
2002
0000
0000
3003
,
0001
0010
0001
0100
0000
0010
0010
0000
,
1000
0100
1000
0010
0000
0100
0100
0000
,
0001
0100
1000
0100
0000
0000
1001
0000
,
1000
0100
0001
0100
0000
0000
1001
0000
,
1000
0010
0100
0010
0000
1000
1000
0000
,
0001
0010
0001
0100
0000
0001
0001
0000
,
1000
0010
0100
0010
1000
0100
1000
0000
,
0001
0010
0100
0010
0001
0100
0001
0000
,
1000
0010
1000
0010
0100
0001
0100
0000
,
0001
0010
0001
0010
0100
1000
0100
0000
,
1000
0001
0010
0001
0100
0010
0100
0000
,
0001
0100
0010
0100
0001
1000
0100
0000
,
0012
1000
0000
1003
,
2010
0001
0000
3001
,
0110
0110
0110
0110
,
2002
0000
0000
3003
,
1000
0000
0010
0000
0100
0010
0100
0000
,
0001
0000
0010
0000
0100
0010
0100
0000
,
1000
0000
0010
0000
1000
0001
1000
0000
,
0001
0000
0100
0000
0001
1000
0001
0000
,
1010
0000
0000
0000
0000
1010
0000
0010
,
0100
0000
0000
0002
0000
0000
0003
0000
,
1000
0000
0010
0000
0100
0001
0100
0000
,
0010
0010
0010
0000
1001
0000
0110
0000
,
1000
0000
0000
0010
0000
0000
1000
0000
0000
0010
0000
0000
0200
0000
0000
0000
,
0301
0000
0000
0010
0000
0000
0001
0000
0000
0010
0000
0000
0200
0000
0000
0000
,
1300
0000
0000
0001
0000
0000
1000
0000
0000
0001
0000
0000
0020
0000
0000
0000
,
0031
0000
0000
1000
0000
0000
0001
0000
0000
1000
0000
0000
0020
0000
0000
0000
,
1030
1100
1100
1100
,
0001
0011
0011
0011
,
1000
0001
1000
0001
0100
0010
0100
0010
,
2000
0000
3001
1001
,
1000
0000
0000
0100
0000
0000
1000
0000
0000
0010
0000
0000
0200
0000
0000
0000
,
0301
0000
0000
0010
0000
0000
0001
0000
0000
0100
0000
0000
0020
0000
0000
0000
,
1030
0000
0000
0001
0000
0000
0100
0000
0000
0001
0000
0000
2000
0000
0000
0000
,
3001
0000
0000
1000
0000
0000
0010
0000
0000
1000
0000
0000
0002
0000
0000
0000
,
1003
0000
0000
0010
0000
0000
0100
0000
0000
0001
0000
0000
1001
0000
0000
0000
,
0001
0000
0000
0010
0000
0000
0100
0000
0000
1000
0000
0000
1001
0000
0000
0000
,
1000
0000
0000
0010
0000
0000
0100
0000
0000
0001
0000
0000
0101
0000
0000
0000
,
0100
0000
0000
0010
0000
0000
1000
0000
0000
0001
0000
0000
1001
0000
0000
0000
,
1000
0010
0100
0010
1000
0100
1000
0000
,
0001
0010
0001
0100
0010
0100
0001
0000
,
1000
0000
0000
1000
0000
0000
0010
0000
0000
0010
0000
0000
0200
0000
0000
0000
,
0301
0000
0000
0001
0000
0000
0010
0000
0000
0010
0000
0000
0200
0000
0000
0000
,
1300
0001
1000
0001
1000
0010
0100
0000
,
0001
1000
0001
1000
0001
0010
0100
0000
,
1000
0001
0100
0010
1000
0100
0010
0001
,
1000
0010
0100
0010
1000
0001
0010
0100
,
1000
0000
0000
0000
;

//---------------dance-single - ----------------
#NOTES:
     dance-single:
     :
     Hard:
     15:
     0.669580,0.887461,0.316356,0.133202,0.345494,563.000000,525.000000,38.000000,16.000000,0.000000,0.000000,0.669580,0.887461,0.316356,0.133202,0.345494,563.000000,525.000000,38.000000,16.000000,0.000000,0.000000:
0000
0000
0000
0000
,
0000
0000
0000
0000
,
0000
0000
0000
0000
,
0000
0000
0000
0000
,
0000
0000
0000
0000
,
0000
0000
0000
0000
,
1100
0000
0010
0000
0000
0100
0010
0000
,
0001
0001
0100
0000
0000
0010
0100
0000
,
0001
0000
1000
0000
0010
1000
0100
0000
,
0012
0010
0010
0000
1000
0000
1003
0000
,
2010
0001
0100
0001
,
0010
0001
0100
3010
,
0102
1000
0010
1000
,
0100
1000
0010
0103
,
1001
1001
0110
0110
,
1010
1010
0101
0101
,
1000
0000
0100
1000
0100
0000
0010
0001
0010
0001
0100
0010
1000
0100
1000
0001
,
0200
0000
0000
0300
,
0001
0100
0010
0100
0001
0100
0010
0100
,
0010
1000
0100
1000
0010
1000
0100
1000
,
0001
0010
0010
0010
0100
1000
0001
0100
,
0010
1000
0010
0100
0001
0010
0100
1000
,
0001
0100
0010
0100
0001
0010
0100
0010
,
0100
1000
0001
1000
0100
0010
0100
1000
,
0001
0000
0101
0000
1000
0100
1000
0000
,
0010
0010
0010
0000
1001
0000
0110
0000
,
1000
0000
0000
0001
0000
0000
0010
0000
0000
0001
0000
0000
1000
0000
0100
0010
,
0100
0000
0000
0010
0000
0000
0001
0000
0000
1000
0000
0000
0010
0000
0100
0001
,
0100
0010
0001
0010
1000
0100
1000
0001
,
0100
0010
0100
0010
1000
0001
1000
0001
,
1000
0000
0010
1000
0000
0001
0100
0000
0010
0100
0000
0001
1000
0000
0001
0010
,
0001
0000
0100
0010
0000
1000
0001
0000
1000
0010
0000
0100
0001
0000
1000
0100
,
1000
0010
1000
0000
0001
0100
0001
0000
1000
0010
0100
0010
1000
0001
0010
0001
,
0200
0000
0000
0000
0000
0001
0301
0000
,
0100
0001
0010
0001
1000
0100
0010
0001
,
1000
0010
0100
0010
1000
0100
0001
0100
,
1000
0000
0011
0000
0001
0100
0010
0100
,
0001
0010
0100
1000
0010
0100
0010
1000
,
0001
0010
1000
0010
0100
0010
0001
0010
,
0001
0100
1000
0100
0010
0100
0001
0100
,
0001
1000
0010
1000
0001
0100
0010
0100
,
0002
0000
0010
0013
,
0100
0001
1000
0001
0100
0010
0100
0001
,
1000
0010
0100
0001
1000
0100
0010
0001
,
1000
0010
0100
0010
1000
0001
0010
0001
,
1000
0100
1000
0100
1000
0001
0020
0000
,
0032
0100
0000
0100
0000
0100
0000
0100
,
2003
0010
0000
0010
0000
0010
0000
0010
,
3100
0000
0001
0000
0010
0000
0001
0000
1000
0100
1000
0100
0010
0001
0010
0001
,
2000
0000
0000
3000
,
0101
0000
0101
0000
0010
0100
0010
0000
,
1100
0000
1100
0000
0010
0100
0010
0000
,
0011
0000
0011
0000
1000
0100
1000
0000
,
0010
1000
0010
0100
0001
0100
0001
0010
,
0100
0000
1100
0000
1000
0001
0010
0000
,
1100
0000
0101
0000
0100
0010
0100
0000
,
0011
0000
1010
0000
0100
0010
0100
0000
,
1000
0001
1000
0000
0110
0000
0110
0000
,
0002
0000
0000
0010
0000
0000
1000
0000
0000
0100
0000
0000
0100
0000
0000
0000
,
2003
0000
0000
0010
0000
0000
0001
0000
0000
0100
0000
0000
0100
0000
0000
0000
,
3020
0000
0000
0001
0000
0000
0001
0000
0000
0100
0000
0000
0100
0000
0000
0000
,
0230
0000
0000
1000
0000
0000
1000
0000
0000
0010
0000
0000
0310
0000
0000
0000
,
1000
0001
0100
0010
1000
0001
0100
0010
,
1000
0100
0010
0001
1000
0100
0010
0001
,
1000
0000
0001
0010
0001
0000
1000
0100
1000
0100
0010
0001
0100
0010
1000
0001
,
2000
0000
0000
3001
,
1000
0000
0010
1000
0000
0001
0100
0000
0010
0100
0000
0000
0001
0000
0010
0000
,
0001
0000
1000
0100
0000
0010
0001
0000
1000
0010
0000
0000
0100
0000
0001
0000
,
1000
0000
0010
0100
0000
0001
0010
0000
0100
1000
0000
0000
0010
0000
0100
0000
,
0001
0000
0010
0100
0000
1000
0100
0000
1000
0010
0000
0000
0200
0000
0000
0000
,
0301
0000
1000
0010
0000
0100
0001
0000
1000
0100
0000
0000
0010
0000
0100
0000
,
0010
0000
0001
1000
0000
0010
0100
0000
0001
0010
0000
0000
0100
0000
1000
0000
,
0100
0000
0010
0100
0000
0010
0001
0000
1000
0001
0000
0000
0100
0000
0010
0000
,
0100
0000
0000
1001
0000
0000
0010
0000
0000
1001
0000
0000
0110
0000
0000
0000
,
1000
0000
0100
0010
0000
0100
1000
0000
0100
0010
0000
0000
0001
0000
0001
0000
,
0100
0000
0010
0100
0000
1000
0100
0000
0010
0100
0000
0000
0001
0000
0001
0000
,
1000
0000
0000
1001
0000
0000
0011
0000
0000
1100
0000
0000
0001
0000
0100
0000
,
0010
0000
0000
0110
0000
0000
0101
0000
0000
1000
0000
0000
0010
0000
0010
0000
,
1000
0001
1000
0001
0100
0010
0100
0010
,
1000
0010
1000
0010
0100
0001
0100
0001
,
1000
0100
1000
0000
0001
0100
0001
0000
1000
0010
1000
0000
0001
0010
0001
0000
,
1000
0100
0001
0010
0001
0010
0100
1000
,
1001
0000
0000
0000
;

//---------------dance-single - ----------------
#NOTES:
     dance-single:
     :
     Challenge:
     17:
     0.849165,0.955727,0.641036,0.141528,0.632711,714.000000,637.000000,77.000000,17.000000,0.000000,0.000000,0.849165,0.955727,0.641036,0.141528,0.632711,714.000000,637.000000,77.000000,17.000000,0.000000,0.000000:
// measure 0
0000
0000
0000
0000
,  // measure 1
0000
0000
0000
0000
,  // measure 2
0000
0000
0000
0000
,  // measure 3
0000
0000
0000
0000
,  // measure 4
0000
0000
0000
0000
,  // measure 5
0000
0000
0000
0000
,  // measure 6
0110
0001
1001
0000
0100
0010
1010
0000
,  // measure 7
0011
0010
1010
0000
1100
0100
0101
0000
,  // measure 8
1000
0000
0010
0000
1000
0000
0001
0000
0010
0001
0100
0010
1000
0100
0010
0001
,  // measure 9
2000
0010
3010
0010
0100
0001
0010
1000
,  // measure 10
0012
1000
0100
1000
,  // measure 11
0010
1000
0103
0011
,  // measure 12
2100
0001
0010
0001
,  // measure 13
0100
0000
3001
0000
0010
0100
0110
0000
,  // measure 14
1001
0110
1001
1010
,  // measure 15
0010
0100
0010
0001
1000
0100
0010
0100
,  // measure 16
0001
0000
0010
0100
0010
0000
0001
1000
0100
0010
0001
1000
0010
0100
0001
1000
,  // measure 17
0200
0000
1000
1000
0000
0010
0310
0000
,  // measure 18
0011
0001
1000
0010
0100
0010
1000
0001
,  // measure 19
1000
0100
0001
0100
1000
0001
0010
1000
,  // measure 20
0010
0001
0101
0001
1000
0100
0010
0100
,  // measure 21
1000
0000
0001
0010
0000
0001
0010
0000
0001
0000
1000
0100
1000
0000
0010
0000
,  // measure 22
0100
0001
0101
1000
0010
0100
0110
0010
,  // measure 23
1000
0001
0011
1000
0100
0001
1001
0000
,  // measure 24
1100
0000
0011
0000
1001
0110
1001
0000
,  // measure 25
0110
1010
0110
0000
0101
0110
0101
0000
,  // measure 26
1000
0000
0010
1000
0000
0010
1000
0000
0001
0100
0000
0001
0100
0000
0010
0100
,  // measure 27
0010
0000
1000
0100
0000
0010
0100
0000
1000
0001
0000
0010
0001
0000
1000
0100
,  // measure 28
0010
0001
1000
0001
0100
0010
0110
0010
,  // measure 29
1000
0000
0001
1000
0000
0001
1000
0000
0010
0000
0100
0010
0100
0000
0010
0000
,  // measure 30
1000
0000
0100
1000
0000
0010
1000
0000
0001
0100
0000
0010
0100
0000
0001
0010
,  // measure 31
0001
0000
0100
0001
0000
0010
0001
0000
1000
0010
0000
0100
0010
0000
1000
0001
,  // measure 32
0100
0010
1000
0001
0100
0010
1000
0001
0100
0010
1000
0001
1000
0100
0010
0001
,  // measure 33
0020
0000
0001
0000
0000
1000
1030
0000
,  // measure 34
1000
0100
0001
0101
0000
0001
0100
1000
,  // measure 35
0010
0100
0101
0001
1000
0010
1010
0000
,  // measure 36
0001
0010
1010
1000
0010
0001
0101
0100
,  // measure 37
1000
0100
0101
0001
1000
0010
0011
0000
,  // measure 38
0100
0010
1010
2000
0000
3001
0010
0001
,  // measure 39
0010
0100
1000
1002
0000
0013
0100
0010
,  // measure 40
0001
0010
1000
0001
0100
1000
0010
0010
,  // measure 41
0200
0010
0010
0010
0001
0000
1300
1000
,  // measure 42
0100
0000
0010
0000
1000
0000
0001
0000
1000
0010
0100
0000
0001
0000
0010
0000
,  // measure 43
0100
0000
1000
0000
0010
0000
0100
0000
0001
0010
0100
0000
1000
0000
0010
0000
,  // measure 44
1000
0000
0001
0000
0010
0000
0100
0000
0010
0001
1000
0000
0010
0000
1000
0000
,  // measure 45
0001
0000
0100
0000
1000
0000
0100
0000
0010
0100
0010
0000
1000
0000
0001
0000
,  // measure 46
0021
0001
0000
1000
0000
0001
0031
0000
,  // measure 47
0201
0001
0000
1000
0000
0001
0301
1000
,  // measure 48
0010
0000
1000
0000
0001
0000
0100
0000
0001
0010
0100
1000
0001
0010
0100
1000
,  // measure 49
0020
0000
0100
0100
0100
0000
1030
0000
,  // measure 50
1100
0000
0101
0000
0011
1001
0001
0010
,  // measure 51
0011
0000
1000
1100
0000
0010
0100
1000
,  // measure 52
0001
0100
0110
0000
1010
0010
0100
0001
,  // measure 53
0010
0001
1001
1000
0010
0100
0010
1000
,  // measure 54
1001
0000
0110
0000
0010
1000
1010
0010
,  // measure 55
0100
0001
0010
0011
0000
1000
1100
0000
,  // measure 56
1001
0000
0000
0000
0101
0000
0000
0000
0010
0000
0100
0000
0010
0100
0010
0100
,  // measure 57
0001
0001
0002
0000
1000
0000
1003
1000
,  // measure 58
1000
0000
0010
0100
0000
0001
0100
0000
0010
0100
0000
0000
0001
0000
0010
0000
,  // measure 59
0001
0000
1000
0100
0000
1000
0010
0000
1000
0100
0000
0000
1000
0001
0010
0001
,  // measure 60
1000
0000
0100
0010
0000
0100
0001
0000
0100
1000
0000
0000
0001
0100
0010
0100
,  // measure 61
0001
0000
0010
0100
0000
0010
1000
0000
0010
0001
0000
0000
1001
0000
0000
0000
,  // measure 62
0110
0000
0000
0000
0110
0000
0000
0000
1010
0000
0000
0101
0000
0000
1010
0000
,  // measure 63
1100
0000
0000
0000
1100
0000
0000
0000
0011
0000
0000
0101
0000
0000
0011
0000
,  // measure 64
1000
0000
0001
0010
0001
0000
1000
0010
1000
0100
0010
0001
1000
0100
0010
0001
,  // measure 65
0200
0000
0010
0010
0000
0001
0301
1000
,  // measure 66
0010
0000
0100
0001
0000
0100
0010
0000
1000
0100
0000
1000
0001
0000
1000
0000
,  // measure 67
0100
0000
0010
0100
0000
1000
0001
0000
0010
0001
0000
1000
0010
0100
0010
1000
,  // measure 68
0001
0000
0010
0001
0000
1000
0100
0000
1000
0010
0000
0100
0001
1000
0001
0100
,  // measure 69
0010
0000
0100
0010
0000
0100
0010
0000
1000
0001
0000
1000
0020
0000
0000
0000
,  // measure 70
0130
0000
0001
1000
0000
0010
1000
0000
0001
0010
0000
0100
0010
0000
0001
0000
,  // measure 71
1000
0000
0100
0010
0000
0100
1000
0000
0001
0100
0000
0010
1000
0100
1000
0001
,  // measure 72
0100
0000
0010
1000
0000
0001
0100
0000
0001
0010
0000
0001
1000
0100
1000
0000
,  // measure 73
0110
0000
0000
1100
0000
0000
0101
0000
0000
0011
0000
0000
2002
0000
3003
0000
,  // measure 74
0010
0000
1000
0100
0000
1000
0010
0000
0100
0001
0000
0001
0100
0010
0100
0000
,  // measure 75
0001
0000
0010
0001
0000
1000
0010
0000
0100
0010
0000
0010
1000
0001
1000
0000
,  // measure 76
0100
0000
0010
0100
0001
0000
0100
0000
0001
0100
0000
0010
0100
0000
0001
0000
,  // measure 77
1000
0000
0100
1000
0000
0010
1000
0000
0001
1000
0000
0010
2000
0000
0000
0000
,  // measure 78
3001
0000
0010
0001
0000
1000
0100
0000
1000
0010
0000
0010
1000
0001
1000
0000
,  // measure 79
0010
0000
0100
0001
0000
1000
0100
0000
0010
0001
0000
0001
1000
0010
0100
0000
,  // measure 80
0001
0010
0001
0010
0100
1000
0100
1000
0010
0100
0010
0100
0001
1000
0001
1000
,  // measure 81
0010
0000
0010
0000
0010
0000
0100
0000
0001
1000
0100
0000
1000
0001
0100
0000
,  // measure 82
0110
0000
0000
0000
;
