#TITLE:STAR SHIP☆HERO;
#SUBTITLE:;
#ARTIST:Lucky Vacuum;
#TITLETRANSLIT:STAR SHIP HERO;
#SUBTITLETRANSLIT:;
#ARTISTTRANSLIT:;
#GENRE:HAPPY HARDCORE;
#CREDIT:;
#BANNER:STAR SHIP HERO_banner.png;
#BACKGROUND:STAR SHIP HERO.png;
#LYRICSPATH:;
#CDTITLE:;
#MUSIC:STAR SHIP HERO.ogg;
#OFFSET:-0.400000;
#SAMPLESTART:40.819000;
#SAMPLELENGTH:10.100000;
#LASTBEATHINT:339.124695;
#SELECTABLE:YES;
#DISPLAYBPM:190.000000;
#BPMS:0.000000=190.000000
,256.000000=380.000000
,257.000000=190.000000
;
#STOPS:256.000000=0.158000
;
#BGCHANGES:;
#KEYSOUNDS:;
#ATTACKS:;

//---------------dance-single - ----------------
#NOTES:
     dance-single:
     :
     Easy:
     7:
     0.271991,0.337229,0.035422,0.044278,0.000000,215.000000,211.000000,4.000000,5.000000,0.000000,0.000000,0.271991,0.337229,0.035422,0.044278,0.000000,215.000000,211.000000,4.000000,5.000000,0.000000,0.000000:
0000
0000
0000
0000
,
0000
0000
0000
0000
,
0000
0000
0000
0000
,
0000
0000
0000
0000
,
0000
0000
0000
0000
,
0000
0000
0000
0000
,
0000
0000
0000
0000
,
0000
0000
0000
0000
,
0001
0000
0001
0010
,
0100
0000
1000
0000
,
1000
0000
0010
0100
,
0001
0000
0001
0000
,
1000
0000
1000
0100
,
0010
0000
0001
0000
,
0001
0000
0010
0100
,
1000
0000
0001
0000
,
0100
0000
0010
0000
,
1000
0001
1000
0000
,
0010
0000
1000
0000
,
0001
0010
0100
0000
,
1000
0010
0100
0000
,
0001
0010
0100
0000
,
1000
0000
0001
0000
1000
0000
0000
0010
,
0000
0100
0000
0010
0000
0000
0100
0000
,
0000
0001
1000
0000
,
0010
1000
0010
0000
,
0100
0000
0001
0000
0100
0000
0000
0010
,
0000
1000
0000
0001
0000
0000
0100
0000
,
0001
0010
0100
0000
,
1000
0010
0100
0000
,
0001
0000
1000
0000
0100
0000
0000
0020
,
0000
0000
0000
0030
,
0001
0010
0001
0000
,
1000
0010
1000
0000
,
0001
0000
0100
0000
0010
0000
0000
0100
,
0000
0010
0000
1000
0000
0000
0001
0000
,
1000
0010
0100
0000
,
0001
0010
0100
0000
,
1000
0000
0010
0000
0100
0000
0000
0001
,
0000
1000
0000
0001
0000
0000
0100
0000
,
0010
1000
0001
0000
,
0010
0100
1000
0000
,
0001
0000
0100
0000
0010
0000
0000
1000
,
0000
0100
0000
0010
0000
0000
0001
0000
,
1000
0010
0100
0000
,
0001
1000
0010
0000
,
0100
0000
0010
0000
1000
0000
0000
0001
,
0000
1000
0000
0001
0000
0000
0100
0000
,
0220
0000
0000
0000
,
0330
0000
0000
0000
,
0001
0000
0001
0000
,
1000
0000
1000
0000
,
0010
0000
0010
0000
,
0100
0000
0100
0000
,
0001
0000
1000
0000
,
0010
0000
0100
0000
,
0001
0000
0001
0010
,
0100
0000
1000
0010
,
1000
0000
0100
0010
,
0001
0000
0100
0000
,
0010
0000
1000
0100
,
0010
0000
0001
0010
,
0200
0000
0000
0000
0300
0000
0000
0010
,
0000
0001
0000
1000
0000
0000
0010
0000
,
0000
0100
0000
0010
,
1000
0010
0100
0000
,
0001
0000
1000
0000
0010
0000
0000
0100
,
0000
0010
0000
1000
0000
0000
0001
0000
,
0010
0001
1000
0000
,
0010
0100
0001
0000
,
1000
0000
0010
0000
0100
0000
0000
0010
,
0000
1000
0000
0001
0000
0000
0100
0000
,
0010
1000
0010
0000
,
0100
0001
0100
0000
,
0001
0000
1000
0000
0010
0000
0000
0100
,
0000
0010
0000
0100
0000
0000
0000
0000
,
0001
0010
0001
0100
,
0010
0000
0110
0000
,
1000
0010
1000
0100
,
0010
0000
0110
0000
,
0001
1000
0010
0100
,
0001
0000
1001
0000
,
1000
0000
0000
0010
0000
0000
0100
0002
,
0000
0000
0000
0000
,
0000
0000
0000
0000
0000
0003
0000
0000
;

//---------------dance-single - ----------------
#NOTES:
     dance-single:
     :
     Medium:
     11:
     0.522475,0.561218,0.239099,0.053133,0.000000,413.000000,386.000000,27.000000,6.000000,0.000000,0.000000,0.522475,0.561218,0.239099,0.053133,0.000000,413.000000,386.000000,27.000000,6.000000,0.000000,0.000000:
0000
0000
0000
0000
,
0000
0000
0000
0000
,
0000
0000
0000
0000
,
0000
0000
0000
0000
,
0000
0000
0000
0000
,
0000
0000
0000
0000
,
0000
0000
0000
0000
,
0000
0000
0000
0000
,
0010
0000
1000
0000
0001
0100
0010
0000
,
0100
0001
0010
0001
,
1000
0000
0100
0000
1000
0010
0100
0000
,
0001
0000
1000
0000
0010
0100
0010
0000
,
1000
0000
0100
0000
1000
0001
0010
0000
,
0001
0100
0010
1000
,
0001
0000
0100
0000
0010
1000
0100
1000
,
0000
0010
0100
0010
0000
0100
0010
0000
,
1001
0000
0100
0000
0001
1000
0010
0100
,
0000
0010
1000
0001
,
0010
0000
0001
0000
1000
0100
0010
0001
,
0000
1000
0010
0100
0000
0001
1000
0000
,
0010
0000
0100
0000
0010
1000
0010
0000
,
0100
0000
0001
0000
0100
0010
0100
0000
,
0001
1000
0010
0000
0100
0001
0010
0001
,
0000
1000
0000
0001
0000
0100
0010
0000
,
0010
0000
1000
0100
1000
0000
0001
0000
,
0010
0001
0010
0000
0001
0000
1000
0000
,
0010
0100
0010
0000
1000
0000
0001
0100
,
0000
0010
0000
0110
0000
0001
1000
0000
,
0010
1000
0100
0000
1000
0001
0010
0000
,
0100
0010
0001
0000
1000
0010
0100
0000
,
0001
1000
0100
0000
1000
0001
1000
0200
,
0000
0000
0000
0310
,
0011
0000
0001
0000
1000
0100
0010
0100
,
1000
0000
0001
0000
0100
0010
0100
0000
,
0001
1000
0100
0000
1000
0010
0100
0001
,
0000
1000
0000
1001
0000
0010
0100
0000
,
1010
0000
1000
0000
0010
0100
0010
1000
,
0001
0000
0010
0000
0001
1000
0100
0000
,
1000
0001
0010
0000
0001
0100
0010
0100
,
0000
0110
0000
1001
0000
0100
0010
0000
,
1000
0010
0100
0000
0001
0010
0100
1000
,
0010
0000
0100
0000
0001
1000
0010
0000
,
0100
0010
0100
0000
0001
1000
0010
0100
,
0000
1001
0000
0010
0000
1000
0100
0000
,
1000
0001
0010
0000
0001
1000
0010
0100
,
0010
0000
1000
0000
0010
0100
0001
0000
,
0010
0001
1000
0000
0010
1000
0100
1000
,
0000
1001
0000
0001
0000
0100
0010
0000
,
0210
0000
0001
0300
,
0002
0000
1000
0003
,
2000
0000
0010
3000
,
0002
0000
0100
0003
,
0100
0000
0010
0000
1000
0100
1000
0000
,
0010
0000
0100
0000
0001
0010
0001
0000
,
1000
0000
0010
0000
0100
0001
0010
0000
,
0001
0000
1001
0000
1000
0010
0100
0001
,
0010
0000
0001
0000
1000
0010
0100
0010
,
1000
0001
0010
0011
,
0001
0000
0100
0000
0010
0100
0001
0100
,
0010
0000
1000
0100
1000
0000
0001
0000
,
0100
0010
0100
0000
0001
0010
0001
0000
,
1000
0100
1000
0000
0001
1000
0001
0000
,
0100
0010
0100
0010
0100
0010
1000
0001
,
0000
1001
0000
0110
0000
0010
0100
0000
,
0000
0000
0001
0100
0010
0000
1000
0000
,
0100
1000
0010
0000
0100
0000
0001
0000
,
1000
0000
0010
0100
0010
0000
1000
0001
,
0000
1001
0000
0110
0000
0010
1000
0000
,
0001
0100
0010
0000
1000
0010
0100
0010
,
1000
0000
0001
0010
0001
0000
0100
0000
,
0010
1000
0010
0000
0100
0001
0100
0010
,
0000
0110
0000
0100
0000
0001
1000
0000
,
0010
1000
0100
0000
1000
0001
0010
0001
,
0100
0000
0001
0000
0100
0010
1000
0000
,
0001
0100
0010
0000
1000
0100
0010
0100
,
0000
1100
0000
0101
0000
0010
0100
0000
,
0001
0000
1001
0000
1000
0010
0100
0001
,
0100
0010
0000
0010
1000
0000
1001
0000
,
0010
0000
0110
0000
0100
0001
1000
0010
,
0100
0001
0000
0001
0010
0100
1000
0000
,
0010
0000
0110
0000
0100
0010
0100
0001
,
0000
1001
0000
0100
0010
0000
0110
0000
,
1010
0000
0000
0101
0000
0000
0010
0200
,
0000
0000
0000
0000
,
0000
0000
0300
0000
;

//---------------dance-single - ----------------
#NOTES:
     dance-single:
     :
     Hard:
     15:
     0.779285,0.897949,0.451631,0.141688,0.274521,616.000000,565.000000,51.000000,16.000000,0.000000,0.000000,0.779285,0.897949,0.451631,0.141688,0.274521,616.000000,565.000000,51.000000,16.000000,0.000000,0.000000:
// measure 0
0000
0000
0000
0000
,  // measure 1
0000
0000
0000
0000
,  // measure 2
0000
0000
0000
0000
,  // measure 3
0000
0000
0000
0000
,  // measure 4
0000
0000
0000
0000
,  // measure 5
0000
0000
0000
0000
,  // measure 6
0000
0000
0000
0000
,  // measure 7
0000
0000
0000
0000
,  // measure 8
1010
0000
0101
0000
0010
0001
0100
1000
,  // measure 9
0100
0001
0010
0100
1000
0100
1100
0000
,  // measure 10
0011
0000
0101
0000
1000
0010
0100
0010
,  // measure 11
0001
1000
0100
0010
1000
0001
1001
0000
,  // measure 12
0011
0000
1100
1000
0100
0001
0100
0010
,  // measure 13
0001
0100
1000
0100
0010
1000
0100
0001
,  // measure 14
0100
0010
0100
1000
0001
0100
0010
0100
,  // measure 15
0001
1000
0100
0010
0001
0010
0110
0000
,  // measure 16
1000
0000
0010
0000
1000
0000
0010
0100
0010
0100
0010
0000
0200
0000
0000
0000
,  // measure 17
0301
0000
0010
0000
0001
0000
0100
0010
0100
0010
0100
0000
0020
0000
0000
0000
,  // measure 18
1030
0000
0100
0000
1000
0000
0001
1000
0001
1000
0001
0000
0200
0000
0000
0000
,  // measure 19
0310
0000
1000
0000
0010
0000
0100
0001
0000
1000
0010
0000
0100
0000
0001
0000
,  // measure 20
1000
0000
0100
0000
0001
0000
0100
1000
0100
1000
0100
0000
1000
0000
0010
0000
,  // measure 21
0100
0000
0001
0000
0100
0000
0001
0010
0001
0010
0001
0000
1000
0000
0100
0000
,  // measure 22
1000
0001
1000
0000
0010
0100
0010
0000
1000
0010
1000
0000
0001
0000
0101
0000
,  // measure 23
0000
1010
0000
1100
0000
1001
1001
0000
,  // measure 24
0020
0000
0000
0000
0130
0001
0100
0000
0010
0000
1000
0000
0100
0000
1000
0000
,  // measure 25
0010
0000
0100
0000
0010
1000
0010
0000
0100
0000
0001
0000
0010
0000
0001
0000
,  // measure 26
1000
0000
0010
0000
0100
0001
0100
0000
0010
0000
1000
0000
0100
0000
1000
0000
,  // measure 27
0000
0011
0000
1100
0000
0110
0110
0000
,  // measure 28
0001
0000
0100
0000
0010
0100
0010
0000
1000
0000
0010
0000
0100
0000
0001
0000
,  // measure 29
1000
0000
0010
0000
0100
0010
0100
0000
0001
0000
1000
0000
0010
0000
0100
0000
,  // measure 30
0010
0000
1000
0000
0100
0010
0100
0000
1000
0000
1000
0000
1000
0000
0002
0000
,  // measure 31
0000
0000
0000
0000
0103
0010
0110
0000
,  // measure 32
1010
0000
0000
0010
0100
0000
0001
0000
1000
0000
0100
0000
0010
0000
0100
0000
,  // measure 33
1000
0010
0100
0001
1000
0010
0001
0010
,  // measure 34
0100
0000
0000
0100
0001
0000
0010
0000
0001
0000
1000
0000
0100
0000
0010
0000
,  // measure 35
0000
1100
0000
0011
0000
0010
0110
0000
,  // measure 36
1100
0000
0000
1000
0001
0000
0100
0000
0010
0000
1000
0000
0100
0000
0001
0000
,  // measure 37
0100
0010
0001
1000
0010
0001
1000
0100
,  // measure 38
0010
0000
0000
0010
1000
0000
0001
0000
0100
0000
0010
0000
1000
0000
0100
0000
,  // measure 39
0000
0110
0000
1001
0000
0100
0010
1000
,  // measure 40
0010
0000
0000
0010
0100
0000
0001
0000
0010
0000
0100
0000
1000
0000
0010
0000
,  // measure 41
0100
0010
1000
0100
0001
0100
1000
0010
,  // measure 42
0100
0000
0000
0100
0010
0000
1000
0000
0010
0000
0001
0000
0010
0000
0100
0000
,  // measure 43
0000
1010
0000
0101
0000
0010
0110
0000
,  // measure 44
1000
0000
0000
1000
0001
0000
0010
0000
0001
0000
1000
0000
0010
0000
0100
0000
,  // measure 45
0001
0010
1000
0010
0001
0100
1000
0100
,  // measure 46
0010
0000
0000
0100
0010
0000
0100
0000
0001
0000
1000
0000
0001
0000
0010
0000
,  // measure 47
0000
0000
0010
0000
0001
0000
0100
0000
0010
1000
0001
0100
0020
0000
0000
0000
,  // measure 48
1030
0000
0100
0000
1000
0000
0001
0010
0001
0010
0001
0000
0200
0000
0000
0000
,  // measure 49
0310
0000
1000
0000
0100
0000
1000
0010
1000
0010
1000
0000
0002
0000
0000
0000
,  // measure 50
0103
0000
0010
0000
0100
0000
0001
1000
0001
1000
0001
0000
0020
0000
0000
0000
,  // measure 51
0130
0000
1000
0000
0001
0000
0100
0010
0100
0010
0100
0000
0001
0000
1000
0000
,  // measure 52
0010
0000
1000
0000
0001
0000
0100
0010
0100
0010
0100
0000
0002
0000
0000
0000
,  // measure 53
1003
0000
0100
0000
0010
0000
0001
1000
0001
1000
0001
0000
0200
0000
0000
0000
,  // measure 54
0301
0000
0010
0000
0100
0000
1000
0010
1000
0010
1000
0000
0200
0000
0000
0000
,  // measure 55
0310
0000
1000
0000
0001
0000
0100
0000
0001
0010
0100
1000
0001
0010
0100
1000
,  // measure 56
0001
0000
0101
0000
0010
1000
0100
0001
,  // measure 57
0100
1100
0010
0110
,  // measure 58
1020
0000
0130
0000
0010
1000
0100
0001
,  // measure 59
0100
1000
0010
0100
0010
0001
0020
0000
,  // measure 60
1030
0100
1000
0100
0010
0001
0010
0001
,  // measure 61
1000
0010
1000
0010
0100
0001
0100
0001
,  // measure 62
1000
0001
1000
0001
1000
0001
1000
0001
0100
0010
0100
0010
0100
0010
0100
0000
,  // measure 63
0000
0110
0000
1001
0000
0100
0110
0000
,  // measure 64
0000
0000
0000
0000
0010
1000
0010
0000
0100
0000
0001
0000
0010
0000
1000
0000
,  // measure 65
0010
0001
0100
0001
0100
1000
0100
0000
,  // measure 66
0010
0000
0000
0010
1000
0000
0100
0000
0010
0000
0001
0000
0100
0000
0010
0000
,  // measure 67
0000
1010
0000
0011
0000
0100
0110
0000
,  // measure 68
0001
0000
0000
0001
1000
0000
0010
0000
0100
0000
0001
0000
0010
0000
0100
0000
,  // measure 69
0010
0001
1000
0100
0001
0010
0001
0100
,  // measure 70
1000
0000
0000
1000
0010
0000
0100
0000
0001
0000
0100
0000
0010
0000
1000
0000
,  // measure 71
0000
0101
0000
0011
0000
1000
0010
0100
,  // measure 72
0010
0000
0000
0010
1000
0000
0100
0000
1000
0000
0010
0000
0100
0000
0010
0000
,  // measure 73
1000
0100
0001
0100
1000
0100
0001
0100
,  // measure 74
0010
0000
0000
0010
0001
0000
0010
0000
0001
0000
0100
0000
1000
0000
0100
0000
,  // measure 75
0000
0110
0000
1001
0000
0010
1000
0100
,  // measure 76
0010
0000
1100
0000
0001
0010
0001
1000
,  // measure 77
0100
0001
0010
0001
0100
1000
0100
0000
,  // measure 78
1010
0000
0011
0000
1000
0100
1000
0001
,  // measure 79
0010
1000
0100
1000
0010
0001
0010
0000
,  // measure 80
1001
0000
0110
0000
0001
1000
0100
0010
,  // measure 81
0100
0001
0100
0010
1000
0001
1000
0000
,  // measure 82
0110
0000
0000
1010
0000
0000
0010
0202
,  // measure 83
0000
0000
0000
0000
,  // measure 84
0000
0000
0303
0000
;
