#TITLE:SOLAR ECLIPSE;
#SUBTITLE:;
#ARTIST:Yuta Imai Vs. BEMANI Sound Team "Yvya";
#TITLETRANSLIT:;
#SUBTITLETRANSLIT:;
#ARTISTTRANSLIT:Yuta Imai Vs. Yvya;
#GENRE:CROSSOVER;
#CREDIT:;
#BANNER:SOLAR ECLIPSE_banner.png;
#BACKGROUND:SOLAR ECLIPSE_bg.png;
#LYRICSPATH:;
#CDTITLE:;
#MUSIC:SOLAR ECLIPSE.ogg;
#OFFSET:-0.380000;
#SAMPLESTART:77.910004;
#SAMPLELENGTH:12.000000;
#SELECTABLE:YES;
#BPMS:0.000000=195.000000
;
#STOPS:
;
#BGCHANGES:;
#KEYSOUNDS:;
#ATTACKS:;

//---------------dance-single - ----------------
#NOTES:
     dance-single:
     :
     Easy:
     8:
     0.332948,0.395302,0.205887,0.222358,0.000000,283.000000,258.000000,25.000000,27.000000,0.000000,0.000000,0.332948,0.395302,0.205887,0.222358,0.000000,283.000000,258.000000,25.000000,27.000000,0.000000,0.000000:
// measure 0
0000
0000
0000
0000
,  // measure 1
0000
0000
0000
0000
,  // measure 2
0000
0000
0000
0000
,  // measure 3
0000
0000
0000
0000
,  // measure 4
0000
0000
0000
0000
,  // measure 5
1000
0000
0010
0100
,  // measure 6
0010
0000
1000
0100
,  // measure 7
1000
0000
0000
0001
0000
0000
1000
0000
,  // measure 8
0010
0100
0001
0010
,  // measure 9
1001
0000
0010
0000
,  // measure 10
1001
0000
0100
0000
,  // measure 11
1001
0000
0100
0000
,  // measure 12
0010
0100
0010
0000
,  // measure 13
1000
0001
0010
0100
,  // measure 14
1000
0001
0010
0100
,  // measure 15
1000
0010
0100
0001
,  // measure 16
2002
0000
3003
0000
,  // measure 17
0000
0000
0000
0000
,  // measure 18
0000
0000
0000
0000
,  // measure 19
0100
0010
0100
0010
,  // measure 20
1000
0100
1000
0010
,  // measure 21
0200
0301
0010
0001
,  // measure 22
0010
0001
1000
2002
,  // measure 23
3003
0100
0010
0100
,  // measure 24
0001
0010
0100
2000
,  // measure 25
3002
0103
0010
0100
,  // measure 26
0001
1000
2002
3003
,  // measure 27
0110
0000
1010
0000
,  // measure 28
0110
0000
0101
0000
,  // measure 29
0001
0010
0100
1000
,  // measure 30
2002
0000
3003
0000
,  // measure 31
0000
0100
0010
0100
,  // measure 32
0001
0010
0001
0100
,  // measure 33
0010
1000
0010
0100
,  // measure 34
0001
0010
0022
0033
,  // measure 35
0000
1010
0100
0010
,  // measure 36
1000
0100
0020
0000
,  // measure 37
0031
0100
0010
1000
,  // measure 38
0002
0000
0000
0003
,  // measure 39
1000
0010
1000
0100
,  // measure 40
0000
0100
1000
0000
,  // measure 41
1000
0100
0010
0100
,  // measure 42
1000
0010
0010
0000
,  // measure 43
1000
0001
0010
0100
,  // measure 44
1000
0001
1001
0000
,  // measure 45
0001
0010
0100
0010
,  // measure 46
0001
0100
0010
0100
,  // measure 47
0001
0000
0000
0000
,  // measure 48
0000
0000
0000
0000
,  // measure 49
1000
0000
0000
0000
,  // measure 50
0001
0000
0000
0000
,  // measure 51
0200
0000
0010
0000
,  // measure 52
0000
0000
0310
0000
,  // measure 53
0020
0000
1000
0000
,  // measure 54
0000
0000
1030
0000
,  // measure 55
0001
0000
0001
0010
,  // measure 56
0001
0000
0001
0000
,  // measure 57
1000
0000
1000
0100
,  // measure 58
1000
0000
1100
0000
,  // measure 59
0001
0010
0100
0010
,  // measure 60
0001
1000
0010
0000
,  // measure 61
0010
0100
0001
1000
,  // measure 62
0220
0000
0000
0000
0000
0330
0000
0000
,  // measure 63
0001
0100
0010
0100
,  // measure 64
0001
0010
0100
0000
,  // measure 65
0100
1000
0010
0100
,  // measure 66
0010
1000
1001
0000
,  // measure 67
0001
0100
0010
1000
,  // measure 68
0100
0010
0001
0000
,  // measure 69
0100
0001
0010
0100
,  // measure 70
1000
0001
2000
0000
,  // measure 71
3010
0100
0010
1000
,  // measure 72
0100
0010
0001
0000
,  // measure 73
0100
0001
0010
0001
,  // measure 74
1000
0010
1000
0000
,  // measure 75
1001
0000
0010
0000
,  // measure 76
1001
0000
0100
0000
,  // measure 77
0010
0100
0001
1000
,  // measure 78
2002
0000
0000
0000
0000
3003
0000
0000
,  // measure 79
0001
0100
0010
0100
,  // measure 80
0001
0010
0100
0000
,  // measure 81
1000
0010
0100
0010
,  // measure 82
1000
0100
0010
0000
,  // measure 83
0001
0100
1000
0100
,  // measure 84
0001
1000
0100
0000
,  // measure 85
1000
0100
0001
0100
,  // measure 86
1000
0001
0100
0020
,  // measure 87
0000
0000
0030
0000
,  // measure 88
0010
0100
0001
0010
,  // measure 89
0001
1000
0100
1000
,  // measure 90
0010
0000
0110
0000
,  // measure 91
1010
0000
0001
0000
,  // measure 92
0011
0000
0100
0000
,  // measure 93
0001
0010
0100
1000
,  // measure 94
0220
0000
0000
0000
0000
0330
0000
0000
,  // measure 95
2002
0000
0000
0000
,  // measure 96
3003
0000
0000
0000
;

//---------------dance-single - ----------------
#NOTES:
     dance-single:
     :
     Medium:
     13:
     0.614131,0.678577,0.263535,0.288241,0.028824,522.000000,490.000000,32.000000,35.000000,0.000000,0.000000,0.614131,0.678577,0.263535,0.288241,0.028824,522.000000,490.000000,32.000000,35.000000,0.000000,0.000000:
// measure 0
0000
0000
0000
0000
,  // measure 1
0000
0000
0000
0000
,  // measure 2
0000
0000
0000
0000
,  // measure 3
0000
0000
0000
0000
,  // measure 4
0000
0000
0000
0000
,  // measure 5
1000
0010
0100
0010
1000
0000
0001
0010
,  // measure 6
0100
0010
0001
0000
0001
0010
0100
1000
,  // measure 7
0010
0100
0001
0100
0010
0000
1000
0100
,  // measure 8
0010
0100
1000
0000
0001
1000
0100
0010
,  // measure 9
0001
0000
1000
0010
0100
0000
1010
0000
,  // measure 10
0001
0010
0100
0010
0001
0000
0101
0000
,  // measure 11
0010
0100
1000
0100
0010
0000
0110
0000
,  // measure 12
0100
0001
0010
0001
0200
0000
0000
0000
,  // measure 13
0301
0010
0100
1000
0001
0100
0010
1000
,  // measure 14
0100
0010
0001
0100
0010
1000
0001
0000
,  // measure 15
1000
0100
0010
0001
0100
0010
0100
0001
,  // measure 16
0020
0000
0000
0030
,  // measure 17
0001
0000
0000
1000
0000
0000
0001
0000
,  // measure 18
0000
1000
0000
0000
0010
0000
0110
0000
,  // measure 19
1001
0100
1001
0010
,  // measure 20
1001
0000
0100
0000
0110
0000
0010
0100
,  // measure 21
0001
0010
0001
0000
1100
0000
1010
0000
,  // measure 22
0100
0001
0010
0001
0200
0000
0320
0000
,  // measure 23
1030
0000
0101
0000
0010
0100
0001
0010
,  // measure 24
0100
0000
0000
1000
0100
0000
0000
0000
1000
0000
0010
0000
0200
0000
0000
0000
,  // measure 25
0301
0000
1001
1000
0001
0000
1001
0000
,  // measure 26
0110
0000
0000
0000
0000
0000
0100
0000
0000
0001
0000
0000
0010
0000
0100
0000
0010
0000
0001
0000
0000
0000
0000
0000
,  // measure 27
2002
3003
0220
0330
,  // measure 28
2020
3030
0022
0033
,  // measure 29
1000
0001
0010
0100
1000
0010
0100
0001
,  // measure 30
2000
0000
0000
3000
,  // measure 31
0000
0000
0011
0000
0001
0100
0001
0010
,  // measure 32
0100
1000
0010
0100
0010
1000
0001
0000
,  // measure 33
1000
0010
0100
0010
1000
0100
0010
0001
,  // measure 34
0100
0000
0010
0100
0001
0000
1001
0000
,  // measure 35
0000
0000
1010
0000
0100
0010
1000
0001
,  // measure 36
0010
0100
1000
0001
0200
0000
0300
0000
,  // measure 37
0100
0010
1000
0001
1000
0100
0010
0001
,  // measure 38
0200
0000
0000
0300
,  // measure 39
0001
0010
0100
0010
0001
0000
1000
0010
,  // measure 40
0000
0100
0010
1000
0100
0000
0000
0000
,  // measure 41
1000
0010
0100
0010
1000
0000
0010
0100
,  // measure 42
0000
0001
0010
0100
0010
0000
0000
0000
,  // measure 43
0001
0000
1000
0000
0001
0000
1000
0000
0001
0000
1000
0000
0001
0000
0000
0000
0000
0000
0100
0000
0000
0010
0000
0000
,  // measure 44
0000
1000
0001
0100
0010
0000
0000
0000
,  // measure 45
1000
0010
0100
0001
1000
0100
0010
0001
,  // measure 46
0100
0001
0010
0100
0010
0001
1000
0010
,  // measure 47
0200
0000
0000
0000
,  // measure 48
0000
0000
0000
0000
,  // measure 49
0320
0000
1000
0000
,  // measure 50
0230
0000
0001
0000
,  // measure 51
0302
0000
0010
0000
,  // measure 52
0023
0000
0100
0000
,  // measure 53
0230
0000
1000
0000
,  // measure 54
2300
0000
3001
0000
,  // measure 55
1001
0000
1000
0100
0010
0100
1000
0000
,  // measure 56
0010
0000
0100
0010
0100
0000
0001
0000
,  // measure 57
0010
0000
0001
0000
0010
0100
1000
0000
,  // measure 58
0001
0100
1000
0100
0001
0000
1000
0000
,  // measure 59
0001
0010
0100
0010
0001
1000
0010
0100
,  // measure 60
0010
1000
0100
0010
0100
1000
0001
0000
,  // measure 61
1000
0001
0010
0100
1000
0001
0010
0100
,  // measure 62
2000
0000
0000
3000
,  // measure 63
1001
0000
0010
0100
0001
0010
0001
0000
,  // measure 64
0110
0000
1000
0010
0100
0010
1000
0000
,  // measure 65
0001
0100
1000
0000
1000
0100
0001
0010
,  // measure 66
0001
1000
0100
1000
0010
0000
0110
0000
,  // measure 67
2000
0000
3010
0100
0010
1000
0100
0000
,  // measure 68
0010
0100
1000
0100
0020
0000
0031
0000
,  // measure 69
0001
0100
0010
0000
1000
0010
0100
0001
,  // measure 70
0020
0230
0020
0330
,  // measure 71
0001
1000
0100
1000
0010
0100
0001
0000
,  // measure 72
1001
0000
0010
0100
0001
0010
0100
0000
,  // measure 73
1000
0010
0001
0000
0001
0010
1000
0001
,  // measure 74
1000
0100
0010
0001
0100
0000
0110
0000
,  // measure 75
1010
0000
0100
0000
0001
0010
0100
0000
,  // measure 76
0011
0000
0001
1000
0010
0100
0001
0000
,  // measure 77
1000
0001
0010
0100
0010
0001
1000
0010
,  // measure 78
0200
0000
0000
0300
,  // measure 79
0001
0010
0100
0010
0001
1000
0010
0000
,  // measure 80
0100
0010
1000
0001
0010
0100
1000
0000
,  // measure 81
0010
1000
0100
1000
0010
0100
0010
0000
,  // measure 82
1000
0001
0010
0001
0100
0001
0010
0000
,  // measure 83
0001
0100
1000
0100
0010
0100
0001
0100
,  // measure 84
1000
0100
0010
0100
0001
0000
1000
0000
,  // measure 85
1000
0100
0010
0100
1000
0010
0100
0010
,  // measure 86
1000
0001
0010
0001
0100
0010
0200
0000
,  // measure 87
0001
1000
0001
1300
,  // measure 88
0110
0000
1000
0010
0100
0001
0010
0000
,  // measure 89
0001
0100
0010
0100
0001
0010
0100
0000
,  // measure 90
1000
0010
0100
0010
1000
0001
0010
0000
,  // measure 91
0001
0010
0100
0010
0001
0010
1000
0010
,  // measure 92
0001
0010
0100
0010
0001
1000
0010
0000
,  // measure 93
0010
0100
0010
1000
0001
1000
0100
0010
,  // measure 94
2002
0000
0000
3003
,  // measure 95
0220
0000
0000
0000
,  // measure 96
0000
0000
0000
0000
0000
0000
0000
0000
0000
0000
0000
0000
0000
0000
0000
0330
;

//---------------dance-single - ----------------
#NOTES:
     dance-single:
     :
     Hard:
     18:
     1.016492,1.117656,0.667073,0.255300,0.790605,864.000000,783.000000,81.000000,31.000000,0.000000,0.000000,1.016492,1.117656,0.667073,0.255300,0.790605,864.000000,783.000000,81.000000,31.000000,0.000000,0.000000:
// measure 0
0000
0000
0000
0000
,  // measure 1
0000
0000
0000
0000
,  // measure 2
0000
0000
0000
0000
,  // measure 3
1000
0100
0001
1000
0010
0001
1000
0100
,  // measure 4
0001
0100
1000
0100
0001
0000
1000
0100
0001
0100
1000
0000
0002
0000
0000
0000
,  // measure 5
1003
0010
1000
0000
0001
0000
0100
0010
0100
0000
0001
0000
1000
0001
1000
0000
,  // measure 6
0010
0000
0100
0001
0010
0000
0001
0000
1001
0000
0000
0000
0110
0000
0000
0000
,  // measure 7
0001
0010
0001
0000
1000
0000
0010
0100
0010
0000
1000
0000
0100
0010
0100
0000
,  // measure 8
1000
0000
0010
0100
0001
0000
0010
0000
0110
0000
0010
0000
0110
0000
0000
0000
,  // measure 9
1100
0000
0010
0001
1001
0000
0110
0000
,  // measure 10
1001
0001
0011
0010
0110
0000
1100
0000
,  // measure 11
1010
0000
0100
0010
1001
0000
1100
0001
,  // measure 12
0010
0001
0010
0001
0100
0010
0100
0010
1000
0100
0010
0001
0100
0000
0000
0000
,  // measure 13
1001
1000
1000
1000
1010
0010
0010
0010
,  // measure 14
0100
0001
0100
0000
0001
0010
0001
0000
1000
0010
0100
0001
0010
0000
0000
0000
,  // measure 15
0001
0100
0010
1000
0001
0010
0100
1000
0010
0100
0010
1000
0100
0010
0001
0100
,  // measure 16
0010
0010
0010
0010
0010
0010
0020
0000
,  // measure 17
1030
0100
0001
1000
0010
0001
1000
0001
,  // measure 18
0100
1000
0010
0001
0010
1000
1001
0000
,  // measure 19
0220
0330
1010
0000
0011
0000
1001
0000
,  // measure 20
1100
1001
0101
0110
,  // measure 21
0001
1000
0001
1000
0001
0000
1000
0000
1100
0000
0000
0000
1010
0000
0000
0000
,  // measure 22
0001
0010
0001
0000
1001
0000
0000
0000
1100
0000
0000
0000
0001
0100
0010
0000
,  // measure 23
1000
0010
0100
0000
0101
0000
0000
0000
0011
0000
0000
0000
1100
0000
0000
0000
,  // measure 24
1000
0010
0000
0010
1000
0000
0000
0000
0110
0000
0000
0000
0101
0000
0000
0000
,  // measure 25
0022
0000
0033
0000
1001
0000
1000
0001
1000
0000
0000
0000
0110
0000
0000
0000
,  // measure 26
1010
0000
0000
0101
0000
0000
0001
0010
0100
1000
0000
0000
,  // measure 27
2002
0003
3100
0010
2002
3000
0013
0100
,  // measure 28
2002
0000
0003
0000
3010
0000
0100
0000
2002
0000
3003
0000
0100
0010
0100
0000
,  // measure 29
0001
0010
0001
0000
1000
0010
1000
0000
0001
0100
0010
1000
0100
0010
0001
0100
,  // measure 30
0020
0000
0000
0000
0000
0030
0110
0000
,  // measure 31
1000
0000
1000
0000
0010
0100
0001
0000
0010
0100
0010
0001
0010
0001
0000
0001
,  // measure 32
1000
0100
0000
0100
1000
0000
0010
0100
0010
1000
0000
1000
0010
0000
0100
0000
,  // measure 33
0001
0010
0100
1000
0010
0000
0100
0010
1000
0001
1000
0001
1000
0000
0010
0100
,  // measure 34
0001
0000
0010
0001
1000
0000
0010
1000
0002
0000
0100
0000
0100
0000
0103
0000
,  // measure 35
0010
0000
0000
0000
1000
0000
0000
0000
0100
0000
0000
0000
0010
0000
0000
0000
0000
0000
0100
0000
0000
1000
0000
0000
0010
0000
0000
0000
0000
0000
0100
0000
0000
0001
0000
0000
0010
0000
0000
0000
0000
0000
0001
0000
0000
0100
0000
0000
,  // measure 36
0001
1000
0000
1000
0010
0000
0100
0010
1000
0100
0010
0000
0100
0000
1000
0100
,  // measure 37
0010
0000
0001
0000
0100
0000
0010
0000
1000
0010
0100
0001
0010
0100
1000
0100
,  // measure 38
0020
0000
0001
0001
0031
0010
1010
0000
,  // measure 39
0001
0100
0001
0100
0001
0000
0000
0000
1010
0000
0000
0000
0100
0000
0110
0000
,  // measure 40
0000
0000
0010
1000
0100
0000
1000
0010
0100
0000
0000
0000
0001
0010
0100
1000
,  // measure 41
0010
0000
1000
0000
0100
0010
0001
0000
1000
0000
0010
0100
0010
0000
0010
1000
,  // measure 42
0001
0000
0010
0100
1000
0000
0010
0100
0001
0000
0010
0000
1000
0000
0010
0000
,  // measure 43
0001
0000
0000
0000
1000
0000
0000
0000
0100
0000
0000
0000
0010
0000
0000
0000
0001
0000
0000
0000
0100
0000
0000
0000
0010
0000
0000
0000
0000
0000
0000
0000
0000
0000
0000
0000
0100
0000
0000
0010
0000
0000
1000
0000
0000
0000
0000
0000
,  // measure 44
0000
0000
0000
0000
0000
0000
0001
0000
0000
0100
0000
0000
0010
0000
0000
0000
0000
0000
0100
0000
0000
0010
0000
0000
1000
0000
0000
0000
0100
0000
0000
0000
0010
0000
0000
0000
0001
0000
0000
0000
0010
0000
0000
0000
0100
0000
0000
0000
,  // measure 45
1000
0010
1000
0000
0001
0010
0001
0000
1000
0100
1000
0000
0001
0100
0001
0000
,  // measure 46
1000
0100
0010
0100
1000
0000
0001
0000
0100
0010
1000
0010
0100
0000
0001
0000
,  // measure 47
2002
0000
0000
0000
,  // measure 48
0000
0000
3003
0000
,  // measure 49
0011
0000
0100
0001
1000
0010
0001
0000
,  // measure 50
0020
0000
1030
0001
0011
0000
0000
0000
,  // measure 51
1100
0000
0001
0010
0100
0000
0010
0001
,  // measure 52
0000
0100
0010
0100
0001
0000
0000
0000
,  // measure 53
1001
0000
0010
1000
0100
0000
0010
0100
,  // measure 54
0000
0100
1000
0001
0101
0000
0000
0000
,  // measure 55
1000
0010
1000
0010
1000
0000
0001
0100
0001
0100
0001
0000
0020
0000
0000
0000
,  // measure 56
0031
0100
0001
0100
0001
0000
1000
0010
1000
0010
1000
0000
0200
0000
0000
0000
,  // measure 57
1300
0010
0100
0010
1000
0000
0001
0010
0100
0010
0001
0000
0100
0000
0010
0000
,  // measure 58
1000
0100
0010
0000
0001
0100
0010
0000
1000
0010
0100
0000
0001
0010
0100
0010
,  // measure 59
0001
1000
0001
1000
0010
0100
0010
0100
,  // measure 60
0001
0010
0100
1000
0001
0010
0100
1000
,  // measure 61
0010
0100
0010
0100
0001
0010
0001
0010
0100
1000
0100
1000
0001
0100
0010
1000
,  // measure 62
0200
0000
0000
0000
0000
0300
0110
0000
,  // measure 63
0011
0000
0000
0000
1000
0000
0010
0100
0010
0000
1000
0000
0001
0000
0000
0000
,  // measure 64
0011
0000
0000
0000
0010
0000
0100
0010
0001
0000
0001
0000
1000
0010
0100
0000
,  // measure 65
0010
1000
1100
0000
1001
0001
0010
0100
,  // measure 66
1001
0000
0010
0000
1001
0000
0100
0010
0100
0000
0001
0000
1001
0000
0000
0000
,  // measure 67
1010
0000
0000
0000
0100
0000
0010
1000
0100
0000
0010
0000
0110
0000
0000
0000
,  // measure 68
0011
0010
0100
1000
1100
0000
0010
0100
,  // measure 69
0010
1000
0100
0010
0001
0000
0100
0000
0001
0010
0100
0010
0001
0000
1000
0000
,  // measure 70
0020
0001
1000
0031
,  // measure 71
0110
0100
0110
0001
0010
0001
1001
0000
,  // measure 72
1010
0000
0000
0000
0110
0000
0010
0000
0010
0000
0010
0000
0110
0000
1000
0100
,  // measure 73
0010
0000
0001
0000
0101
0000
0000
0000
1010
0000
1000
0000
0001
0010
0001
0000
,  // measure 74
1001
0000
0000
0000
0000
0000
0100
0000
0000
0010
0000
0000
1000
0000
0000
0000
0000
0000
0010
0000
0000
0000
0000
0000
1000
0000
0000
0100
0000
0000
0010
0000
0000
0001
0000
0000
0100
0000
0000
0000
0010
0000
0000
0000
0100
0000
0000
0000
,  // measure 75
0002
0000
0013
0100
0010
0100
1000
0000
,  // measure 76
1010
0000
0000
0000
0010
0000
0100
0010
0100
0000
0001
0000
0011
0000
0000
0000
,  // measure 77
0100
0000
1000
0000
0010
0100
0010
0100
0010
0000
1000
0001
1000
0100
0010
0001
,  // measure 78
0200
0000
0000
0000
0000
0000
0000
0000
0000
0000
0000
0000
0310
0000
0100
0010
,  // measure 79
1000
0000
0100
0000
0010
0000
0100
0000
1000
0000
0010
0100
0001
0000
0010
0000
,  // measure 80
0001
0000
0100
0000
0010
0000
0100
0001
0010
0000
0100
0000
1000
0010
0100
0010
,  // measure 81
1000
0000
0001
0000
0010
0000
1000
0000
0010
0000
0001
0000
1000
0000
0100
0001
,  // measure 82
0100
1000
0010
0100
0001
0001
0001
0001
,  // measure 83
1000
0010
0100
0010
1000
0000
0001
0010
0100
0010
0001
0000
1000
0000
0010
0000
,  // measure 84
1000
0000
0100
0000
0010
0000
0001
0100
0001
0000
1000
0000
1100
0000
0000
0000
,  // measure 85
0010
0000
0100
0000
0010
0000
0100
0000
0001
0010
0100
1000
0001
1000
0100
0010
,  // measure 86
0001
0000
1000
0010
1000
0000
0001
0010
0001
0000
0100
0010
0002
0000
0000
0000
,  // measure 87
1000
0000
1000
0000
1000
0000
0000
0000
0010
0000
0010
0000
0013
0100
0010
0100
,  // measure 88
0010
0000
1000
0000
0100
0000
0010
0100
1000
0000
0010
0000
0100
0001
0010
0001
,  // measure 89
0100
0000
0001
0000
0010
0000
1000
0000
0001
0000
0100
0000
1000
0010
0000
0010
,  // measure 90
1000
0000
0100
0000
0010
0000
0001
0100
0010
0000
1000
0000
1001
0000
0000
0000
,  // measure 91
0011
0000
0010
0001
0010
0000
0001
1000
0001
1000
0001
0000
1000
0000
0010
0100
,  // measure 92
0010
0000
1000
0000
0100
0010
0100
1000
0100
0000
0010
0000
0001
0000
0100
0000
,  // measure 93
0010
1000
0001
1000
0010
0000
0100
0001
0010
0100
0010
0000
0001
0000
1000
0000
,  // measure 94
2200
0000
0000
3300
,  // measure 95
0022
0000
0000
0000
,  // measure 96
0000
0000
0000
0000
0000
0000
0000
0000
0000
0000
0000
0000
0000
0000
0000
0033
;
