#TITLE:SEITEN NO TERIYAKI;
#SUBTITLE:;
#ARTIST:Kobaryo;
#TITLETRANSLIT:;
#SUBTITLETRANSLIT:;
#ARTISTTRANSLIT:;
#GENRE:CHAOTIC SPEEDCORE;
#CREDIT:;
#BANNER:SEITEN_NO_TERIYAKI_banner.png;
#BACKGROUND:SEITEN_NO_TERIYAKI.png;
#LYRICSPATH:;
#CDTITLE:;
#MUSIC:SEITEN NO TERIYAKI.ogg;
#OFFSET:-0.400000;
#SAMPLESTART:9.190000;
#SAMPLELENGTH:12.000000;
#LASTBEATHINT:372.494507;
#SELECTABLE:YES;
#DISPLAYBPM:273.000000:68.250000;
#BPMS:0.000000=136.500000
,20.000000=273.000000
,49.000000=546.000000
,50.000000=273.000000
,81.000000=546.000000
,82.000000=273.000000
,84.000000=136.500000
,100.000000=273.000000
,153.000000=68.250000
,155.000000=136.500000
,219.000000=273.000000
,283.000000=136.500000
,299.000000=273.000000
,344.000000=546.000000
,347.000000=273.000000
;
#STOPS:48.500000=0.110000,
80.500000=0.110000,
101.500000=0.220000,
104.500000=0.220000,
107.500000=0.220000,
337.750000=0.220000,
344.000000=0.110000
;
#BGCHANGES:;
#KEYSOUNDS:;
#ATTACKS:;

//---------------dance-single - ----------------
#NOTES:
     dance-single:
     :
     Easy:
     6:
     0.238883,0.334436,0.098892,0.233746,0.000000,186.000000,175.000000,11.000000,26.000000,0.000000,0.000000,0.238883,0.334436,0.098892,0.233746,0.000000,186.000000,175.000000,11.000000,26.000000,0.000000,0.000000:
0000
0000
0000
0000
,
0000
0000
0000
0000
,
0000
0000
0000
0000
,
0200
0000
0300
0000
,
0010
0000
0110
0000
,
0001
0000
0000
0000
,
0001
0000
1000
0000
,
0020
0000
0030
0000
,
1000
0000
0100
0000
,
1000
0000
0000
0000
,
0001
0000
0010
0000
,
0001
0000
0000
0000
,
1000
0000
0000
0000
,
1000
0000
0000
0000
,
0001
0000
0010
0000
,
0002
0000
0003
0000
,
0100
0000
0010
0000
,
1000
0000
0000
0000
,
0001
0000
0100
0000
,
0010
0000
0000
0000
,
1000
0000
0000
0000
,
1000
0000
0001
0010
,
0001
0000
1001
0000
,
0100
0000
0010
0100
,
0001
0000
1001
0000
,
0100
0000
0000
0100
,
0000
0000
0010
0000
,
0000
0010
0000
1000
,
0000
0001
0000
0000
,
0000
0001
0000
0000
,
0000
1000
0000
0000
,
0000
1000
0000
0000
,
0000
0010
0000
0100
,
0000
0010
0000
0100
,
0000
0001
0000
0010
,
0000
0001
0000
0010
,
0000
0100
0000
1000
,
0000
0001
0000
1000
,
0000
0010
0000
1000
,
0001
1000
0000
0001
,
0010
0001
0000
1000
,
0010
1000
0000
0001
,
0000
0220
0000
0330
,
0001
0000
0010
0001
,
0100
0000
0010
1000
,
0100
0000
1000
0010
,
0200
0000
0300
0010
,
0010
0010
0000
1000
,
1000
1000
0000
0001
,
0001
0001
0000
0010
,
0010
0010
0000
0100
,
0001
0100
1000
0200
,
0000
0310
0000
2002
,
0000
0000
3003
0010
,
0000
0100
0000
0010
,
0000
0010
0100
0020
,
0000
0030
0000
1000
,
0000
0001
1000
0002
,
0000
0003
0000
0010
,
0000
0001
0000
1000
,
0000
0010
0000
0100
,
0000
0010
0000
2002
,
0000
3003
0000
0100
,
0000
0001
0010
0001
,
0000
1000
0000
0010
,
0000
0100
0010
1000
,
0000
0100
0000
2020
,
0000
3030
0000
0001
,
0000
0000
0000
0022
,
0000
0033
0000
0100
,
0000
0100
0000
0020
,
0000
1030
0000
0001
,
0000
0010
0001
0200
,
0000
0310
0000
0110
,
0000
2002
3003
0100
,
0000
0010
0100
0010
,
0000
1000
0000
0001
,
0000
0010
0001
0010
,
0000
0001
0000
0100
,
0000
0001
1000
0001
,
0000
0100
0000
0010
,
0000
1000
0100
1000
,
0000
0001
0000
1000
,
0000
0010
0000
0100
,
0000
0110
0010
0000
,
1000
0000
0001
0000
,
0010
0000
0000
0002
,
0000
0003
0000
2000
,
0000
3000
0000
0200
,
0000
0300
0000
0020
,
0000
0030
0000
0100
,
0000
0010
0000
0001
,
0000
0010
0200
0000
,
0300
0000
0000
0000
;

//---------------dance-single - ----------------
#NOTES:
     dance-single:
     :
     Medium:
     11:
     0.423825,0.582117,0.233746,0.368599,0.022476,330.000000,304.000000,26.000000,41.000000,0.000000,0.000000,0.423825,0.582117,0.233746,0.368599,0.022476,330.000000,304.000000,26.000000,41.000000,0.000000,0.000000:
// measure 0
0000
0000
0000
0000
,  // measure 1
0000
0000
0000
0000
,  // measure 2
0000
0000
0000
0000
,  // measure 3
0020
0000
0000
0030
,  // measure 4
0100
0100
2002
3003
,  // measure 5
0001
0000
0010
0000
0001
0000
0100
0010
,  // measure 6
0000
0010
1000
0100
,  // measure 7
1000
0000
0001
0010
0000
0001
0000
0000
,  // measure 8
0001
0010
0100
1000
,  // measure 9
0010
0000
0100
0000
0010
0000
1000
0100
,  // measure 10
0000
0100
1000
0001
,  // measure 11
0010
0000
0001
0200
0000
0000
0310
0000
,  // measure 12
1000
0001
2002
0000
3003
0000
0000
0000
,  // measure 13
0100
0000
0010
0000
1000
0000
0001
0100
,  // measure 14
0000
0100
0010
1000
,  // measure 15
0001
0000
0010
0001
0000
0100
0000
0000
,  // measure 16
0010
1000
0100
0010
,  // measure 17
0001
0000
1000
0000
0010
0000
0100
0001
,  // measure 18
0000
0001
0100
0010
,  // measure 19
1000
0000
0100
1000
0000
0000
0001
0000
,  // measure 20
0010
0100
0220
0000
0330
0000
0000
0000
,  // measure 21
2002
0000
3003
0000
,  // measure 22
0022
0033
2200
3300
,  // measure 23
0010
0000
0100
0000
0001
0010
0100
0000
,  // measure 24
2020
3030
0022
0033
,  // measure 25
0100
0010
0100
0010
0000
0000
1000
0100
,  // measure 26
1000
0100
0000
0000
0001
0010
0001
0010
,  // measure 27
0000
1000
0001
0010
,  // measure 28
0100
0000
1000
0000
0010
1000
0000
0000
,  // measure 29
0010
0000
0100
0000
0001
0100
0000
0000
,  // measure 30
0001
0000
0010
0000
0001
0010
0000
0000
,  // measure 31
0001
1000
0010
0100
,  // measure 32
0001
0010
0001
1000
,  // measure 33
0001
0010
0001
1000
,  // measure 34
0001
1000
0010
1000
,  // measure 35
0001
1000
0010
1000
,  // measure 36
0001
0100
0010
0100
,  // measure 37
0000
0010
0000
0000
0100
0000
0010
0000
,  // measure 38
1000
2002
3003
0010
,  // measure 39
0011
0000
1000
0010
0100
0000
0001
0000
,  // measure 40
0101
0000
0010
0100
0001
0000
0010
0000
,  // measure 41
1100
0000
0001
0100
0010
0000
1000
0000
,  // measure 42
1010
0200
0000
0300
,  // measure 43
0110
0000
1000
0000
0001
0100
0010
0000
,  // measure 44
0100
0001
0010
0000
0001
1000
0100
0000
,  // measure 45
1000
0000
0110
0000
0001
1000
0200
0000
,  // measure 46
0000
0000
0000
0000
0300
0000
0010
0100
,  // measure 47
0010
0000
0000
0001
0000
0001
0000
0000
0000
0000
0000
0000
1000
0000
0100
0000
,  // measure 48
1000
0000
0000
0010
0000
0010
0000
0000
0000
0000
0000
0000
0100
0000
0010
0000
,  // measure 49
0100
0000
0000
0001
0000
0000
0000
0000
1001
0000
0000
0000
0100
0000
0000
0000
,  // measure 50
0100
0010
1000
0000
0100
0000
2000
0000
,  // measure 51
3001
0010
0100
0000
1000
0000
0001
1000
,  // measure 52
0100
0010
0011
2200
,  // measure 53
0000
3300
0000
0101
,  // measure 54
0000
0220
0330
1000
,  // measure 55
0010
0000
0100
0000
0000
0001
0000
0001
,  // measure 56
0000
0020
0000
0031
,  // measure 57
1000
0000
0100
0000
0000
1000
0000
1000
,  // measure 58
0000
0010
0100
0010
,  // measure 59
1000
0000
0001
0000
0000
0010
0000
0000
,  // measure 60
0010
0001
1000
0100
,  // measure 61
1000
0000
0010
0000
0000
0100
0000
0000
,  // measure 62
0100
0002
0000
1003
,  // measure 63
0100
0000
1000
0000
0000
0001
0000
0010
,  // measure 64
0000
0001
0100
0010
,  // measure 65
1000
0000
0100
0000
0000
0010
0000
0000
,  // measure 66
0010
0100
1000
0002
,  // measure 67
0000
0003
0000
2000
,  // measure 68
0000
3000
0000
0220
,  // measure 69
0000
0000
0000
0000
,  // measure 70
0000
0330
0000
1000
,  // measure 71
0000
0001
0000
0010
,  // measure 72
0001
1000
0010
0220
,  // measure 73
0000
0000
0000
0330
,  // measure 74
0000
2002
3003
0100
,  // measure 75
0010
0000
1000
0000
0100
0010
0000
0000
,  // measure 76
0010
0002
0000
0013
,  // measure 77
0100
0000
1000
0000
0000
0010
0000
0000
,  // measure 78
0100
0020
0000
1030
,  // measure 79
0100
0000
1000
0000
0000
0001
0000
0000
,  // measure 80
0010
0002
0000
0103
,  // measure 81
0010
0000
0100
0000
0000
0010
0000
0000
,  // measure 82
1000
0200
0000
1300
,  // measure 83
0010
1000
0001
0010
,  // measure 84
0100
1000
0001
0010
,  // measure 85
0100
1000
0010
0100
,  // measure 86
0001
0000
0000
1000
,  // measure 87
0000
0010
0000
1000
,  // measure 88
0000
0001
0000
0110
,  // measure 89
0000
0001
0000
1000
,  // measure 90
0000
0010
0000
1001
,  // measure 91
0100
0000
0010
1000
,  // measure 92
0100
0001
1001
0000
;

//---------------dance-single - ----------------
#NOTES:
     dance-single:
     :
     Hard:
     16:
     0.829669,1.127205,0.350619,0.440521,0.211270,646.000000,607.000000,39.000000,49.000000,0.000000,0.000000,0.829669,1.127205,0.350619,0.440521,0.211270,646.000000,607.000000,39.000000,49.000000,0.000000,0.000000:
// measure 0
0000
0000
0000
0000
,  // measure 1
0000
0000
0000
0000
,  // measure 2
0000
0000
0000
0000
,  // measure 3
1002
0103
2010
3001
,  // measure 4
0220
0000
0000
0000
0330
0000
0000
0000
1000
0000
1001
0000
0010
0100
0001
1000
,  // measure 5
0001
0100
0020
0000
1030
0100
0010
0001
,  // measure 6
0000
0001
0100
0010
0001
0010
0100
1000
,  // measure 7
0100
0010
1000
0200
0000
0001
0301
0000
,  // measure 8
0100
1000
0010
0100
0001
0010
0100
1000
,  // measure 9
0010
1000
0100
0000
1000
0010
0100
0001
,  // measure 10
0000
0001
0010
0100
1000
0001
1000
0010
,  // measure 11
0100
0001
0010
0002
0000
0010
0013
0000
,  // measure 12
0100
0100
0220
0000
0330
1000
0001
0000
,  // measure 13
1000
0010
0200
0000
0301
0010
0100
1000
,  // measure 14
0000
1000
0010
0100
1000
0100
0010
0001
,  // measure 15
0010
0100
0001
0020
0000
1000
1030
0000
,  // measure 16
0010
0001
0100
0010
1000
0100
0010
0001
,  // measure 17
0100
0001
0010
0000
0001
0100
0010
1000
,  // measure 18
0000
1000
0100
0010
0001
1000
0001
0100
,  // measure 19
0010
1000
0100
2000
0000
0100
3100
0000
,  // measure 20
0010
0010
2002
0000
3003
0100
0010
1000
,  // measure 21
0100
1000
0100
0001
0100
0010
0100
1000
,  // measure 22
1020
0000
0000
0000
0000
0000
0130
0000
0101
0000
0000
0010
0000
0000
1000
0000
,  // measure 23
0001
0000
0010
0000
0001
0000
1000
0100
0010
0000
0001
0000
1000
0000
0010
0000
,  // measure 24
0210
0000
0000
0001
0000
0000
0301
0000
1010
0000
0100
0000
0101
0000
0000
0000
,  // measure 25
0001
0100
1000
0100
0020
0000
1030
0100
,  // measure 26
0001
0100
0020
0000
0031
0100
1000
0100
,  // measure 27
0001
0100
1000
0100
0001
0010
0100
1000
,  // measure 28
0001
0000
1000
0100
1000
1010
0000
0001
,  // measure 29
0100
0001
0010
0001
0100
0110
0000
0001
,  // measure 30
1000
0100
1000
0001
0010
0011
0000
0100
,  // measure 31
0100
0000
0001
0100
0010
1000
0100
0010
,  // measure 32
0001
0000
1000
0100
0001
0100
1000
0100
,  // measure 33
0001
0100
1000
0100
0001
0100
1000
0100
,  // measure 34
0001
0000
1000
0010
0001
0010
1000
0010
,  // measure 35
0001
0010
1000
0010
0001
0010
1000
0010
,  // measure 36
0001
0000
1000
0001
0010
1000
0001
0100
,  // measure 37
0000
1100
0000
0010
1000
0001
0100
1000
,  // measure 38
0100
0020
2000
0000
0000
3030
0110
0000
,  // measure 39
0001
0000
1000
0000
0100
0000
1000
0010
0000
0100
0001
0000
0010
0000
0001
0000
,  // measure 40
1000
0000
0100
0000
0010
0000
0100
1000
0000
0001
0010
0000
0001
0000
0100
0000
,  // measure 41
0010
0000
1000
0000
0100
0000
0010
0100
0000
1000
0001
0000
0100
0000
0100
0000
,  // measure 42
0010
0000
0100
0000
0001
0000
0011
0000
0000
1100
0000
0000
1001
0000
0000
0000
,  // measure 43
0010
0000
0100
0000
0001
0000
1000
0000
0010
0100
0001
0000
0020
0000
0230
0000
,  // measure 44
1300
0000
0001
0000
0010
0100
1000
0000
0010
0000
0100
0010
0000
1000
0010
1000
,  // measure 45
0001
0000
0010
0000
0001
0000
1000
0000
0100
0010
0001
0000
2000
0000
0002
0000
,  // measure 46
0000
0000
3003
0000
0100
0000
0100
0000
0100
0000
0100
0000
0001
0010
0100
0000
,  // measure 47
1000
0010
0100
0010
0000
2002
0000
0000
3003
0000
0100
0000
0100
0000
0011
0000
,  // measure 48
1000
0100
0010
0100
0000
2020
0000
0000
3030
0000
0100
0000
0001
1000
0010
0000
,  // measure 49
0100
0001
0010
0002
0000
1003
0100
1000
0010
0100
0001
0000
0110
0000
1000
0000
,  // measure 50
0001
0010
0100
1000
0000
0100
0010
0000
0001
1000
0100
0000
0010
0100
1000
0000
,  // measure 51
0001
0100
0010
1000
0000
0202
0000
0000
0303
0000
0010
0100
0010
0000
1000
0000
,  // measure 52
0010
0001
0000
0010
0000
1000
0100
0000
0010
0000
0001
0000
1000
0010
0000
0010
,  // measure 53
0100
0000
0001
0010
0000
0010
0100
0000
1000
0000
0001
0000
0220
0000
0000
0000
,  // measure 54
0330
0000
0001
1000
0001
1000
1000
0010
,  // measure 55
0100
0000
0001
0010
0100
1000
0000
0101
,  // measure 56
0000
0000
0010
0100
0010
1000
0100
1000
,  // measure 57
0001
0000
0010
0100
1000
0001
0000
1010
,  // measure 58
0010
0000
0100
0010
1000
0010
0001
0010
,  // measure 59
0100
0001
0010
0100
1000
0020
0000
0130
,  // measure 60
0001
0100
0001
1000
0100
0010
0001
1000
,  // measure 61
0010
0100
0010
1000
0100
0010
0000
0010
,  // measure 62
0001
1000
0010
0000
0110
0000
0001
0100
,  // measure 63
0010
0000
1000
0100
0010
0100
0000
0022
,  // measure 64
0000
0033
1000
0001
0010
0100
1000
0010
,  // measure 65
0100
0000
0001
0010
0000
0101
0000
1010
,  // measure 66
0000
0001
1000
0000
0010
0000
0100
0001
,  // measure 67
0000
0100
0010
0000
1000
0100
0000
0001
,  // measure 68
0010
1000
0001
0220
,  // measure 69
0000
0330
0000
2002
,  // measure 70
0000
3003
0000
0011
,  // measure 71
1000
0010
0000
0100
0001
0010
0001
1000
,  // measure 72
0100
0010
0100
1000
0001
0100
0220
0000
,  // measure 73
0000
0000
0330
1001
,  // measure 74
0000
0000
0001
0010
0100
1000
0001
0010
,  // measure 75
0200
0000
1300
0010
0100
0020
0000
1030
,  // measure 76
0100
1000
0001
0010
0100
0000
1000
0010
,  // measure 77
0100
0000
0010
1000
0001
0100
0000
0001
,  // measure 78
0010
0100
1000
0010
0100
0000
0010
1000
,  // measure 79
0100
0000
0010
0100
1000
0010
0000
0100
,  // measure 80
0001
0100
0010
1000
0100
0000
0010
0001
,  // measure 81
1000
0000
0010
0100
0001
0010
0000
0001
,  // measure 82
1000
0100
0010
0001
1000
0001
1000
0010
,  // measure 83
0100
0010
1000
0100
1000
0010
0000
0010
,  // measure 84
1000
0001
0010
0001
0010
0100
1000
0001
,  // measure 85
0100
0010
1000
0001
0000
0010
0100
1000
,  // measure 86
0010
0000
0202
0000
0303
0000
1000
0010
,  // measure 87
0100
0000
0001
0010
0100
1000
0000
1000
,  // measure 88
0010
0100
0001
1000
0100
0000
0011
0000
,  // measure 89
1000
0000
0100
1000
0010
0100
0000
0001
,  // measure 90
0010
0100
1000
0010
0100
0001
1000
0100
,  // measure 91
0002
0000
0103
1000
0010
0100
0000
0100
,  // measure 92
0010
0001
1000
0000
0220
0000
0000
0330
;
