#TITLE:SAVE the World;
#SUBTITLE:;
#ARTIST:Toby Fox;
#TITLETRANSLIT:;
#SUBTITLETRANSLIT:;
#ARTISTTRANSLIT:;
#GENRE:;
#CREDIT:「UNDERTALE」より;
#BANNER:SAVE the World_banner.png;
#BACKGROUND:SAVE the World.png;
#LYRICSPATH:;
#CDTITLE:;
#MUSIC:SAVE the World.ogg;
#OFFSET:-0.440000;
#SAMPLESTART:64.430000;
#SAMPLELENGTH:10.700000;
#LASTBEATHINT:295.000000;
#SELECTABLE:YES;
#DISPLAYBPM:180.000000;
#BPMS:0.000000=180.000000
,128.000000=90.000000
,144.000000=45.000000
,144.500000=90.000000
,145.000000=180.000000
,147.000000=90.000000
,147.500000=45.000000
,148.500000=90.000000
,149.000000=180.000000
,151.000000=90.000000
,151.500000=45.000000
,152.000000=90.000000
,158.000000=45.000000
,159.000000=180.000000
;
#STOPS:
;
#BGCHANGES:;
#KEYSOUNDS:;
#ATTACKS:;

//---------------dance-single - ----------------
#NOTES:
     dance-single:
     :
     Easy:
     7:
     0.268661,0.327311,0.089982,0.197961,0.000000,209.000000,199.000000,10.000000,22.000000,0.000000,0.000000,0.268661,0.327311,0.089982,0.197961,0.000000,209.000000,199.000000,10.000000,22.000000,0.000000,0.000000:
0000
0000
0000
0000
,
0000
0000
0000
0000
,
0000
0000
0000
0000
,
0000
0000
0000
0000
,
0001
0000
0001
0010
,
0100
0000
1100
0000
,
1000
0010
0100
0010
,
1000
0000
1001
0000
,
0001
0000
1000
0000
,
0020
0000
0030
0000
,
0100
0000
0001
1000
,
0010
0000
0110
0000
,
0100
0001
0100
0000
,
0010
1000
0010
0000
,
1000
0000
0100
0010
,
0002
0000
0013
0000
,
0001
1000
0000
1000
,
0010
0100
0000
0100
,
0001
0010
0100
1000
,
0020
0000
1030
0000
,
1000
0100
0010
0000
,
0100
0010
0001
0000
,
2000
0000
3002
0000
,
0013
0000
0110
0000
,
0100
1000
0100
0000
,
0010
0001
0010
0000
,
0001
1000
0010
0100
,
0020
0000
1030
0000
,
0001
0010
0100
0000
,
0010
0100
1000
0000
,
0020
0000
0230
0000
,
0301
0000
1001
0000
,
1000
0000
0010
0100
,
0010
1000
0001
0010
,
0002
0000
0103
0010
,
2000
0000
3010
0100
,
0002
1003
0000
0000
0010
0000
0000
0000
,
0100
0010
0000
0000
0020
0000
0000
0000
,
1030
0001
1000
0001
,
0100
0000
0010
0000
0220
0330
0001
0000
,
1000
0100
1000
0001
,
0000
0011
0000
1000
,
0010
0100
0010
1000
,
0000
1100
0000
0001
,
1000
0100
0010
0001
,
0010
0100
0000
1000
,
0010
0100
0010
1000
,
0001
0010
0000
0001
,
1000
0100
0010
0100
,
0000
0100
0000
0000
0100
0000
1000
0000
,
0010
0100
0001
0010
,
0000
1001
0000
0010
,
0100
0001
1000
0010
,
0000
0010
0000
0000
0010
0000
0100
0000
,
0001
1000
0010
1000
,
0001
0001
0000
0100
,
0001
0010
0001
2000
,
0000
3100
0000
1000
,
0010
0100
0010
2000
,
0000
3001
0000
0001
,
0010
0100
0000
0010
,
0100
1000
0000
0010
,
0100
0001
1000
0001
,
0010
0100
0000
0010
,
0000
0010
0001
0020
,
0000
0130
0000
0100
,
0000
0100
1000
0200
,
0000
0310
0000
0001
,
0000
0001
1000
0002
,
0000
0103
0000
1000
,
0000
1000
0010
0200
,
0000
0310
0000
2002
,
0000
0000
0000
3003
;

//---------------dance-single - ----------------
#NOTES:
     dance-single:
     :
     Medium:
     10:
     0.384353,0.462959,0.188963,0.134973,0.000000,299.000000,278.000000,21.000000,15.000000,0.000000,0.000000,0.384353,0.462959,0.188963,0.134973,0.000000,299.000000,278.000000,21.000000,15.000000,0.000000,0.000000:
// measure 0
0000
0000
0000
0000
,  // measure 1
0000
0000
0000
0000
,  // measure 2
0000
0000
0000
0000
,  // measure 3
0000
0000
0000
0000
,  // measure 4
1100
0001
0100
0010
,  // measure 5
1010
0001
1000
0100
,  // measure 6
0010
0001
1000
0010
,  // measure 7
0110
0000
1001
0000
,  // measure 8
2000
0000
3002
0000
,  // measure 9
0200
0000
0303
0000
,  // measure 10
0120
0000
0000
0000
1030
0000
0100
0010
,  // measure 11
0000
0001
0000
1000
0000
0010
0100
0000
,  // measure 12
0001
0000
0010
0000
0010
0001
0010
0000
,  // measure 13
0100
0000
0100
0000
0100
1000
0100
0000
,  // measure 14
1000
0010
0100
0001
,  // measure 15
1001
0000
0110
0000
,  // measure 16
0000
1000
0100
0000
0000
1000
0100
0000
,  // measure 17
0000
0010
0001
0000
0000
0010
0001
0000
,  // measure 18
1000
0000
0001
0000
0010
0000
0100
1000
,  // measure 19
0000
0001
1000
0000
0010
0000
0100
0000
,  // measure 20
0001
0000
1000
0000
0010
0100
0010
0000
,  // measure 21
1000
0000
0001
0000
0010
0100
0010
0000
,  // measure 22
0001
0010
0100
1000
,  // measure 23
0020
0000
0230
0000
,  // measure 24
0300
0001
0010
0000
0000
0001
0010
0000
,  // measure 25
0000
0100
1000
0000
0000
0100
1000
0000
,  // measure 26
0010
0000
0100
0000
0001
0000
1000
0001
,  // measure 27
0000
1000
0001
0000
0220
0000
0330
0000
,  // measure 28
1000
0000
1000
0000
0001
0010
0001
0000
,  // measure 29
0010
0000
0010
0000
0100
1000
0100
0000
,  // measure 30
1000
0001
0010
0100
,  // measure 31
0010
0000
0011
0000
,  // measure 32
1000
0010
0100
0000
0001
0010
0100
0000
,  // measure 33
1000
0001
0100
0000
0010
0000
0110
0000
,  // measure 34
0001
0010
0100
0000
0010
0100
1000
0000
,  // measure 35
0010
0100
0001
0000
0100
0000
1010
0000
,  // measure 36
0002
0013
0001
0000
1000
0000
0000
0010
,  // measure 37
1000
0001
0020
0000
0031
0000
0000
2000
,  // measure 38
3010
0100
0001
0000
1000
0100
0010
0000
,  // measure 39
0001
1000
0010
0100
0220
0330
0001
0000
,  // measure 40
0010
0000
0001
0000
1000
0000
0010
0100
,  // measure 41
0000
0010
0000
0000
1001
0000
0100
0000
,  // measure 42
0010
0000
1000
0100
0000
1000
0000
0000
,  // measure 43
0001
0010
0100
0010
,  // measure 44
0001
0000
1000
0000
0100
0000
1000
0001
,  // measure 45
0000
1000
0000
0000
0110
0000
0001
0000
,  // measure 46
1000
0000
0100
0010
0000
0010
0000
0000
,  // measure 47
0001
1000
0100
0001
,  // measure 48
1000
0000
0001
0000
0100
0000
1000
0010
,  // measure 49
0000
0010
0000
0000
1001
0000
0100
0000
,  // measure 50
0001
0000
0100
1000
0000
1000
0000
0000
,  // measure 51
0100
0010
1000
0001
,  // measure 52
0010
0000
1000
0000
0010
0000
0001
1000
,  // measure 53
0000
1000
0000
0000
0110
0000
1000
0000
,  // measure 54
0001
0000
0010
0100
0000
0100
0000
0000
,  // measure 55
0010
0001
1000
0010
,  // measure 56
0100
0000
0010
0000
1000
0000
0001
0010
,  // measure 57
0000
0011
0000
0000
1000
0000
0100
0000
,  // measure 58
0010
0000
0001
1000
0000
0001
0000
0000
,  // measure 59
0100
0010
1000
0100
,  // measure 60
0010
0000
0100
0000
1000
0000
0010
1000
,  // measure 61
0000
1010
0000
0000
0001
0000
1000
0000
,  // measure 62
0100
0000
0010
0001
0000
0001
0000
0000
,  // measure 63
1000
0001
0010
0001
,  // measure 64
0010
0000
0100
0000
0010
0000
0001
0010
,  // measure 65
0000
1100
0000
0000
0010
0000
0100
0000
,  // measure 66
1000
0000
0010
1000
0000
1000
0000
0000
,  // measure 67
0010
0100
0010
1000
,  // measure 68
0100
0000
1000
0000
0010
0000
1000
0100
,  // measure 69
0000
1100
0000
0000
0001
0000
1000
0000
,  // measure 70
0001
0000
0100
0010
0000
0010
0000
0000
,  // measure 71
1000
0001
0010
0220
,  // measure 72
0000
0000
0000
0000
,  // measure 73
0000
0000
0330
0000
;

//---------------dance-single - ----------------
#NOTES:
     dance-single:
     :
     Hard:
     13:
     0.617021,0.796343,0.404920,0.179965,0.170966,480.000000,435.000000,45.000000,20.000000,0.000000,0.000000,0.617021,0.796343,0.404920,0.179965,0.170966,480.000000,435.000000,45.000000,20.000000,0.000000,0.000000:
0000
0000
0000
0000
,
0000
0000
0000
0000
,
0000
0000
0000
0000
,
0000
0000
0000
0000
,
0101
0000
0000
0000
0010
0000
0100
0000
0010
0000
1000
0100
1000
0000
0000
0000
,
1010
0000
0000
0000
0100
0000
0001
0000
1000
0000
0010
0100
0010
0000
0000
0000
,
2000
3002
0023
0130
,
1000
0100
0010
0001
0010
0100
1000
0000
,
0010
0100
0001
0010
0100
1000
0100
0010
,
0002
1000
0100
1003
,
1000
0010
0100
0010
1000
0100
0010
0001
,
0000
1000
0001
1000
0010
0100
0001
0000
,
0011
0000
0001
1000
0001
1000
0100
0000
,
1010
0000
0100
0010
1000
0001
1000
0000
,
0020
0230
0302
1003
,
0210
0301
1002
0103
,
0010
1000
0100
1000
0000
0001
0010
0100
,
0000
0010
0001
1000
0000
0100
0010
1000
,
0010
0000
0011
0000
1000
0010
0000
1010
,
0000
0000
0001
0010
0100
0000
1000
0000
0010
0000
0100
0000
0001
0000
0000
0000
,
1010
0000
0100
0001
1000
0100
0010
0000
,
0101
0000
0010
1000
0001
0010
0100
0000
,
1000
0001
0100
0010
1000
0100
0010
0000
,
0012
0103
2100
3001
,
0100
0010
0100
0001
0000
1000
0001
0010
,
0000
0001
1000
0100
0000
1000
0100
0010
,
0001
0000
1100
0000
0010
0100
0001
1000
,
0000
0000
0010
0100
0010
0000
1000
0000
0100
0000
0010
0000
0001
0000
0000
0000
,
0101
0000
1000
0100
0010
0100
1000
0000
,
0110
0000
0001
1000
0100
1000
0001
0000
,
0010
0001
0100
0010
1000
0100
0001
0000
,
2100
3001
0012
1003
,
1010
0000
0100
0000
0001
0000
1000
0000
0100
0010
0000
0110
0000
0001
0010
0000
,
0001
0000
1000
0000
0010
0100
0000
0110
0000
1000
0010
0000
0100
0000
0010
0000
,
1000
0000
0001
0000
0010
0000
0100
0000
1000
0100
0000
0110
0000
0001
0100
0000
,
0010
0000
1000
0000
0001
0010
0000
0110
0000
1000
0100
0000
1000
0000
0010
0000
,
1000
0000
0001
0000
0010
0000
0000
0000
2000
0000
0000
0000
0000
0000
0000
0000
3010
0000
0000
0000
0100
0000
0000
0000
0000
0000
0110
0000
0000
0001
1000
0000
,
0010
0100
0001
1000
0000
0000
1100
0000
0000
0000
0010
0000
0001
0000
1000
0010
,
1000
0000
0001
0000
0010
0000
0100
0000
1000
0001
0000
1000
0000
0010
0100
0000
,
0101
0000
0000
0000
0010
0000
0000
0000
1000
0000
0100
0000
0000
0000
0110
0000
0000
0001
0010
0000
0100
0000
1000
0000
0010
0000
0000
0000
0000
0000
0000
0000
,
1001
0000
0100
0010
0100
0000
0001
0010
,
0000
0000
1100
0000
0000
0000
0001
0010
0001
0000
0000
0000
1000
0000
0000
0000
,
0011
0000
1000
0010
0100
0010
0000
1000
,
0001
0010
0100
1000
0020
0000
0130
0000
,
1100
0000
0001
0010
0001
0000
1000
0010
,
1000
0000
0001
0000
0000
0000
0100
0010
0100
0000
0000
0000
0001
0000
0000
0000
,
0011
0000
1000
0010
0001
0010
0000
0100
,
0001
0100
1000
0100
0010
0000
1000
0000
,
0101
0000
0010
1000
0001
0000
1000
0100
,
0000
0000
0011
0000
0000
0000
1000
0100
1000
0000
0010
0000
0100
0000
0000
0000
,
0101
0000
0010
1000
0001
0010
0000
0001
,
1000
0100
0010
0100
2000
0000
3001
0010
,
0001
1000
0010
0100
0010
0000
1000
0100
,
0001
0100
0000
0010
1000
0010
0001
0000
,
1100
0000
1000
0001
0100
0001
0000
1000
,
0010
0100
0001
0010
0100
0000
1020
0000
,
0100
0000
0001
0000
0130
0000
0001
0010
,
0000
0000
1001
0000
0000
0000
0100
0010
0100
0000
0000
0000
0001
0000
0010
0000
,
0100
0000
0001
0100
1000
0100
0000
0010
,
1000
0010
0001
0010
0100
0000
0201
0000
,
0010
0000
1000
0000
0310
0000
0001
0010
,
0001
0000
1000
0000
0000
0000
0010
0100
0010
0000
0000
0000
1000
0000
0001
0000
,
0100
0000
0010
0100
0001
1000
0000
0001
,
0010
1000
0001
0100
1000
0000
1001
0000
,
0001
0010
0001
0000
1001
0000
1000
0100
,
1000
0000
0010
0000
0000
0000
0100
0010
0100
0000
0000
0000
0110
0000
0000
0000
,
0001
1000
0010
0100
0000
1001
0000
0010
,
0001
1000
0010
1000
0100
0000
1001
0000
,
1000
0100
1000
0000
1001
0000
0001
0010
,
0001
0000
0100
0000
0000
0000
0010
0100
0010
0000
1000
0000
0001
0000
0010
0000
,
0100
0000
1000
0010
0100
0001
0000
1000
,
0100
0001
1000
0010
0001
0000
2002
0000
,
0000
0000
0000
0000
,
0000
0000
0000
3003
;

//---------------dance-single - ----------------
#NOTES:
     dance-single:
     :
     Challenge:
     15:
     0.804699,1.327238,0.296941,0.170966,0.418418,626.000000,593.000000,33.000000,19.000000,0.000000,0.000000,0.804699,1.327238,0.296941,0.170966,0.418418,626.000000,593.000000,33.000000,19.000000,0.000000,0.000000:
0000
0000
0000
0000
,
0000
0000
0000
0000
,
0000
0000
0000
0000
,
0000
0000
0000
0000
,
0101
0000
0000
0000
0010
0000
1000
0000
0100
0000
1000
0001
0010
0000
0001
0000
,
0100
0000
0010
0000
1000
0000
0001
0000
1000
0000
0100
0010
0001
0000
0010
0000
,
0100
1000
0001
0100
0010
1000
0001
0010
,
0100
1000
0010
1000
0001
0100
0010
0100
,
0002
0010
0000
0023
0100
0100
0030
0200
,
1000
0001
1000
0310
,
1001
0000
0010
0100
0010
1000
0100
0010
,
0000
0000
0001
0000
1000
0000
0010
0000
0100
0000
0010
1000
0001
0000
1000
0000
,
0200
0000
0310
0001
1000
0010
0100
0001
,
0011
0000
0000
0000
1000
0000
0010
0000
0100
0000
0001
1000
0010
0000
0100
0000
,
0001
0010
1000
0010
0001
0100
1000
0100
,
0010
0000
0100
0000
0001
0000
1000
0000
0001
0010
0100
1000
0010
0000
1000
0000
,
0001
0100
0010
1000
0001
1000
0100
0001
,
1000
0010
0100
0001
0100
1000
0010
0001
,
0010
1000
1010
0000
0001
1000
0100
0110
,
0000
0000
0001
0010
0100
0000
0010
0000
0001
0000
1000
0000
0010
0000
0100
0000
,
1100
0000
0000
0000
0100
0000
0001
0000
0010
0000
0001
1000
0100
0000
0010
0000
,
0001
0000
1000
0000
0001
0000
0010
0000
0100
0000
1000
0001
0010
0000
0001
0000
,
0100
0010
1000
0010
0100
0001
0010
0001
,
1000
0100
0001
1000
0010
0001
1000
0001
,
0100
0010
1010
1000
0001
0010
0011
0010
,
0100
1000
1001
0001
0010
0100
0110
0001
,
1000
0100
1100
0000
0001
1000
0010
1000
,
0001
0000
0100
0010
0100
0000
0001
0000
0010
0000
1000
0000
0010
0000
0001
0000
,
1001
0000
0100
0010
1000
0100
0010
0001
,
0101
0000
0000
0000
1000
0000
0010
0000
0100
0000
0001
1000
0100
0000
0010
0000
,
0100
1000
0010
0100
0001
0010
0001
1000
,
0010
0000
0100
0000
0001
0000
1000
0000
0001
1000
0100
0010
0001
0000
1000
0000
,
0010
0000
0000
0000
0100
0000
0000
0000
0001
0000
0000
0000
0010
0000
0000
0000
0100
0000
1000
0000
0000
0000
1001
0000
0000
0000
0010
0100
0010
0000
1000
0000
,
0001
0000
0000
0000
0010
0000
0000
0000
0001
0000
1000
0000
0000
0000
1010
0000
0000
0000
0100
0001
0010
0000
0001
0000
1000
0000
0100
0000
0010
0000
0001
0000
,
0100
0000
0000
0000
1010
0000
0000
0000
0001
0000
0010
0000
0100
0000
0000
0000
0010
0000
0100
0000
1000
0000
0010
0000
0100
0000
0001
1000
0001
0000
0100
0000
,
0010
0000
1000
0000
0001
0000
0000
0000
1000
0000
0010
0000
0100
0000
0001
0000
0010
0000
0001
0010
0100
0000
1000
0000
0010
0000
0100
0000
0001
0000
1000
0000
,
0020
0000
0000
0000
0130
0000
0000
0000
0210
0000
0000
0000
0000
0000
0000
0000
0001
0000
0000
0000
0000
0000
0000
0000
0000
0000
0000
0000
0000
0000
0000
0000
0320
0000
0000
0000
0000
0000
0000
0000
1030
0000
0000
0000
0000
0000
0000
0000
0000
0000
0000
0000
1100
0000
0000
0000
0000
0000
0010
0100
0001
0000
0000
0000
,
1000
0000
0100
0000
0010
0000
0001
0000
0000
0000
0000
0000
2001
0000
0000
0000
0000
0000
0000
0000
3010
0000
0100
0000
0010
0000
1000
0000
0001
0010
0100
0010
,
0001
0010
0100
1000
0010
0100
0010
1000
0001
0010
1000
0010
0001
0100
0010
1000
,
0001
0000
1000
0000
0100
0000
0010
0000
0100
0000
1000
0000
0001
0000
1000
0000
0010
0100
0001
0010
0100
1000
1001
0000
0110
0000
0000
0000
0000
0000
0000
0000
,
1001
0000
0010
0100
0001
1000
0100
1000
,
0010
0000
0100
0000
0001
0000
0010
0100
1000
0000
0010
0000
0100
0000
0001
0000
,
0011
0000
0000
0000
1000
0000
0010
0000
0100
0000
0010
0000
1000
0000
0100
0010
,
0001
0010
0001
1000
0100
0010
0001
1000
,
0010
0100
0001
1000
0100
0001
0100
1000
,
0010
0000
0100
0000
0001
0000
1000
0100
0010
0000
0100
0000
1000
0000
0010
0000
,
0100
0100
0001
1000
0001
1001
0000
0010
,
1000
0001
1000
0100
0001
0100
2000
3010
,
0002
0000
0103
0000
0010
0000
0100
0010
0100
0000
0001
0000
1000
0000
0010
0000
,
0100
0000
1010
0000
0000
0000
0001
0010
0100
0000
0010
0000
0002
0000
0013
0000
,
2000
0000
3100
0000
0010
0000
0100
1000
0001
0000
0100
0000
0000
0000
0010
0100
,
0001
1000
0010
0100
0001
1000
0001
0010
,
1000
0000
0001
0000
0100
0000
1000
0001
1000
0000
0010
0000
0100
0000
0001
0000
,
0010
0000
1001
0000
0000
0000
0100
0010
1000
0000
0001
0000
1000
0000
0100
0000
,
0010
0000
0000
0000
0001
0000
0010
0000
0100
0000
1000
0000
0010
0000
0100
0010
,
0100
0000
0001
0000
1000
0010
0100
0001
0010
0000
0100
0000
1000
0000
0100
0000
,
0001
0100
1000
0010
0110
0000
0001
0010
,
1000
0000
0010
0000
0001
0000
0100
0010
0100
0000
0010
0000
1000
0000
0010
0000
,
0001
0000
0010
0000
1000
0000
0100
0000
0010
0000
0011
0000
0000
0000
1000
0100
,
0010
0001
0010
0100
1000
0010
0100
0010
,
1000
0000
0001
0000
0010
0000
0100
1000
0001
0000
0010
0000
0001
0000
1000
0000
,
0010
0000
0100
0000
0001
0000
1000
0001
0100
0000
0010
0000
1000
0000
0100
0000
,
0010
0000
0000
0000
0100
0000
1000
0000
0001
0000
0010
0000
0000
0000
0001
1000
,
0100
0000
1000
0000
0010
0100
0001
0100
0010
0000
1000
0000
1010
0000
0000
0000
,
0010
0100
0010
0000
0011
0000
0010
1000
,
0010
0000
0100
0000
0010
0000
1000
0001
1000
0000
0010
0000
0100
0000
0001
0000
,
0101
0000
0000
0000
0100
0000
1000
0000
0100
0000
0010
0000
1000
0000
0001
0010
,
0100
1000
0010
1000
0001
0010
0002
0000
,
0100
0100
0100
0000
1003
0000
2010
0000
,
0001
0000
0001
0000
3001
0000
0100
0010
0100
0000
0001
0000
0010
0000
0100
0000
,
2000
0000
0000
0000
3001
0000
0100
0000
0010
0000
0100
0000
0001
0000
0010
0100
,
1000
0000
0010
0000
1000
0100
0010
0001
0100
0000
0010
0000
2000
0000
0000
0000
,
3010
0002
0103
0220
,
0000
0000
0000
0330
;
