#TITLE:Russian Snowy Dance;
#SUBTITLE:;
#ARTIST:Mutsuhiko Izumi;
#TITLETRANSLIT:;
#SUBTITLETRANSLIT:;
#ARTISTTRANSLIT:;
#GENRE:;
#CREDIT:;
#BANNER:Russian_Snowy_Dance_banner.png;
#BACKGROUND:Russian_Snowy_Dance.png;
#LYRICSPATH:;
#CDTITLE:;
#MUSIC:Russian Snowy Dance.ogg;
#OFFSET:-0.470000;
#SAMPLESTART:6.100000;
#SAMPLELENGTH:11.100000;
#LASTBEATHINT:316.000000;
#SELECTABLE:YES;
#DISPLAYBPM:170.000000:240.000000;
#BPMS:0.000000=170.000000
,248.000000=340.000000
,256.000000=205.000000
,296.000000=480.000000
,312.000000=240.000000
;
#STOPS:
;
#BGCHANGES:;
#KEYSOUNDS:;
#ATTACKS:;

//---------------dance-single - ----------------
#NOTES:
     dance-single:
     :
     Easy:
     7:
     0.284336,0.364512,0.046287,0.157377,0.000000,215.000000,210.000000,5.000000,17.000000,0.000000,0.000000,0.284336,0.364512,0.046287,0.157377,0.000000,215.000000,210.000000,5.000000,17.000000,0.000000,0.000000:
0000
0000
0000
0000
,
0000
0000
0000
0000
,
0000
0000
0000
0000
,
0000
0000
0000
0000
,
0001
0000
0010
0001
,
1000
0000
0100
1000
,
0010
0000
0100
0010
,
1000
0000
0010
0100
,
1000
0000
0100
0001
,
0010
0000
0001
1000
,
0100
0000
1000
0000
,
0010
0100
0110
0000
,
1000
1000
0000
0000
0001
0001
0000
0000
,
0100
0010
1000
0001
,
0010
0010
0000
0000
0100
0100
0000
0000
,
1000
0100
0020
0030
,
0001
0000
0100
0010
,
1000
0000
0010
1000
,
0100
0000
1000
0001
,
0010
0000
0001
0100
,
0010
0000
0010
1000
,
0100
0000
0100
1000
,
0001
0010
0100
1000
,
0001
1000
1001
0000
,
0200
0000
0010
0310
,
0002
0000
1000
1003
,
0100
0000
0010
1000
,
0001
0100
0010
0000
,
2000
0000
0010
3010
,
0200
0000
0001
0301
,
0001
0010
0001
0000
,
1000
0001
0100
0000
,
0010
1000
0010
0000
,
0100
0001
0100
0000
,
0010
1000
0100
0000
,
1000
0010
0001
0010
,
0100
0000
0001
0100
,
0010
0000
1000
0001
,
1000
0000
0010
0100
,
0001
0000
1000
0001
1000
0000
0000
0000
,
0010
0010
0000
0000
1000
1000
0000
0000
,
0001
0010
0100
1000
,
0001
0001
0000
0000
0100
0100
0000
0000
,
0010
1000
0100
0000
,
2000
0000
0000
0000
,
3020
0000
0000
0000
,
0230
0000
0000
0000
,
0302
0000
0000
0000
,
2003
0010
0000
3010
,
0002
0100
0000
0103
,
0020
0000
0130
0000
,
0001
0000
1000
0001
1000
0000
0000
0000
,
0002
0000
0103
0010
,
1000
0000
1000
0000
,
0010
0100
0010
1000
,
0001
0000
1001
0000
,
0200
0000
0301
0010
,
0001
0000
1000
0010
,
0100
0010
0100
0000
,
0001
1000
0001
0000
,
0100
0010
0100
0000
,
0001
1000
1001
0000
,
0000
0000
0000
0000
,
0000
0000
0000
0000
,
1000
0000
0010
0100
,
0001
0000
0010
0001
,
1000
0000
0100
0010
,
0001
0100
0010
0000
,
0200
0000
0301
0010
,
0002
0000
1003
0010
,
0200
0000
0301
1000
,
0010
0100
0010
0010
,
0100
0010
0100
0100
,
0001
1000
0001
1001
,
0000
0000
0000
0000
,
0000
0000
0000
0000
,
0000
0000
0000
0000
,
0000
0000
0000
0000
,
0010
0001
0100
1000
;

//---------------dance-single - ----------------
#NOTES:
     dance-single:
     :
     Medium:
     11:
     0.499903,0.546769,0.222179,0.175892,0.000000,378.000000,354.000000,24.000000,19.000000,0.000000,0.000000,0.499903,0.546769,0.222179,0.175892,0.000000,378.000000,354.000000,24.000000,19.000000,0.000000,0.000000:
0000
0000
0000
0000
,
0000
0000
0000
0000
,
0000
0000
0000
0000
,
0000
0000
0000
0000
,
0020
0000
0031
1000
0100
0000
1000
0010
,
0100
0000
0001
0010
0100
0000
0010
0001
,
1000
0000
1001
0000
0010
0100
0010
0000
,
1000
0100
0001
0100
1000
0000
0010
0000
,
0200
0000
0301
1000
0001
0000
0100
0000
,
0010
0000
1000
0100
0010
0000
0001
0000
,
1000
0010
0100
0010
1000
0001
0100
0000
,
0001
0110
1000
0000
,
0001
0001
0000
0010
0100
0010
0000
0001
,
1000
0100
0010
0100
2000
0000
3001
0000
,
0100
0100
0000
0010
1000
0010
0000
0100
,
0001
0010
1000
0010
0001
0000
0100
0000
,
0002
0000
0013
0100
1000
0000
0010
0000
,
1000
0000
0100
1000
0001
0000
0100
0000
,
0010
0000
1010
0000
0100
0001
1000
0000
,
0010
1000
0100
1000
0001
0000
0010
0000
,
0001
0000
0100
0010
0100
0000
0001
0000
,
1000
0000
0100
0010
0100
0000
1000
0000
,
0001
0010
0100
0000
0010
0100
1000
0000
,
0001
1001
0110
0000
,
2000
0000
0010
0000
0010
0000
3010
0100
,
0002
0010
0013
0001
,
1000
0000
0100
1000
0010
0000
0100
0010
,
0100
0001
1001
0000
,
0200
0000
0010
0000
0010
0000
0310
1000
,
0002
0010
0013
1000
,
0100
1000
0001
0000
1000
0001
0100
0000
,
0010
0110
1001
0000
,
0100
0001
0100
0000
0010
0000
1000
0000
,
0100
1000
0100
0000
1000
0000
0001
0000
,
0010
0001
1000
0000
0010
1000
0001
0000
,
0100
0010
1000
0010
0100
0000
0001
0000
,
0010
0100
1000
0000
0001
0010
0100
0000
,
1000
0010
0100
0000
0010
0100
0001
0000
,
1000
0001
0100
0001
1000
0000
0010
0000
,
1010
0101
2002
3003
,
0100
0100
0000
0010
1000
1000
0000
0001
,
0010
0001
0100
0010
1000
0000
0001
0000
,
1000
1000
0000
0010
0100
0100
0000
0001
,
1000
0010
0100
0010
1000
0000
0001
0000
,
0020
0001
0001
0031
,
2000
0100
0100
3100
,
0002
0010
0010
0013
,
0200
1000
1000
1300
,
1000
0001
1000
0000
0010
0100
0010
0000
,
1000
0010
0100
0000
0001
0010
0100
0000
,
1000
0001
0010
0001
1000
0000
0100
0000
,
1000
0000
0010
0100
0001
0000
0000
0000
,
2000
0000
3010
0100
0010
0000
0100
0000
,
0001
0000
0010
0001
1000
0000
0100
0000
,
1000
0000
1010
0000
0100
0001
0100
0000
,
0001
0010
0100
1000
0010
1000
0100
0000
,
2000
0000
3010
0100
0001
0000
0010
0001
,
0200
0000
0310
1000
0010
0000
0101
0000
,
0001
1000
0100
1000
0010
0100
0001
0000
,
1000
1010
1001
0000
,
0001
0011
1001
0000
,
0100
0110
2002
3003
,
0000
0000
0000
0000
,
0000
0000
0000
0000
,
0001
0000
1000
0100
1000
0000
0010
0000
,
0100
0000
1000
0000
0100
0010
0100
0000
,
0001
0000
1000
0100
1000
0000
0010
0000
,
0100
0001
0100
0000
0001
0000
1001
0000
,
0010
0000
0001
0100
0001
0000
1000
0000
,
0010
0000
0100
0001
0100
0000
0010
0000
,
1000
0000
0010
0100
0001
0000
0010
0000
,
0001
0010
0001
0000
1000
0000
1100
0000
,
1000
0010
1000
0000
0001
0000
0101
0000
,
1000
0010
0001
0010
1000
0000
1001
0000
,
0000
0000
0000
0000
,
0000
0000
0000
0000
,
0000
0000
0000
0000
,
0000
0000
0000
0000
,
0100
1000
0001
0010
0001
0000
1001
0000
;

//---------------dance-single - ----------------
#NOTES:
     dance-single:
     :
     Hard:
     14:
     0.699599,0.765476,0.546190,0.231436,0.208293,529.000000,470.000000,59.000000,25.000000,0.000000,0.000000,0.699599,0.765476,0.546190,0.231436,0.208293,529.000000,470.000000,59.000000,25.000000,0.000000,0.000000:
// measure 0
0000
0000
0000
0000
,  // measure 1
0000
0000
0000
0000
,  // measure 2
0000
0000
0000
0000
,  // measure 3
0000
0000
0000
0000
,  // measure 4
2010
0000
3001
0010
0001
0000
0100
0010
,  // measure 5
0200
0000
0301
0010
2000
0000
3010
0001
,  // measure 6
1000
0000
1001
0000
0100
0010
1000
0001
,  // measure 7
0010
0000
0001
0000
0100
0000
0010
0000
1000
0010
0100
0001
1000
0010
0100
0000
,  // measure 8
0002
0000
0000
0000
0013
0000
0100
0000
1000
0000
0000
0000
0010
0100
0010
0000
,  // measure 9
1000
0000
0000
0000
0100
0000
1000
0000
0001
0000
0010
0000
0100
0010
0100
0000
,  // measure 10
0010
0001
0010
0000
0001
0000
1000
0000
0010
0100
0010
0000
1000
0000
0100
0000
,  // measure 11
1100
0110
0022
0033
,  // measure 12
1100
1100
0000
0001
0110
0110
0000
0010
,  // measure 13
1000
0100
1000
0001
0010
0100
1001
0000
,  // measure 14
0110
0110
0000
1000
0101
0101
0000
0010
,  // measure 15
1000
0001
0100
0010
1010
0000
0101
0000
,  // measure 16
0012
0000
0000
0000
1003
0000
0100
0000
0010
0000
0000
0000
0001
1000
0001
0000
,  // measure 17
2000
0000
0000
0000
3010
0000
0100
0000
0001
0000
0000
0000
0010
0100
1000
0000
,  // measure 18
0001
0000
0101
0000
1000
0010
0100
0001
,  // measure 19
0010
0000
0001
0000
0100
0000
0010
0000
1000
0100
1000
0100
0010
0001
0010
0000
,  // measure 20
0001
0000
0000
0000
1000
0000
0010
0000
0200
0000
0000
0000
0301
0010
0001
0000
,  // measure 21
1000
0000
0000
0000
0010
0000
0100
0000
0010
0000
0000
0000
1000
0001
1000
0000
,  // measure 22
0001
0010
0001
0000
1000
0100
1000
0000
0010
0000
0100
0000
0001
0000
0010
0000
,  // measure 23
0011
0000
0000
0000
1100
0000
0000
0000
1001
0000
0000
0000
0000
0000
0100
0010
,  // measure 24
0200
0000
0000
0000
0001
0000
0000
0000
0310
0000
1000
0000
0100
0000
0010
0001
,  // measure 25
0020
0000
0000
0000
0001
0000
0000
0000
0130
1000
0100
0000
0000
0000
0100
0000
,  // measure 26
1000
0000
0001
0010
0100
0000
1100
0000
,  // measure 27
1001
0000
0000
0000
0011
0000
0000
0000
2100
0000
0000
0000
3010
0000
0100
0001
,  // measure 28
2000
0000
0000
0000
0010
0000
0000
0000
3001
0000
0000
0000
0001
0000
0010
0100
,  // measure 29
0020
0000
0001
0000
1030
0010
0001
0010
,  // measure 30
0001
0100
0001
0100
0010
0000
0000
0000
1000
0100
1000
0100
0010
0000
0000
0000
,  // measure 31
1001
0110
1001
0000
,  // measure 32
0010
0001
1000
0100
1000
0010
0100
0001
,  // measure 33
0010
0000
0001
1000
0001
0000
1000
0000
0100
0000
0010
0000
0100
0000
1000
0000
,  // measure 34
0010
0000
0100
0000
0001
0000
0100
0000
0010
0000
1000
0001
1000
0000
0010
0000
,  // measure 35
0100
0001
0010
0100
1000
0001
0000
0001
,  // measure 36
1000
0100
0010
0100
1000
0001
0010
0100
,  // measure 37
0001
0100
1000
0100
0010
0100
0110
0000
,  // measure 38
0001
0100
0010
0100
0001
0010
1000
0010
,  // measure 39
0100
0010
0000
0100
0010
0000
0100
0000
0110
0000
0000
0000
0000
0000
0000
0000
,  // measure 40
1001
1001
0000
0010
1100
1100
0000
0001
,  // measure 41
0010
0000
0100
0000
1000
0000
0010
0000
0100
0010
0100
0000
0001
0000
0000
0000
,  // measure 42
1010
1010
0000
0001
0110
0110
0000
1000
,  // measure 43
0010
1000
0100
1000
0011
0000
1100
0000
,  // measure 44
0002
0010
0010
0000
1000
0000
0103
0100
,  // measure 45
0020
1000
1000
0000
0130
0001
1000
0000
,  // measure 46
0200
1000
1000
0000
1300
0100
0010
0001
,  // measure 47
0010
0100
1000
0100
0001
0100
2000
0000
,  // measure 48
3020
0100
0100
0000
1000
0000
1030
0001
,  // measure 49
0200
0010
0010
0000
0301
0000
1001
0000
,  // measure 50
0100
0010
1000
0100
1000
0001
0010
0100
,  // measure 51
1000
0001
0000
1000
0001
0000
0100
0000
0020
0000
0000
0000
0000
0000
0000
0000
,  // measure 52
1030
0000
0100
0010
0001
0000
0100
0010
,  // measure 53
2000
0000
0000
0000
3100
0000
0001
0000
0100
0000
0000
0000
1000
0010
1000
0000
,  // measure 54
0001
0000
0011
0000
0100
0010
0100
1000
,  // measure 55
0100
0000
0001
0000
0010
0000
0001
0000
1000
0010
0100
0010
1000
0001
0010
0000
,  // measure 56
0001
0000
0000
0000
0100
0000
0010
0000
2000
0000
0000
0000
3010
0100
0010
0000
,  // measure 57
1000
0000
0000
0000
0001
0000
0010
0000
0100
0000
0000
0000
0010
0001
0010
0000
,  // measure 58
0001
0000
1000
0000
0010
0100
0010
0000
1000
0000
0001
0000
0100
0010
0100
0000
,  // measure 59
0010
1001
0110
0000
,  // measure 60
1100
0110
0011
0000
,  // measure 61
0101
1010
2002
0000
,  // measure 62
3003
0000
0000
0000
,  // measure 63
0000
0000
0000
0000
,  // measure 64
0010
0100
0010
0000
1000
0000
0100
0000
0010
0000
0100
0000
1000
0000
0000
0000
,  // measure 65
0001
0010
0100
0010
0001
1000
0100
0000
,  // measure 66
1000
0010
1000
0000
0010
0000
0100
0000
0001
0000
0100
0000
0010
0000
0000
0000
,  // measure 67
1000
0001
0010
0100
1100
0000
0011
0000
,  // measure 68
1000
0001
1000
0000
0010
0000
0100
0000
0001
0000
1000
0000
0100
0000
0000
0000
,  // measure 69
0010
0001
1000
0100
1000
0010
0100
0000
,  // measure 70
0001
0100
0001
0000
1000
0000
0010
0000
0100
0000
0001
0000
0010
0000
0000
0000
,  // measure 71
0001
1000
0100
0010
0110
0000
1001
0000
,  // measure 72
1000
0001
0010
0100
1100
0000
0101
0000
,  // measure 73
0010
0100
0001
0010
0011
0000
1010
0000
,  // measure 74
0000
0000
0000
0000
,  // measure 75
0000
0000
0000
0000
,  // measure 76
0000
0000
0000
0000
,  // measure 77
0000
0000
0000
0000
,  // measure 78
0010
0000
0001
0000
1000
0010
0100
0000
0010
0000
0000
0000
1001
0000
0000
0000
;
