#TITLE:Run Run;
#SUBTITLE:;
#ARTIST:Ryu☆;
#TITLETRANSLIT:;
#SUBTITLETRANSLIT:;
#ARTISTTRANSLIT:;
#GENRE:;
#CREDIT:;
#BANNER:Run_Run_banner.png;
#BACKGROUND:Run_Run.png;
#LYRICSPATH:;
#CDTITLE:;
#MUSIC:Run Run.ogg;
#OFFSET:-0.310000;
#SAMPLESTART:19.700001;
#SAMPLELENGTH:12.000000;
#LASTBEATHINT:305.000000;
#SELECTABLE:YES;
#BPMS:0.000000=181.000000
;
#STOPS:
;
#BGCHANGES:;
#KEYSOUNDS:;
#ATTACKS:;

//---------------dance-single - ----------------
#NOTES:
     dance-single:
     :
     Easy:
     7:
     0.317872,0.391153,0.093886,0.244104,0.000000,237.000000,227.000000,10.000000,26.000000,0.000000,0.000000,0.317872,0.391153,0.093886,0.244104,0.000000,237.000000,227.000000,10.000000,26.000000,0.000000,0.000000:
0000
0000
0000
0000
,
0000
0000
0000
0000
,
0000
0000
0000
0000
,
0000
0000
0000
0000
,
0000
0000
0000
0000
,
0100
0000
0010
0000
0100
0000
0000
0001
,
0000
0000
0001
0000
0001
0000
0000
1000
,
0000
0000
1000
0000
1000
0000
0000
0010
,
0000
0100
0220
0330
,
0000
1000
0000
0100
0000
1000
0000
0001
,
0000
0010
0000
0001
0000
1000
0000
0010
,
0000
1000
0000
0001
0000
0010
0000
0100
,
0000
1000
0000
0001
0000
1000
0000
0010
,
0100
0010
0100
0010
,
2002
0000
3003
0000
,
0001
0010
0100
0010
,
0001
1000
0001
0000
,
1000
0010
0100
0010
,
1000
0001
2002
3003
,
0100
0001
0100
0010
,
1000
0010
0100
0000
,
0001
0010
0100
1000
,
0010
0001
0220
0330
,
0000
1000
0000
0010
0000
0100
0000
0001
,
0000
1000
0000
0100
0000
0010
0000
0001
,
0000
0010
0000
0100
0000
1000
0000
0001
,
0000
0010
0000
0100
0020
0000
0030
0000
,
0000
0001
0000
1000
0000
0100
0000
1000
,
0000
0010
0000
0100
0000
0001
0000
0010
,
0000
0001
0000
1000
0000
0010
0000
0100
,
0000
0010
0000
1000
0002
0000
0003
0000
,
1000
0000
0100
0000
1000
0000
0000
0010
,
0000
0000
0010
0000
0100
0000
0000
0001
,
0000
0000
0010
0000
0001
0000
0000
1000
,
0000
0001
1000
0000
,
0001
0000
0010
0000
0001
0000
0000
0010
,
0000
0000
0010
0000
0100
0000
0000
1000
,
0000
0100
1000
0001
,
2002
0000
3003
0000
,
0020
0000
0000
0030
,
0200
0000
0000
0300
,
2000
0000
0000
3000
,
0002
0000
0000
0003
,
0100
0000
0010
0000
,
1000
0000
0001
0000
,
0010
0000
0100
0000
,
0010
0000
1000
0000
,
2002
0000
3003
0000
,
0100
0001
0010
0001
,
0100
0010
0100
0000
,
0010
1000
0100
1000
,
0001
0010
0200
0300
,
0010
0001
1000
0010
,
1000
0001
0100
0000
,
0010
0100
0010
1000
,
0001
1000
0220
0330
,
0000
0001
0000
0010
0000
0001
0000
1000
,
0000
0010
0000
1000
0000
0001
0000
0100
,
0000
0001
0000
0010
0000
0100
0000
1000
,
0000
0001
0000
1000
0200
0000
0300
0000
,
0000
1000
0000
0010
0000
0100
0000
0001
,
0000
1000
0000
0010
0000
0100
0000
0001
,
0000
0010
0000
0100
0000
1000
0000
0001
,
0000
1000
0000
0010
0200
0000
0300
0000
,
0001
0010
0001
1000
,
0001
0010
0001
0000
,
1000
0100
1000
0001
,
1000
0100
2020
3030
,
0000
0100
0000
0010
0000
0100
0000
0001
,
0000
0010
0000
0100
0000
1000
0000
0001
,
0000
1000
0000
1001
0000
0010
0000
0011
,
0000
1000
0000
0001
0020
0000
0030
0000
,
0001
0000
0100
0000
0001
0000
0000
1000
,
0000
0000
0010
0000
1000
0000
0000
0100
,
0000
0000
1000
0000
0010
0000
0000
0100
,
0000
0001
0010
0001
;

//---------------dance-single - ----------------
#NOTES:
     dance-single:
     :
     Medium:
     12:
     0.576729,0.639541,0.732312,0.215938,0.004694,430.000000,352.000000,78.000000,23.000000,0.000000,0.000000,0.576729,0.639541,0.732312,0.215938,0.004694,430.000000,352.000000,78.000000,23.000000,0.000000,0.000000:
0000
0000
0000
0000
,
0000
0000
0000
0000
,
0000
0000
0000
0000
,
0000
0000
0000
0000
,
0000
0000
0000
0000
,
1001
0000
0010
0000
0010
0000
0000
1100
,
0000
0000
0001
0000
0010
0000
0000
0101
,
0000
0000
0010
0000
1000
0000
0000
0100
,
0000
0100
1000
0000
0001
0000
1001
0000
,
0000
0100
0000
1010
0000
0100
0000
0011
,
0000
1000
0000
1001
0000
0010
0000
1100
,
0000
0001
0000
0101
0000
0010
0000
1001
,
0000
0100
0000
1100
0000
0001
0010
0100
,
1000
0000
0010
0000
1100
0000
0001
0010
,
0002
0000
0000
0000
0000
1003
0010
0100
,
0010
1000
0100
0000
1000
0010
0100
0000
,
0001
0010
0100
1000
0001
0000
1001
0000
,
0100
0010
0100
0000
0001
0010
0100
0000
,
0010
0001
0100
0001
0020
0000
0130
0000
,
1000
0001
0010
0000
0001
1000
0100
0000
,
1000
0100
0010
0000
0001
0100
0010
1000
,
0010
1000
0100
0000
0010
0001
1000
0000
,
0001
1000
0100
0010
0001
0000
1001
0000
,
0000
0110
0000
1010
0000
1100
0000
0011
,
0000
0101
0000
1001
0000
0010
0100
0010
,
1000
1100
0000
1001
0000
0011
0000
0101
,
0000
1010
0000
1000
0001
0000
0110
0000
,
1000
1001
0000
0011
0000
1001
0000
1100
,
0000
1010
0000
0001
0010
0100
1000
0100
,
0010
0011
0000
1001
0000
0101
0000
1000
,
0010
1000
0100
0010
0002
0000
1003
0000
,
0010
0000
0100
0000
2010
0000
3100
0010
,
0000
0010
0100
0000
1000
0000
0001
0100
,
0000
0010
0200
0000
0301
0000
0010
0001
,
0000
0001
1000
0000
2200
0000
3300
0000
,
0001
0000
1000
0000
1020
0000
0130
0001
,
0000
0001
0010
0000
0100
0000
1000
0010
,
0000
0010
0100
0000
0001
0000
0010
0100
,
0000
0010
0100
0000
1000
0000
1001
0000
,
0020
0000
1000
0000
1030
0000
0001
0020
,
0000
0001
0001
0000
0100
0000
0130
0000
,
2000
0000
0001
0000
3001
0000
0100
0020
,
0000
1000
1000
0000
0100
0000
0130
0000
,
0002
0000
0010
0000
0013
0000
1000
0200
,
0000
0010
0310
0000
0100
0000
1000
0001
,
0000
0001
1000
0000
0010
0000
0100
0010
,
0000
1000
0001
0000
0010
0000
0001
0000
,
1000
0010
0100
0001
1000
0000
0110
0000
,
0001
0010
0100
0010
0001
0010
0100
0010
,
0001
0000
1000
0000
0010
0100
0010
0000
,
0010
1000
0100
1000
0010
1000
0100
1000
,
0001
0100
0202
0303
,
0010
1000
0001
1000
0010
1000
0001
1000
,
0010
0000
1000
0000
0100
0010
0001
0000
,
1000
0001
0100
0001
1000
0001
0100
0001
,
1000
0010
0220
0330
,
0000
1010
0000
1100
0000
0011
0000
1001
,
0000
1100
0000
1000
0001
0010
0100
1000
,
0001
1001
0000
1010
0000
1100
0000
0101
,
0000
0110
0000
0010
1000
0000
1001
0000
,
0010
0011
0000
1001
0000
0101
0000
0011
,
0000
1100
0000
0010
0100
0001
1000
0100
,
1000
1010
0000
1001
0000
0011
0000
1001
,
0000
0110
0000
0100
0001
0000
0011
0000
,
1000
0100
0010
0000
0010
0100
1000
0000
,
0001
0100
0010
0000
0010
0100
0001
0000
,
1000
0100
0001
0000
0001
0100
1000
0000
,
0011
0110
2200
3300
,
1000
1001
0000
0110
0000
1010
0000
0101
,
0000
0011
0000
1001
0000
0010
0100
0010
,
1000
1100
0000
0011
0000
0101
0000
1001
,
0000
0110
0000
0100
0010
0000
1001
0000
,
0020
0000
0001
0000
0031
0000
0000
2000
,
0000
0010
0010
0000
3100
0000
0000
0020
,
0000
0100
0100
0000
1030
0000
0000
1000
,
0000
0000
0001
0000
1000
0000
0000
0000
0001
0000
0000
0100
0000
0000
0000
0000
;

//---------------dance-single - ----------------
#NOTES:
     dance-single:
     :
     Hard:
     14:
     0.757795,0.852721,0.704146,0.150218,0.140829,565.000000,490.000000,75.000000,16.000000,0.000000,0.000000,0.757795,0.852721,0.704146,0.150218,0.140829,565.000000,490.000000,75.000000,16.000000,0.000000,0.000000:
0000
0000
0000
0000
,
0000
0000
0000
0000
,
0000
0000
0000
0000
,
0000
0000
0000
0000
,
0000
0000
0000
0000
,
1001
0000
0000
0000
0010
0000
0000
0000
1100
0000
0000
0010
0000
0000
1001
0000
,
0000
0000
1000
0000
1001
0000
0000
0000
0010
0000
0000
0100
0000
0000
0011
0000
,
0000
0000
0010
0000
1000
0000
0001
0000
0010
0000
0000
1100
0000
0000
0001
0000
,
0000
0000
1000
0000
0010
0000
1000
0000
0001
0000
0100
0010
0100
0000
0001
0000
,
1000
1010
0010
0100
0001
0010
0100
1000
,
0001
0101
0100
0010
1000
0001
0010
0100
,
1000
1010
0010
1000
0100
0010
0001
0100
,
0010
0110
1000
0001
1000
0100
0010
0001
,
1000
0000
0101
0000
1010
0000
0001
1000
,
0220
0000
0000
0330
0000
1000
0100
0001
,
0100
1000
0010
0100
0001
0010
0100
1000
,
0010
0001
0010
1000
0001
0010
0100
1000
,
0001
0100
1000
0100
0010
1000
0100
0001
,
0100
0010
0100
1000
0001
0000
0110
0000
,
1000
0001
0010
0100
0010
0001
1000
0010
,
0100
1000
0100
0001
0010
0100
1000
0001
,
1000
0000
0010
0100
0010
0000
0100
0000
0001
0010
0001
0000
1000
0000
0010
0000
,
0001
0010
1000
0010
0100
0001
1001
0000
,
0100
0110
0010
1000
0100
0010
0100
1100
,
1000
1001
0001
0010
0001
0100
1000
0101
,
0001
0011
0010
0100
1000
0010
0100
0110
,
0010
0001
0010
1000
0100
0000
1001
0000
,
0100
0110
0010
1000
0001
0010
0001
1001
,
1000
1010
0010
0100
0001
1000
0100
0110
,
0100
1100
1000
0001
0010
0001
0100
0110
,
0010
0100
1000
0100
0001
0000
1001
0000
,
0210
0000
0000
0000
0001
0000
0000
0000
0001
0000
0000
0310
0000
0000
2010
0000
,
0000
0000
0100
0000
0100
0000
0000
0000
0010
0000
0000
3010
0000
0000
0102
0000
,
0000
0000
0010
0000
0010
0000
0000
0000
1000
0000
0000
1003
0000
0000
0210
0000
,
0000
0001
0001
0000
1000
0000
0301
0000
,
0012
0000
0000
0000
1000
0000
0000
0000
1003
0000
0000
0010
0000
0000
0210
0000
,
0000
0000
1000
0000
1000
0000
0000
0000
0001
0000
0000
0310
0000
0000
2010
0000
,
0000
0000
0100
0000
0100
0000
0000
0000
0001
0000
0000
3001
0000
0000
0012
0000
,
0000
0100
0100
0000
0010
0000
0013
0000
,
1001
0000
0100
0100
0000
0010
0010
1000
,
0000
0100
1000
0001
1000
0100
0010
0000
,
0101
0000
0010
0000
1000
1000
0001
0010
,
0000
0001
1000
0010
0100
0000
1001
0000
,
0101
0000
0010
0010
0000
0001
0001
1000
,
0000
0100
1000
0010
0100
0010
1000
0001
,
0000
0001
0100
1000
0100
0010
1000
0100
,
0000
0100
0010
0001
1000
0000
1001
0000
,
0100
0010
0100
0010
0100
0010
0100
0010
0100
0000
0000
0000
1001
0000
0000
0000
,
0010
0100
1000
0100
0001
0010
0100
1000
,
0001
0100
0010
1000
0010
0100
0001
0010
,
0100
1000
0001
1000
0001
0010
0100
0010
,
1000
0010
0001
0100
1000
0000
0110
0000
,
1000
1000
0100
1000
0001
0001
0100
0001
,
0010
0010
0100
0010
1000
0100
0001
0010
,
0001
1000
0000
0000
0010
0000
1000
0010
1000
0000
0001
0000
0010
0000
0100
0000
,
1000
0001
1000
0000
0010
0000
0100
0000
0001
0000
0010
0000
0110
0000
0000
0000
,
1000
1100
0100
0110
0010
0011
0001
0100
,
0001
0101
0100
0110
0010
1010
1000
0001
,
1000
1010
0010
0110
0100
0101
0001
1000
,
0010
0000
0100
0001
0100
0000
0010
0000
1000
0000
0100
0000
0110
0000
0000
0000
,
1000
0011
0001
1001
0010
1010
1000
0100
,
1000
1001
0001
0010
0100
0110
0001
0000
,
0001
1010
1000
0001
0010
0011
0100
0010
,
1000
0000
0001
0010
0100
0000
1000
0000
0010
0000
0100
0000
1001
0000
0000
0000
,
0100
1000
0100
0001
0100
1000
0100
0000
,
0010
1000
0010
0001
0010
1000
0010
0000
,
1000
0001
0010
0001
0100
0010
1000
0100
,
1100
0000
0101
0000
0110
0000
2002
3003
,
0100
0000
0001
0000
0010
0001
1000
0000
0010
0000
0100
0000
0010
1000
0100
0000
,
1000
0000
0001
0000
0010
0001
0100
0000
0010
0000
1000
0000
1010
0000
0010
0000
,
0100
0000
0001
0000
0010
0001
1000
0000
0010
0000
0100
0000
0001
1000
0100
0000
,
1000
1010
0010
0100
0101
0000
1100
0000
,
0012
0000
0000
0000
1000
0000
0000
0000
1003
0000
0000
0010
0000
0000
0210
0000
,
0000
0000
1000
0000
1000
0000
0000
0000
0001
0000
0000
0310
0000
0000
2010
0000
,
0000
0000
0100
0000
0100
0000
0000
0000
0001
0000
0000
3001
0000
0000
0021
0000
,
0000
0000
0000
0000
0000
0000
0100
0000
0000
0000
0000
0000
0100
0000
0000
0000
0000
0000
0000
0000
0000
0000
0000
0000
0001
0000
0000
0000
0000
0000
0000
0000
0030
1000
0000
0000
0000
0000
0000
0000
0000
0000
0000
0000
0000
0000
0000
0000
;

//---------------dance-double - ----------------
#NOTES:
     dance-double:
     :
     Hard:
     13:
     0.646473,0.675071,0.600871,0.178384,0.042249,482.000000,418.000000,64.000000,19.000000,0.000000,0.000000,0.646473,0.675071,0.600871,0.178384,0.042249,482.000000,418.000000,64.000000,19.000000,0.000000,0.000000:
// measure 0
00000000
00000000
00000000
00000000
,  // measure 1
00000000
00000000
00000000
00000000
,  // measure 2
00000000
00000000
00000000
00000000
,  // measure 3
00000000
00000000
00000000
00000000
,  // measure 4
00000000
00000000
00000000
00000000
,  // measure 5
10010000
00000000
00100000
00000000
00001000
01000000
00010000
00100000
,  // measure 6
00000000
00001000
00010000
00000000
00000010
00001000
00000100
00010000
,  // measure 7
00000000
00000010
00001000
00000000
00000001
00000010
00000100
00010000
,  // measure 8
00000000
00000010
00001000
00000100
00010000
00000000
00011000
00000000
,  // measure 9
00000000
00110000
00000000
11000000
00000000
10010000
00000000
00101000
,  // measure 10
00000000
00010100
00000000
00001001
00000000
00000110
00000000
00010100
,  // measure 11
00000000
00011000
00000000
01001000
00000000
10010000
00000000
10100000
,  // measure 12
00000000
11000000
00000000
00101000
00000000
00010000
00001000
00010000
,  // measure 13
00000010
00001100
00100000
00011000
,  // measure 14
02002000
00000000
00000000
00000000
03003000
00100000
00010000
01000000
,  // measure 15
00100000
10000000
01000000
00010000
01000000
10000000
00010000
01000000
,  // measure 16
00001000
00010000
00000100
00001000
00000001
00000010
00000100
00001000
,  // measure 17
00000001
00000100
00001000
00000100
00000001
00010000
00000100
00010000
,  // measure 18
00001000
01000000
00010000
10000000
00100000
00000000
01100000
00000000
,  // measure 19
10000000
00100000
00010000
00100000
10000000
00010000
00100000
00001000
,  // measure 20
00010000
00000010
00001000
00000001
00000010
00001000
00000010
00000001
,  // measure 21
00001000
00000100
00000001
00000100
00010000
00001000
01000000
00010000
,  // measure 22
10000000
00100000
01000000
00001000
00010000
00000000
00011000
00000000
,  // measure 23
00000000
00001010
00000000
00000101
00000000
00010010
00000000
00001100
,  // measure 24
00000000
00100100
00000000
00011000
00000000
00010000
00100000
10000000
,  // measure 25
00010000
10010000
00000000
11000000
00000000
00110000
00000000
01010000
,  // measure 26
00000000
00101000
00000000
00010100
00000100
00001000
00000010
00000100
,  // measure 27
00000001
00000011
00000000
00001100
00000000
00011000
00000000
00110000
,  // measure 28
00000000
11000000
00000000
10010000
00000000
00100000
01000000
00100000
,  // measure 29
10000000
10010000
00000000
00011000
00000000
00001001
00000000
00011000
,  // measure 30
00000000
00010000
00001000
01000000
00010000
00000000
10010000
00000000
,  // measure 31
00200000
00000000
00000000
00000000
00001000
00000000
00000000
00000000
00010000
00000000
00000000
00301000
00000000
00000000
00002000
00000000
,  // measure 32
00000000
00000000
00010000
00000000
00010000
00000000
00000000
00000000
00000100
00000000
00000000
00013000
00000000
00000000
00000020
00000000
,  // measure 33
00000000
00000000
00000100
00000000
00000100
00000000
00000000
00000000
00001000
00000000
00000000
00001030
00000000
00000000
00000002
00000000
,  // measure 34
00000000
00000000
00000100
00000000
00000100
00000000
00000000
00000000
00000010
00000000
00000000
00000013
00000000
00000000
00000000
00000000
,  // measure 35
00002001
00000000
00000000
00000000
00000010
00000000
00000000
00000000
00000010
00000000
00000000
00003100
00000000
00000000
00020000
00000000
,  // measure 36
00000000
00000000
00001000
00000000
00001000
00000000
00000000
00000000
00100000
00000000
00000000
00031000
00000000
00000000
02000000
00000000
,  // measure 37
00000000
00000000
10000000
00000000
10000000
00000000
00000000
00000000
03010000
00000000
00000000
00100000
00000000
00000000
00001000
00000000
,  // measure 38
00000000
00010000
00000010
00000000
00001000
00000000
00001001
00000000
,  // measure 39
00000120
00000000
00010000
00000000
00010030
00000000
00000000
00002010
,  // measure 40
00000000
00000001
00000001
00000000
00000020
00000000
00003030
00000000
,  // measure 41
00010200
00000000
00100000
00000000
00100000
00000000
00010000
00010300
,  // measure 42
00000000
00001000
00010000
00000000
02002000
00000000
03003000
00000000
,  // measure 43
00120000
00000000
10000000
00000000
10000000
10030000
00000000
02100000
,  // measure 44
00000000
00010000
00010000
00000000
10000000
00000000
03010000
00100000
,  // measure 45
00000000
00100000
01000000
00000000
10000000
01000000
00010000
00001000
,  // measure 46
00000000
00010000
00001000
00010000
00000010
00000100
00000010
00000000
,  // measure 47
00000001
00000010
00000100
00010000
00001000
00000000
00011000
00000000
,  // measure 48
00010000
01000000
10000000
01000000
00010000
00001000
00000001
00001000
,  // measure 49
00010000
00001000
00000010
00001000
00010000
00001000
00100000
00000000
,  // measure 50
00010000
00100000
10000000
00100000
00010000
00001000
00000100
00000001
,  // measure 51
00000010
00001000
00010000
00000100
00001000
00000000
00011000
00000000
,  // measure 52
00010000
00100000
10000000
00100000
00010000
00001000
00000010
00001000
,  // measure 53
00010000
00001000
00000100
00000001
00000010
00000100
00001000
00000000
,  // measure 54
00000100
00010000
00001000
01000000
00100000
10000000
00010000
00100000
,  // measure 55
00001000
00010000
00000010
00000100
00000001
00000000
00001001
00000000
,  // measure 56
00000010
00010000
00001000
01000000
00000010
00010000
00001000
01000000
,  // measure 57
00001000
01000000
00000010
00010000
00000010
01000000
00001000
00010000
,  // measure 58
00001000
00010000
00000100
00001000
00000001
00000010
00000100
00010000
,  // measure 59
00001000
01000000
00100000
10000000
01000000
00000000
00110000
00000000
,  // measure 60
10000000
00010000
00100000
00001000
10000000
00010000
00100000
00001000
,  // measure 61
00010000
00000010
00000100
00001000
00010000
00000010
00000100
00001000
,  // measure 62
00000100
00000001
00000010
00000100
00010000
00001000
00100000
01000000
,  // measure 63
10000000
00010000
00100000
00001000
00010000
00000000
00001010
00000000
,  // measure 64
00000001
00000100
00001000
00000000
00010000
01000000
10000000
00000000
,  // measure 65
10000000
01000000
00010000
00000000
00001000
00000100
00000001
00000000
,  // measure 66
00000010
00010000
00000100
00000000
00100000
00001000
01000000
00000000
,  // measure 67
10010000
00000000
00011000
00000000
00001001
00000000
00022000
00033000
,  // measure 68
00010000
01000000
10000000
00100000
00010000
00001000
00000100
00000001
,  // measure 69
00000010
00000100
00010000
00001000
00100000
01000000
10000000
00000000
,  // measure 70
00100000
10000000
01000000
00010000
00001000
00010000
00000010
00001000
,  // measure 71
00000001
00000010
00000100
00010000
00001000
00000000
01001000
00000000
,  // measure 72
00100000
00000000
10000000
00000000
10010000
00000000
00100000
00100000
,  // measure 73
00000000
00000000
00001000
00000000
00001000
00000000
00000000
00000000
00010000
00000000
00000000
00000010
00000000
00000000
00001000
00000000
,  // measure 74
00000000
00000100
00010000
00000000
00000010
00000100
00000001
00001000
,  // measure 75
00000000
00000000
00000100
00000000
00010000
00000000
00000000
00000000
01000000
00000000
00000000
11000000
00000000
00000000
00000000
00000000
;
