#TITLE:Rotter Tarmination;
#SUBTITLE:;
#ARTIST:sampling masters MEGA;
#TITLETRANSLIT:;
#SUBTITLETRANSLIT:;
#ARTISTTRANSLIT:;
#GENRE:;
#CREDIT:;
#BANNER:Rotter Tarmination_banner.png;
#BACKGROUND:Rotter Tarmination.png;
#LYRICSPATH:;
#CDTITLE:;
#MUSIC:Rotter Tarmination.ogg;
#OFFSET:-0.110000;
#SAMPLESTART:32.509998;
#SAMPLELENGTH:11.000000;
#LASTBEATHINT:359.250000;
#SELECTABLE:YES;
#DISPLAYBPM:200.000000;
#BPMS:0.000000=200.000000
,271.000000=100.000000
,292.000000=800.000000
,308.000000=400.000000
,309.000000=200.000000
,309.500000=100.000000
,310.000000=200.000000
,334.000000=400.000000
,358.000000=25.000000
;
#STOPS:32.000000=0.300000,
32.500000=0.300000,
166.000000=0.900000
;
#BGCHANGES:;
#KEYSOUNDS:;
#ATTACKS:;

//---------------dance-single - ----------------
#NOTES:
     dance-single:
     :
     Easy:
     11:
     0.475586,0.668339,0.551930,0.332910,0.061326,380.000000,317.000000,63.000000,38.000000,0.000000,0.000000,0.475586,0.668339,0.551930,0.332910,0.061326,380.000000,317.000000,63.000000,38.000000,0.000000,0.000000:
0000
0000
0000
0000
,
0000
0000
0000
0000
,
0000
0000
0000
0000
,
0000
0000
0000
0000
,
0000
0000
0000
0000
,
0110
0000
0001
0000
,
1000
0100
1000
0000
,
1001
0000
0010
0000
,
0100
0100
0100
0000
0001
0000
0010
0000
,
0001
0010
0100
1000
,
0100
1000
0010
1000
,
0010
0100
0001
0010
,
0100
0000
1000
0100
1000
0000
0001
0000
,
0100
0001
0011
1001
,
0011
1001
1000
0010
,
1000
0100
1000
0001
,
0100
0000
0001
0010
0001
0000
1000
0000
,
0001
0100
0110
0101
,
0110
0000
0101
0000
0000
0010
0000
1000
,
0000
0100
0000
1000
0000
0001
0000
0010
,
0000
0001
1000
0001
0100
0000
0110
0000
,
1000
1100
0001
0011
,
1001
0000
0220
0000
0330
0001
0000
1000
,
0000
0100
0000
1000
0000
0010
0000
0100
,
0000
0001
1000
0001
1000
0000
1010
0000
,
0001
0011
0100
0110
,
0010
1010
1000
0001
,
0010
0001
0100
0001
,
0010
0000
0100
1000
0100
0000
0010
0000
,
0001
0100
1001
0101
,
1001
0101
1000
0010
,
1000
0001
0010
0100
,
1000
0000
0010
1000
0010
0000
0100
0000
,
0010
1000
1001
1010
,
1001
0000
1010
0000
0000
0100
0000
0010
,
0000
1000
0000
0001
0000
0010
0000
0001
,
0000
1000
0010
1000
0001
0000
0101
0000
,
1000
1100
0010
0110
,
1000
0000
1001
0000
0000
0010
0000
0001
,
0000
0100
0000
0010
0000
1000
0000
0010
,
0000
1000
0001
1000
0010
0000
0110
0000
,
1000
0000
0000
0000
1001
0000
0000
0000
0220
0330
0000
0000
1000
0000
0000
0000
,
1100
1000
1010
1000
,
1100
0000
1000
0100
1000
0000
0001
0000
,
0011
0000
0001
1000
0001
0000
0011
0000
,
1001
2200
3300
0010
,
0110
0000
0100
0001
0100
0000
0100
0000
,
0110
0000
0010
1000
0010
0000
0100
0000
,
0110
0000
1000
0001
1000
0000
0220
0000
,
0000
0000
0330
0000
0000
0000
0001
0010
,
0001
1000
0010
1000
,
0001
0000
0010
0000
0001
1000
0100
0000
,
1000
0000
0010
1000
0100
0000
1100
0000
,
1001
0000
0202
0000
0303
0000
0010
0100
,
0001
0010
0100
1000
,
0010
0000
1000
0000
0001
0100
0010
0000
,
0100
0001
0010
0011
,
0110
2200
3300
1000
,
0100
0001
0100
0000
1000
0000
0100
0000
,
0001
0100
1000
0000
0100
0000
0001
0000
,
0100
1000
0001
0000
0100
0000
0001
0000
,
0100
0202
0303
1000
,
0010
0001
0010
0000
1000
0000
0010
0000
,
0001
0010
1000
0000
0010
0000
0001
0000
,
0010
1000
0001
0000
0010
0000
0002
0000
,
0203
2300
3020
0032
,
0000
0000
0003
2000
,
0000
0000
0000
0000
0000
0000
0000
0000
3000
0000
0000
0000
0010
0000
0000
0100
,
0000
0000
0010
0000
0000
0100
0000
0000
0001
0000
0000
0010
0000
0000
0001
0000
,
0000
1000
0000
0000
0010
0000
0000
1000
0000
0000
0100
0000
0000
0010
0000
0000
,
0001
0000
0000
0010
0000
0000
0100
0000
0000
1001
0000
0000
0100
0000
0000
0110
,
0000
0000
0001
0000
0000
0011
0000
0000
1000
0000
0000
1100
0000
0000
0001
0000
,
0000
1001
0000
0000
0100
0000
0010
0100
0000
0000
0001
0000
0010
0100
0000
0000
,
2002
0000
0000
0000
,
0000
0000
0000
0000
,
3003
0000
0000
0000
,
0000
0000
0000
0000
,
0000
0000
0100
0010
,
1000
0010
1000
0100
,
0010
0001
0010
0000
0001
0000
1000
0000
,
0001
0100
0010
0100
,
0001
1000
2002
3003
,
0220
0330
2002
3003
,
0220
0330
2000
0000
,
3200
0000
0320
0000
,
0032
0000
2003
0000
,
0000
0000
0000
0000
,
0000
0000
0002
0000
,
0000
0000
0000
0000
,
3003
0000
0220
0330
;

//---------------dance-single - ----------------
#NOTES:
     dance-single:
     :
     Medium:
     14:
     0.737158,0.982851,0.464322,0.262824,0.162075,589.000000,536.000000,53.000000,30.000000,0.000000,0.000000,0.737158,0.982851,0.464322,0.262824,0.162075,589.000000,536.000000,53.000000,30.000000,0.000000,0.000000:
0000
0000
0000
0000
,
0000
0000
0000
0000
,
0000
0000
0000
0000
,
0000
0000
0000
0000
,
0000
0000
0000
0000
,
0001
0000
0000
0100
0000
0000
0010
0000
0100
0000
0000
0001
0000
0000
0010
0000
,
0100
0000
0000
1000
0000
0000
0010
0000
1000
0000
0100
0000
0001
0000
0100
0000
,
1000
0000
0000
0010
0000
0000
0100
0000
0001
0000
0000
0010
0000
0000
0100
0000
,
0110
1001
0110
0000
1000
0010
1000
0010
,
0100
0001
0100
0001
0010
0001
0010
0001
,
1000
0100
0010
0000
0001
0100
0010
0000
,
1000
0010
0100
0010
1000
0100
0010
0001
,
0010
0100
1000
0000
0010
0100
0010
0000
,
1000
0100
0010
0001
1001
0000
0110
0000
,
1001
0000
0110
0000
1000
0001
0010
0000
,
0001
0100
0010
1000
0100
0010
0001
0100
,
0010
0100
0001
0000
0010
0100
1000
0000
,
0010
0100
0001
1000
1001
0000
0110
0000
,
1001
0000
0110
0000
0001
0100
0010
0100
,
0001
0100
1000
0100
0001
0100
0010
0100
,
1000
0100
0001
0000
1000
0100
1100
0000
,
0001
0010
0011
0000
0100
0001
0010
0100
,
1000
0010
0110
0000
1000
0010
0100
0010
,
1000
0010
0001
0010
1000
0010
0100
0010
,
1000
0100
0010
0000
0001
0100
0101
0000
,
1000
0010
1010
0000
0100
0001
1000
0010
,
1000
0100
0110
0000
0001
0100
0010
0100
,
0001
0100
1000
0100
0001
0010
0100
1000
,
0010
0100
0010
0000
1000
0100
0010
0000
,
0100
1000
0001
0100
0110
0000
1001
0000
,
0110
0000
1001
0000
0010
0001
1000
0001
,
0010
0100
1000
0100
0001
0100
1000
0010
,
0100
0001
0010
0000
0001
1000
0100
0000
,
1000
0010
0100
0001
1001
0000
0110
0000
,
1001
0000
0110
0000
1000
0100
0010
0100
,
1000
0100
0001
0100
1000
0100
0010
0100
,
1000
0001
0100
0000
0010
0100
0110
0000
,
1000
0100
1100
0000
0001
0010
0011
0000
,
1001
0000
0110
0000
0001
0010
0100
0010
,
0001
0010
1000
0010
0001
0010
0100
0010
,
1000
0010
0001
0000
1000
0001
1001
0000
,
0100
0000
0010
0000
0110
0000
0000
0000
2002
3003
0000
0000
0100
0000
0100
0000
,
0100
0010
0100
0100
0100
0001
0010
0010
,
0010
0100
0010
0010
0010
0000
0001
0001
,
0001
1000
0001
0001
0001
0010
0011
0000
,
1100
0000
0101
0000
1010
0000
1000
0100
,
1000
0100
0001
0100
1000
0100
0010
1000
,
0010
0001
0010
1000
0010
0000
0001
0100
,
0001
1000
0010
0100
0001
0010
0011
0000
,
0101
0000
1010
0000
1100
0000
1000
0001
,
0010
0000
0001
0100
0010
0100
0001
0010
,
0100
1000
0010
1000
0100
0000
1000
0010
,
0100
0000
0010
1000
0001
0010
0011
0000
,
1100
0000
0022
0000
0033
0000
0100
0010
,
1000
0000
0001
1000
0010
0100
0001
0010
,
0100
1000
0010
1000
0001
0000
1010
0000
,
0001
0100
0001
0010
0100
0000
1100
0000
,
0101
0000
2200
0000
3300
0000
0001
0100
,
2000
3100
0001
0100
2000
3100
0001
0010
,
2000
3010
0001
0010
2000
0000
3010
0001
,
0020
1030
0010
0001
0020
1030
0010
0001
,
0100
0000
0220
0000
0330
0000
1000
0100
,
0002
0103
1000
0100
0002
0103
1000
0010
,
0002
0013
1000
0010
0002
0000
0013
0100
,
0001
0000
1000
0100
0010
0000
0100
1000
,
0001
0010
0001
0100
0010
1000
0200
0000
,
0010
0000
0000
0000
0010
0000
0000
0000
0310
0000
0000
0000
1001
0000
0000
0100
,
0000
0000
0010
0000
0000
0220
0000
0000
0000
0330
0000
0000
1000
0100
0010
0100
,
0000
0000
1000
0010
1000
0100
0000
0000
0010
0001
0100
0001
0000
0100
0001
0010
,
0100
1000
0000
0000
0010
0100
0001
0100
0000
0000
0010
0100
0001
0010
0000
0000
,
0001
0010
0100
0010
0000
0100
1000
0010
0100
0020
0000
0000
1030
0100
0001
0100
,
0000
0000
1000
0010
0001
0010
0000
0000
1000
0000
1000
0001
0000
0001
0010
0100
,
1000
0001
0000
0000
0001
0100
1000
0100
0000
0000
0001
0010
1000
0010
0000
0000
,
0220
0000
0000
0000
,
0000
0000
0000
0000
,
0000
0000
0000
0000
,
0330
0000
0000
0000
,
0000
0000
0000
0000
0001
0100
0010
1000
,
0100
0010
0100
1000
0001
0100
0010
0100
,
0001
0010
0100
0000
1000
0010
0100
0001
,
1000
0010
0100
0001
1000
0100
0010
0001
,
1000
0100
0010
0001
0010
1000
0010
0001
,
0100
1000
0100
0001
0100
0010
1000
0001
,
0010
0100
1000
0001
0020
0000
0000
0000
,
0230
0000
2300
0000
,
3002
0000
0103
0010
,
0100
0010
0100
0010
,
0100
0010
1000
0001
,
1000
0000
0001
0000
0010
0100
0010
0100
,
0010
0000
2002
3003
;

//---------------dance-single - ----------------
#NOTES:
     dance-single:
     :
     Hard:
     18:
     1.021258,1.690503,0.823514,0.385475,0.709624,816.000000,722.000000,94.000000,44.000000,0.000000,0.000000,1.021258,1.690503,0.823514,0.385475,0.709624,816.000000,722.000000,94.000000,44.000000,0.000000,0.000000:
// measure 0
0000
0000
0000
0000
,  // measure 1
0000
0000
0000
0000
,  // measure 2
0000
0000
0000
0000
,  // measure 3
0000
0000
0000
0000
,  // measure 4
0000
0000
0000
0000
,  // measure 5
1001
0000
0000
0100
0010
0000
1000
0000
0001
0000
0010
0100
0000
0000
1000
0000
,  // measure 6
0010
0000
0000
0100
0010
0000
1000
0000
0001
1000
0010
0100
0001
0010
0100
1000
,  // measure 7
0010
0000
0000
0100
0001
0000
0010
0000
0100
0000
0000
1000
0010
0000
0100
0000
,  // measure 8
0101
0000
0011
0000
1100
0000
0000
0000
0010
0000
0000
0010
1000
0000
0000
1000
,  // measure 9
0100
0000
0000
0100
0001
0000
0000
0001
0010
0000
0000
0010
0100
0000
0000
0100
,  // measure 10
1000
0001
1000
0001
1000
0001
1000
0001
1000
0000
1000
0000
0100
0000
0001
0000
,  // measure 11
0100
0000
1000
0010
0100
0000
0001
0000
0010
0000
0100
0000
1000
0000
1010
0000
,  // measure 12
0000
0001
0011
1000
0100
0001
0100
1000
,  // measure 13
0010
0000
1000
0001
0010
0000
0001
0000
0011
0000
0000
0000
2001
0000
3002
0000
,  // measure 14
0013
0001
1001
0000
0100
0010
1000
0010
,  // measure 15
0001
0000
0010
1000
0100
0000
0010
0000
0001
0000
0100
0000
1000
0000
0100
0010
,  // measure 16
1000
0000
0001
0000
0010
0100
1000
0000
0010
0000
0100
0000
0001
0000
1000
0000
,  // measure 17
0001
0000
0010
0100
1000
0000
0010
0000
1010
0000
0000
0000
1002
0000
2003
0000
,  // measure 18
3100
1000
0101
0000
0100
0001
0100
1000
,  // measure 19
0100
0000
0001
0010
0100
0000
1000
0000
0010
0000
1000
0000
0010
0000
0001
0000
,  // measure 20
0010
0000
1000
0001
0010
0000
0100
0000
1000
0000
0001
0000
0220
0000
0330
0000
,  // measure 21
0001
1000
0220
0330
0001
0010
2200
3300
,  // measure 22
1000
0010
0202
0303
0010
1000
0001
0010
,  // measure 23
0100
0000
0001
0100
1000
0000
0001
0000
1000
0000
0010
0000
0100
0000
1000
0000
,  // measure 24
0100
0000
0001
0010
0100
0000
1000
0000
0010
0000
0100
0000
2002
0000
3003
0000
,  // measure 25
0100
0010
2002
3003
0001
0100
2020
3030
,  // measure 26
1000
0000
0010
0000
0202
0000
0003
0000
0000
0000
0310
0000
1000
0000
0001
1000
,  // measure 27
0100
0000
0010
0000
0100
1000
0001
0000
0100
0000
0010
0000
0100
0000
0001
0010
,  // measure 28
0100
1000
0010
0000
0110
0000
0001
1000
,  // measure 29
0100
0000
1000
0001
0100
0000
0010
0000
0110
0000
0000
0000
1010
0000
1010
0000
,  // measure 30
0000
0000
0011
0000
0001
0000
0011
0000
0000
0000
0100
0000
0001
0000
1000
0001
,  // measure 31
0010
0000
0100
0000
0010
0001
1000
0000
0010
0000
0100
0000
0010
0000
1000
0100
,  // measure 32
0010
0001
0100
0000
1001
0000
0010
1000
,  // measure 33
0001
0000
1000
0100
0010
0000
0001
0000
1001
0000
0000
0000
0110
0000
1010
0000
,  // measure 34
0000
0011
0110
0000
1000
0010
0100
0010
,  // measure 35
1000
0000
0001
0000
0010
0100
1000
0000
0010
0000
0100
0000
0001
0000
0100
0000
,  // measure 36
0010
0000
1000
0000
0001
1000
0100
0000
0010
0000
0100
0000
2200
0000
3300
0000
,  // measure 37
0010
0100
0202
0303
0010
0100
2002
3003
,  // measure 38
0100
0010
2002
3003
0010
0001
1000
0001
,  // measure 39
0010
0000
0100
1000
0010
0000
0100
0000
0001
0000
0100
0000
1000
0000
0100
0000
,  // measure 40
0001
0000
0010
0001
0100
0000
0010
0000
1000
0000
0001
0000
0202
0000
0303
0000
,  // measure 41
1000
0000
0010
0000
2020
0000
3030
0000
0220
0330
0000
0000
0011
0000
0001
0000
,  // measure 42
0011
0001
0010
0100
0010
0001
0011
0010
,  // measure 43
0110
0100
1100
0000
0101
0000
1010
1000
,  // measure 44
1010
1000
0010
0100
0010
1000
1100
0001
,  // measure 45
0011
1000
1001
0000
0110
0000
0101
0100
,  // measure 46
0110
0000
0100
0000
0001
0000
0010
0100
1000
0000
0010
0000
1010
0000
0010
0000
,  // measure 47
0110
1000
1100
0000
0101
0000
0011
0010
,  // measure 48
0011
0000
0010
0000
0100
1000
0001
0000
0100
0010
1000
0001
0020
0000
0000
0000
,  // measure 49
0001
0100
0000
0000
1000
0100
0000
0000
0001
0130
0000
0000
1000
0000
1000
0000
,  // measure 50
1000
0000
0010
0100
1000
0100
0010
0000
0100
0000
0001
1000
0100
0000
0010
0000
,  // measure 51
0100
0000
1000
0010
0100
0000
0010
0000
0110
0000
0000
0000
0001
0000
0001
0000
,  // measure 52
0001
0000
0100
0001
0010
0001
0100
0000
0010
0000
0100
0001
0010
0000
0100
1000
,  // measure 53
0001
0000
0100
0001
1000
0000
0000
0000
0110
0000
0000
0000
0001
0000
0001
0000
,  // measure 54
0001
0000
1000
0100
0010
0000
0100
0000
1000
0010
0100
0000
0001
0010
0100
0000
,  // measure 55
1000
0000
1000
0000
1000
0010
0100
0000
0101
0000
0000
0000
0011
0000
0010
0000
,  // measure 56
0010
0000
0100
1000
0010
0000
0100
0000
0001
1000
0010
0000
0200
0000
0000
0000
,  // measure 57
1000
0010
0000
0000
0001
0010
0000
0000
1000
0310
0000
0000
0001
0000
0010
0000
,  // measure 58
1100
0010
0001
0010
1100
0010
0001
0010
,  // measure 59
1100
0010
0001
0110
1100
0000
1000
0010
,  // measure 60
0101
0010
1000
0010
0101
0010
1000
0010
,  // measure 61
0101
0010
0220
0000
0330
0000
1000
0100
,  // measure 62
0011
0100
1000
0100
0011
0100
1000
0100
,  // measure 63
0011
0100
1000
0110
0011
0000
1000
0001
,  // measure 64
0010
0000
0100
1000
0001
0000
1000
0000
0010
0000
0100
0001
0010
0000
0001
1000
,  // measure 65
0100
0000
1000
0001
0100
0010
0100
0010
1000
0001
1000
0001
0010
0000
0100
0000
,  // measure 66
1000
0000
0001
0000
1000
0001
0100
0010
1000
0001
0100
0010
0100
0000
0000
1010
,  // measure 67
0000
0000
0011
0000
0000
0220
0000
0000
0330
0000
0000
0000
1000
0100
0001
0101
,  // measure 68
0000
0001
0100
1000
0001
1001
0000
0100
0010
1000
0100
0001
1000
0010
0001
0100
,  // measure 69
0010
1010
0000
0001
0010
1000
0010
0110
0000
0100
1000
0010
0100
0101
0000
0010
,  // measure 70
1000
0000
0100
0000
0001
0000
1000
0000
0010
0000
0001
0000
0100
0000
0010
0000
0100
0000
1001
0000
1001
0000
1001
0000
0100
0010
1000
0000
0010
0000
0110
0000
,  // measure 71
0000
0000
0001
0000
0010
0100
1000
0000
0010
0000
0110
0000
0000
0000
1000
0000
0100
0010
0100
0000
1000
0000
0010
0100
0001
0000
0010
0000
0001
0010
0100
0000
,  // measure 72
1000
0000
0010
0000
0100
0000
0010
0000
1000
0100
0010
0000
0001
0000
0101
0000
0000
0000
0100
0000
0010
1000
0100
0000
1000
0000
1001
0000
0000
0000
0100
0000
,  // measure 73
0220
0000
0000
0000
,  // measure 74
0000
0000
0000
0000
,  // measure 75
0000
0000
0000
0000
,  // measure 76
0330
0000
0000
0000
,  // measure 77
0000
0000
0000
0000
0000
0000
0000
0000
0001
0010
0100
0000
1000
0000
0010
0000
,  // measure 78
1000
0100
0010
0000
0100
1000
0001
0000
1000
0010
0001
0000
0001
0010
1000
0000
,  // measure 79
0001
0010
0100
1000
0010
0000
0100
0000
0001
0000
0010
0000
0100
1000
0100
1000
,  // measure 80
0001
0000
0010
0000
0100
1000
0100
1000
0010
0000
0100
0000
0001
0010
0001
0010
,  // measure 81
0100
0000
1000
0000
0010
0100
0010
0100
0010
1000
0001
0100
0001
0010
0100
1000
,  // measure 82
0001
1000
0100
0010
0001
1000
0010
0100
0001
1000
0100
1000
0001
0010
0001
1000
,  // measure 83
0010
0100
0010
0100
0010
0100
0010
0100
0010
0000
1000
0000
0001
0000
0100
0000
,  // measure 84
0010
1000
0001
0010
0100
1000
0001
0010
,  // measure 85
0100
1000
0001
0010
0100
1000
0001
1000
,  // measure 86
0001
1000
0001
1000
0001
1000
0001
1000
,  // measure 87
0001
1000
0001
1000
0010
0100
0010
0100
,  // measure 88
0010
0100
0010
0100
0010
0100
0010
0100
,  // measure 89
0010
0100
0010
0100
0010
0000
0000
0000
2002
0000
0000
0000
3003
0000
0000
0000
;
