#TITLE:Rings of Rainbow;
#SUBTITLE:;
#ARTIST:Hommarju;
#TITLETRANSLIT:;
#SUBTITLETRANSLIT:;
#ARTISTTRANSLIT:;
#GENRE:;
#CREDIT:;
#BANNER:Rings of Rainbow_banner.png;
#BACKGROUND:Rings of Rainbow.png;
#LYRICSPATH:;
#CDTITLE:;
#MUSIC:Rings of Rainbow.ogg;
#OFFSET:-0.395000;
#SAMPLESTART:20.480000;
#SAMPLELENGTH:13.000000;
#LASTBEATHINT:391.125000;
#SELECTABLE:YES;
#DISPLAYBPM:108.000000:215.000000;
#BPMS:0.000000=215.000000
,71.000000=430.000000
,73.000000=215.000000
,104.000000=430.000000
,106.000000=215.000000
,161.000000=430.000000
,163.000000=215.000000
,194.000000=430.000000
,196.000000=215.000000
,228.000000=107.500000
,252.000000=215.000000
,291.000000=430.000000
,293.000000=215.000000
,324.000000=430.000000
,326.000000=215.000000
,381.000000=860.000000
,385.000000=215.000000
,390.000000=107.500000
,390.250000=53.750000
,390.500000=26.875000
;
#STOPS:
;
#BGCHANGES:;
#KEYSOUNDS:;
#ATTACKS:;

//---------------dance-single - ----------------
#NOTES:
     dance-single:
     :
     Easy:
     8:
     0.312833,0.542111,0.153972,0.171081,0.000000,256.000000,238.000000,18.000000,20.000000,0.000000,0.000000,0.312833,0.542111,0.153972,0.171081,0.000000,256.000000,238.000000,18.000000,20.000000,0.000000,0.000000:
0000
0000
0000
0000
,
0000
0000
0000
0000
,
0000
0000
0000
0000
,
0000
0000
0000
0000
,
0001
0100
0000
0100
,
0010
1000
0000
1000
,
0001
0010
0000
0010
,
0220
0000
0330
0000
,
1000
0100
1000
0000
,
0010
0000
0010
0100
,
0010
0000
1000
0001
,
0200
0000
0300
0000
,
0001
0010
0001
0000
,
1000
0010
1000
0000
,
0001
0000
0110
0000
,
1000
0100
0010
0001
,
2002
0000
0000
0000
,
3003
0000
0000
0000
,
0000
0010
0000
0010
,
0100
0010
1000
0010
,
0000
1000
0000
0100
,
0010
0002
0000
0003
,
0000
1000
0100
1000
,
0000
0001
0100
0001
,
0000
0100
0000
0110
,
0000
0001
0010
0100
,
0000
0000
0100
0000
,
1000
0100
1000
0010
,
0100
0000
0001
0000
,
0010
0100
2000
0000
,
3000
0000
0010
1000
,
0010
0000
0100
0001
,
0100
0000
0011
0000
,
1000
0000
0010
0100
,
0001
1000
0000
1000
,
0001
0100
0000
0010
,
1000
0001
0000
0100
,
0001
1000
0001
1000
,
0001
1000
0220
0000
,
0000
0330
0000
0000
,
0000
0000
0000
1000
,
0000
1000
0100
0010
,
0001
1000
0000
0001
,
0000
0001
0010
0100
,
1000
0001
0000
1001
,
0000
0100
0010
1000
,
0001
0010
0000
0001
,
0000
0001
1000
0100
,
0010
0001
0000
0000
,
0001
0000
0001
1000
,
0010
0100
0001
0000
,
0010
0000
0010
0100
,
1000
0001
0100
0000
,
0010
0000
0010
1000
,
0001
0010
0100
0000
,
1100
0000
0001
0000
,
0100
0010
1000
0001
,
2002
0000
0000
3003
,
0000
0000
0000
0000
,
0100
0000
0100
0000
0010
0100
0010
0000
,
1000
0000
0100
1000
0002
0000
0003
0000
,
0010
0001
0010
0000
0100
1000
0100
0000
,
1000
0000
1000
0000
0001
0100
0010
0100
,
0001
0000
0001
0010
,
0100
1000
0010
0000
,
0010
0000
1000
0100
,
0020
0000
0030
0000
,
0001
0100
0001
0000
,
1000
0100
1000
0000
,
1010
0000
0001
0000
,
0101
0000
1000
0000
,
0220
0000
0000
0330
,
0000
0000
0000
0000
,
0000
0001
0000
0001
,
0100
0001
0010
0001
,
0000
1000
0000
0010
,
0100
0020
0000
0030
,
0000
1000
0100
0010
,
0000
0010
0100
1000
,
0000
0101
0000
1100
,
0000
0010
0100
0010
,
0000
0000
0010
0000
,
1000
0100
0010
0001
,
0100
0000
0001
0000
,
1000
0010
2000
0000
,
3000
0000
0001
0100
,
0010
0000
0010
0100
,
0001
0000
0011
0000
,
1000
0000
1100
0000
,
0010
0000
0110
0000
,
1000
0100
0010
0000
,
0010
0001
1000
0010
,
0100
0001
0010
0100
,
1000
0001
0220
0000
,
0000
0000
0330
0000
,
0000
0000
0000
0000
,
0000
0200
0000
0000
,
0000
0000
0300
0000
;

//---------------dance-single - ----------------
#NOTES:
     dance-single:
     :
     Medium:
     12:
     0.563344,0.877964,0.248067,0.205297,0.064155,461.000000,432.000000,29.000000,24.000000,0.000000,0.000000,0.563344,0.877964,0.248067,0.205297,0.064155,461.000000,432.000000,29.000000,24.000000,0.000000,0.000000:
0000
0000
0000
0000
,
0000
0000
0000
0000
,
0000
0000
0000
0000
,
0000
0000
0000
0000
,
1000
0000
0010
0100
0000
0010
0000
2000
,
0000
0001
0000
3001
,
0010
0000
0001
0100
0000
0010
0000
0100
,
0000
0001
1000
0010
0100
0000
0001
0000
,
1001
0000
0100
0000
0010
0000
1000
0100
,
0000
0100
0000
0100
1000
0000
0010
0000
,
0100
0000
0001
0010
0000
0010
0000
2002
,
0000
0000
3003
0000
,
0010
0000
0100
0001
0000
0100
0001
0000
,
1000
0000
0010
0100
0000
0010
0100
0000
,
0001
0000
0010
0100
0000
1000
0000
0010
,
0000
1000
0001
0010
0100
0000
1000
0000
,
2002
0000
0000
3003
,
0010
0010
0010
0110
,
0000
0010
1000
0001
,
1000
0100
0000
0100
0000
0010
0001
0000
,
0100
0000
0010
0000
1000
0001
0000
0010
,
0000
0200
0000
0000
1000
0000
0000
0000
,
1300
0000
0010
0000
1000
0010
0000
0100
,
0010
0000
1000
0000
0001
0100
0000
0010
,
0100
0000
0001
0000
0010
0100
0000
1000
,
0000
0001
0000
1000
0010
0100
0001
0000
,
1001
0000
0010
1000
,
0001
0000
0010
0001
0000
0001
0000
0001
,
0010
0000
0001
1000
0100
0000
1000
0010
,
0000
0100
0000
0210
0000
0000
0001
0000
,
0000
0000
0301
0000
0011
0000
1000
0100
,
0000
1000
0010
0000
0110
0000
0001
0010
,
0000
0001
1000
0000
1001
0000
0010
0100
,
0000
0100
0000
0010
0000
1000
0100
1000
,
0010
0000
1000
0000
0000
0001
0010
0001
,
0100
0000
0010
0000
0000
0010
0100
0001
,
1000
0000
1001
0000
0000
0100
0010
1000
,
0000
0010
0100
0001
0010
0100
1000
0001
,
0010
0100
1000
0000
2002
0000
0000
0000
,
0000
3003
0100
0100
,
0100
0110
0000
0010
,
0100
0000
0001
0000
0010
0001
0010
0000
,
0001
0100
0001
0100
0010
1000
0000
0001
,
0000
0010
0000
0100
0000
1000
0001
0000
,
1000
0010
1000
0001
0100
0000
0010
0000
,
1000
0000
0001
0000
0010
0001
0010
0001
,
1000
0000
0010
0100
0010
1000
0000
0010
,
0000
0100
0000
0001
0000
0010
0100
0010
,
0001
0000
1000
0001
0200
0000
0000
0000
,
0310
0000
0010
0100
0010
0000
1010
0000
,
1000
0010
1000
0000
0001
0100
0010
0100
,
0001
0010
0000
0001
1000
0100
0000
1000
,
0010
0100
0010
0000
1000
0100
0010
0000
,
0001
0100
0000
0100
0000
0100
0010
0000
,
1000
0100
0000
0100
0010
0100
1000
0000
,
0001
1000
0000
0001
0010
0001
0000
1000
,
0100
1000
0010
0100
0001
0010
0001
0000
,
2002
0000
0000
0000
,
0000
0000
3003
0000
,
0100
0000
0010
0000
0100
0000
0000
0001
0000
0001
0000
0001
0010
0000
0100
0000
,
1000
0000
0000
0010
0000
0100
0000
0220
0000
0000
0000
0000
0330
0000
0000
0000
,
0001
0000
0010
0100
0000
0100
0010
0000
0001
0000
1000
0010
0000
0010
1000
0000
,
0001
0000
0100
0010
0000
0100
0000
0010
0000
1000
0100
0010
0001
0000
0100
0000
,
0010
0000
0010
0000
0100
0000
0100
0001
,
0000
0001
0000
0001
0020
0000
0130
0000
,
1000
0000
0010
0100
0000
0010
0000
2002
,
0000
0000
3003
0001
,
1000
0010
1000
0000
0001
0010
0001
0000
,
1000
0100
1000
0000
0001
0100
0001
0000
,
1000
0010
0100
0001
0010
0100
1000
0001
,
0000
0001
0100
0010
1000
0000
0010
0000
,
2002
0000
0000
3003
,
0100
0100
0100
0110
,
0000
0001
0011
1000
,
0010
0100
0000
0010
0000
0100
0001
0000
,
0010
0000
0001
0000
1000
0001
0000
0010
,
0000
2100
0000
0000
0001
0000
0000
0000
,
3100
0000
1000
0000
0010
0100
0000
0010
,
1000
0000
0001
0000
0010
0100
0000
0010
,
0001
0000
0001
0000
0100
0010
0000
1000
,
0000
0010
0000
1000
0001
0010
0100
0000
,
1001
0000
0010
0110
,
0100
0000
0001
0010
0000
0010
0000
0010
,
0100
0000
1000
0010
0100
0000
0010
0100
,
0000
0001
0000
0012
0000
0000
1000
0000
,
0000
0000
0013
0000
0100
0000
1000
0100
,
0000
1000
0100
0000
0010
0000
0001
0100
,
0000
0001
0100
0000
0010
0000
0100
0010
,
0000
0010
0000
0110
0000
1000
0001
0010
,
0100
0000
1001
0000
0000
1000
0010
0100
,
0001
0000
1001
0000
0000
0010
0100
1000
,
0001
0000
0110
0000
0010
1000
0001
0100
,
0010
1000
0001
0100
0001
0010
0100
1000
,
0010
1000
0100
0010
0002
0000
0000
0000
,
0000
0003
1000
1000
,
1000
1100
0000
0000
,
0000
0202
0000
0000
,
0000
0000
0000
0303
;

//---------------dance-single - ----------------
#NOTES:
     dance-single:
     :
     Hard:
     16:
     0.851737,1.254234,0.632998,0.290837,0.320776,697.000000,623.000000,74.000000,34.000000,0.000000,0.000000,0.851737,1.254234,0.632998,0.290837,0.320776,697.000000,623.000000,74.000000,34.000000,0.000000,0.000000:
// measure 0
0000
0000
0000
0000
,  // measure 1
0000
0000
0000
0000
,  // measure 2
0000
0000
0000
0000
,  // measure 3
0000
0000
0000
0000
,  // measure 4
0110
0000
0001
0001
0000
0010
0000
0210
,  // measure 5
0000
0000
1000
1000
0000
0000
0310
0000
,  // measure 6
0011
0000
1000
1000
0000
0010
0000
0110
,  // measure 7
0000
0010
1000
0010
0001
0000
0110
0000
,  // measure 8
0002
0000
0010
0000
0100
0000
0013
0001
,  // measure 9
0000
1100
0000
0010
0100
0000
0010
1000
,  // measure 10
0100
1000
0001
0010
0000
0110
0000
0021
,  // measure 11
0000
1000
0000
0130
,  // measure 12
0010
0001
0010
0100
1000
0010
0100
0010
,  // measure 13
1000
0010
0001
0010
0100
0010
1000
0001
,  // measure 14
0100
0000
0100
0000
0010
0000
0010
0000
1000
0000
0001
0000
1000
0010
0100
0001
,  // measure 15
0000
0100
1000
0100
0001
0010
0100
0000
,  // measure 16
2002
0000
0000
3003
,  // measure 17
0010
0010
0010
1001
,  // measure 18
0000
0000
0100
0010
1010
0000
0001
0100
,  // measure 19
0010
0110
0000
1010
0000
1000
0100
0010
,  // measure 20
0001
0100
0010
1000
0010
0001
0000
1010
,  // measure 21
0000
1200
1000
0000
0001
0000
0010
0000
,  // measure 22
1300
0000
0001
0100
1000
0200
0000
0010
,  // measure 23
0310
0100
0001
1000
0200
0001
0300
0001
,  // measure 24
0100
1000
0010
1000
0001
0011
0000
1100
,  // measure 25
0000
0000
0011
0000
0000
0000
1000
0000
0001
0000
0010
0000
0001
0010
0100
1000
,  // measure 26
0010
0000
0000
0000
1000
0001
0101
0000
,  // measure 27
1000
0001
0010
0110
0000
1100
0000
0001
,  // measure 28
0010
0100
1000
0010
0100
0001
0100
1000
,  // measure 29
0000
0101
0000
0021
0001
0000
1000
0000
,  // measure 30
0100
0000
0031
0000
1000
0010
0001
0020
,  // measure 31
0000
0100
0130
0010
1000
0001
0020
1000
,  // measure 32
0030
1000
0010
0001
0100
0001
1000
1100
,  // measure 33
0000
0011
0000
1100
0000
0001
1000
0100
,  // measure 34
1000
0001
0010
0001
0200
0000
0000
0000
0310
0000
1000
0000
0001
0000
0010
0000
,  // measure 35
0001
1000
0010
0100
0002
0000
0000
0000
0013
0000
0100
0000
1000
0000
0010
0000
,  // measure 36
1000
0100
0010
0100
2000
0000
0000
0000
3001
0000
0100
0000
0010
0100
0001
0000
,  // measure 37
0010
0000
0100
0000
1000
0010
0100
0000
0001
0010
0100
0000
1000
0010
0100
0000
,  // measure 38
0001
1000
0010
0100
0001
1000
0010
0100
0020
0000
0000
0000
0000
0000
0000
0000
,  // measure 39
0000
0000
0130
0100
,  // measure 40
0100
1001
0000
0110
,  // measure 41
1001
0000
0110
0000
1000
0010
1000
0100
,  // measure 42
0001
0100
1000
0010
0001
0010
0000
1000
,  // measure 43
0100
0001
1000
0010
0001
0100
1000
0100
,  // measure 44
0001
0010
1000
0010
0001
1000
0010
0100
,  // measure 45
0110
0000
1001
0000
0100
0010
0100
1000
,  // measure 46
0010
0001
0100
1000
0010
0001
0000
0001
,  // measure 47
0100
1000
0001
0010
1000
0100
1000
0010
,  // measure 48
0001
0100
1000
0010
0001
0000
0000
0000
,  // measure 49
1001
0100
0010
0100
1001
0000
0001
0100
,  // measure 50
0010
0100
0001
1000
0100
0010
0100
1000
,  // measure 51
0001
0001
0100
0001
0001
0010
0100
1000
,  // measure 52
0010
0001
0100
1000
0010
0001
0100
1000
,  // measure 53
0110
0001
1000
0001
0110
1000
0100
0010
,  // measure 54
0001
0100
1000
0010
0001
0100
1000
0001
,  // measure 55
1000
1000
0010
1000
1000
0100
0010
0001
,  // measure 56
1000
0010
0001
0100
1000
0010
0001
0000
,  // measure 57
0220
0000
0000
0000
,  // measure 58
0000
0000
0330
0000
,  // measure 59
1001
0000
0110
0000
1001
0000
0100
0010
1000
0010
0100
0001
0010
0000
0010
0001
,  // measure 60
1000
0100
0001
0100
0000
1100
0000
0102
0000
0000
0010
0010
0000
1000
1003
0000
,  // measure 61
0010
1000
0100
0010
0000
0010
0100
1000
0001
0100
0010
0100
0000
0100
0001
0010
,  // measure 62
0001
0010
1000
0010
0001
0100
1000
0100
0000
0100
0001
0010
0100
0000
0110
0000
,  // measure 63
2100
0000
0010
0000
3100
0000
0010
0001
,  // measure 64
0010
0100
1000
0010
0100
0000
0100
0010
,  // measure 65
1000
0001
0010
0100
0000
0011
0000
1020
,  // measure 66
0000
0000
0100
0100
0000
1000
1030
0000
,  // measure 67
0001
0000
0100
0000
0010
0000
1000
0000
0001
0010
0100
0000
1000
0000
0010
0000
,  // measure 68
0100
0000
0001
0000
1000
0000
0100
0000
1000
0010
0100
0000
0001
0000
0010
0000
,  // measure 69
0001
1000
0001
1000
0001
1000
0001
1000
0010
0100
0010
0100
0010
0100
0010
0000
,  // measure 70
0000
0000
1000
0100
0010
0000
0001
0000
0010
0000
0100
0000
1100
0000
0000
0000
,  // measure 71
0022
0000
0000
0033
,  // measure 72
1000
1000
1000
1001
,  // measure 73
0000
0000
0010
0100
0001
0010
0001
1000
,  // measure 74
0010
0110
0000
1001
0000
0110
0100
0001
,  // measure 75
1000
0000
0100
0000
0010
0000
0001
1000
0010
0000
0100
0000
0000
0000
0110
0000
,  // measure 76
0000
0000
0001
0000
1000
0000
0010
0100
0010
0000
1000
0000
0001
0010
0100
0000
,  // measure 77
0010
0000
0001
0000
0100
0000
0010
0000
1000
0000
1000
0000
0001
0000
0100
0010
,  // measure 78
1000
0000
0100
0000
0010
0000
0001
0000
0001
0000
1000
0000
0010
0000
1000
0100
,  // measure 79
0010
0000
0001
0000
1000
0000
0001
0100
0010
0000
0110
0000
0000
0000
1001
0000
,  // measure 80
0000
0000
0011
0000
0000
0000
1000
0010
1000
0000
0001
0000
0100
0001
0010
0100
,  // measure 81
1000
0000
0000
0000
0010
0100
0110
0010
,  // measure 82
1000
0001
0001
1010
0001
0110
0001
1010
,  // measure 83
0200
0000
0310
1000
0001
0010
0001
0101
,  // measure 84
1000
0110
1000
0102
0000
0000
0010
0000
,  // measure 85
1000
0000
0013
0000
1100
0000
0010
0100
,  // measure 86
0010
0000
1000
0100
0010
0000
0001
0000
0100
0000
0010
0000
1000
0000
1000
0000
,  // measure 87
0010
0100
0001
0000
0010
0000
0100
0000
0001
0000
0100
0000
1000
0000
1100
0000
,  // measure 88
0000
0000
0101
0000
0000
0000
0011
0000
0000
0000
0001
1000
0001
0000
0010
0000
,  // measure 89
0100
0000
1000
0000
2002
0000
3003
0000
0000
0000
0100
0010
0100
0000
1000
0000
,  // measure 90
0100
0000
0001
0000
0022
0000
0033
0000
0000
0000
0010
0100
1000
0000
0010
0000
,  // measure 91
0100
0001
0010
0000
0220
0000
0330
0000
1000
0010
0100
0000
0010
1000
0100
0000
,  // measure 92
1000
0010
0100
0000
1000
0100
0010
0000
0100
0001
0010
0000
0001
0100
0010
0000
,  // measure 93
0100
0001
0010
0000
0001
0100
0010
0000
0220
0000
0000
0000
0000
0000
0000
0000
,  // measure 94
0000
0330
1000
0110
,  // measure 95
0010
1010
0000
0000
,  // measure 96
0000
2200
0000
0000
,  // measure 97
0000
0000
0000
3300
;
