#TITLE:恋愛=精度×認識力;
#SUBTITLE:;
#ARTIST:立秋 vs. BEMANI Sound Team "L.E.D.-G" feat.ちょこ&ななひら;
#TITLETRANSLIT:Renai=seido x ninshikiryoku;
#SUBTITLETRANSLIT:;
#ARTISTTRANSLIT:Rish vs. L.E.D.-G feat.Choko&Nanahira;
#GENRE:HARDCORE×ソフラン×変拍子×萌え;
#CREDIT:;
#BANNER:Renai=seido x ninshikiryoku_banner.png;
#BACKGROUND:Renai=seido x ninshikiryoku_bg.png;
#LYRICSPATH:;
#CDTITLE:;
#MUSIC:Renai=seido x ninshikiryoku.ogg;
#OFFSET:-0.774000;
#SAMPLESTART:63.715000;
#SAMPLELENGTH:12.000000;
#SELECTABLE:YES;
#BPMS:0.000000=177.000000
,13.000000=354.000000
,13.500000=177.000000
,13.750000=88.500000
,14.000000=177.000000
,23.000000=354.000000
,23.500000=177.000000
,23.750000=88.500000
,24.000000=177.000000
,32.500000=354.000000
,33.000000=177.000000
,33.250000=88.500000
,33.500000=177.000000
,41.500000=354.000000
,44.500000=177.000000
,71.500000=354.000000
,75.500000=177.000000
,103.000000=354.000000
,107.000000=177.000000
,148.500000=13.000000
,149.000000=177.000000
,151.000000=13.000000
,151.458328=177.000000
,154.500000=13.000000
,155.000000=177.000000
,158.000000=13.000000
,158.500000=354.000000
,160.000000=177.000000
,192.000000=88.500000
,192.750000=118.000000
,193.500000=236.000000
,194.000000=354.000000
,200.000000=177.000000
,201.500000=3.010000
,201.625000=30.000000
,201.750000=45.000000
,201.875000=75.000000
,202.000000=100.000000
,202.062500=135.000000
,202.166672=175.000000
,202.250000=210.000000
,202.416672=240.000000
,202.583328=265.000000
,202.687500=300.000000
,202.833328=333.000000
,216.000000=177.000000
,218.000000=182.000000
,222.000000=187.000000
,225.000000=192.000000
,228.000000=197.000000
,231.000000=202.000000
,234.000000=207.000000
,237.000000=212.000000
,240.000000=217.000000
,243.000000=222.000000
,246.000000=227.000000
,249.000000=232.000000
,252.000000=237.000000
,255.000000=242.000000
,258.000000=247.000000
,261.000000=155.000000
,261.500000=145.000000
,262.000000=130.000000
,262.500000=17.000000
,262.750000=150.000000
,263.000000=177.000000
,335.500000=354.000000
,337.500000=177.000000
;
#STOPS:41.500000=0.169000,
42.000000=0.169000,
42.500000=0.169000,
44.000000=0.169000,
71.500000=0.169000,
72.000000=0.169000,
72.500000=0.169000,
73.000000=0.169000,
103.000000=0.169000,
103.500000=0.169000,
104.000000=0.169000,
104.500000=0.169000,
158.500000=0.169000,
159.000000=0.169000,
159.500000=0.085000,
196.000000=0.169000,
196.500000=0.169000,
197.000000=0.169000,
197.500000=0.169000,
335.500000=0.169000,
336.000000=0.169000,
336.500000=0.169000
;
#BGCHANGES:;
#KEYSOUNDS:;
#ATTACKS:;

//---------------dance-single - ----------------
#NOTES:
     dance-single:
     :
     Easy:
     10:
     0.282603,0.336517,0.103697,0.271208,0.003988,248.000000,235.000000,13.000000,34.000000,0.000000,0.000000,0.282603,0.336517,0.103697,0.271208,0.003988,248.000000,235.000000,13.000000,34.000000,0.000000,0.000000:
0000
0000
0000
0000
,
0000
0000
0010
0100
,
0001
0010
0100
0000
,
0100
2200
3300
0000
,
1000
0010
0100
0010
,
1000
0000
0001
0022
,
0033
0000
0000
0001
0000
0100
0000
0010
,
0000
1000
0000
0100
0000
0000
0000
1000
,
0000
2002
0000
3003
0000
0010
0000
0100
,
0000
0010
0000
0000
0000
1000
0000
0001
,
0000
1000
0000
0020
0000
0000
0030
0000
,
0000
0000
0100
0000
,
0010
0100
0001
0000
,
0011
0000
0001
0000
,
0010
0001
0010
0200
,
0000
1300
0000
0000
0000
0010
0000
0000
,
0000
1000
0000
0010
0000
1000
0000
0001
,
0000
0000
0000
0011
0000
0000
0000
0200
,
0000
0000
0000
0301
0000
0000
0000
0000
,
0001
0000
0010
0000
,
0001
0000
1000
0010
0000
0000
0010
0000
,
0000
0000
0100
0000
0000
0000
0010
0100
,
0000
0001
0000
1000
,
0010
0100
0000
0000
0001
0000
0010
0000
,
0100
1000
0000
0000
1000
0000
0010
0100
,
0000
0000
0001
0010
0000
0000
0200
0000
,
0000
0310
0000
0000
,
0001
0000
0001
1000
,
0010
1000
0010
0100
,
0000
0100
0000
0001
,
0010
0001
0010
0100
,
0000
1100
0000
1000
,
0010
1000
0010
0100
,
0000
0101
0000
0001
,
0010
0100
1000
0020
,
0000
0230
0000
0301
,
1000
0001
1000
0010
,
0000
0000
0220
0330
0001
0000
0000
0000
0000
0000
1000
0000
0200
0000
0300
0000
,
1000
0000
0000
0000
0000
0000
0010
0000
0000
0000
0020
0030
0100
0000
0000
0000
,
0000
0001
0000
0001
0200
0310
0000
0000
,
0010
0100
0001
1000
,
0100
0010
0001
0000
,
1001
0000
0100
0010
,
1000
0001
0010
0000
,
0001
0010
0100
1000
,
0100
0010
0001
0000
,
1000
0010
0100
0000
,
0001
0010
0100
1000
,
2002
0000
3003
0000
,
0000
0000
0000
0000
,
0010
0000
0000
0200
0000
0000
0000
0000
,
0300
0000
0000
0000
,
0000
0000
0000
0000
,
0000
0000
0000
0000
,
0000
0000
0000
0000
0100
0000
0100
0010
,
0000
0010
1000
0000
,
1000
0100
0000
0010
,
0001
0000
0001
1000
,
0000
0010
0100
0000
,
0100
0010
0000
0000
,
2000
0000
0000
3020
,
0000
0000
0230
0000
,
0000
0302
0000
0000
,
1003
0000
0000
0010
,
0000
0000
0100
0000
,
0000
0000
0000
0000
0000
0000
0010
0000
0000
0000
0100
0000
0000
0000
0000
0020
0000
0000
1030
0000
0000
0000
0000
0000
,
0001
1000
0000
0001
,
0010
0001
0000
0100
,
0010
1000
0001
0010
,
0100
0220
0330
0001
,
0100
0010
1000
0100
,
0010
0001
0000
0100
,
0010
1000
0000
0100
,
0010
0001
1000
2002
,
0000
0000
0000
3003
0000
0000
0010
0000
,
0000
0110
0001
0010
,
0001
1000
0010
1000
,
0010
0200
0310
1000
,
0100
0010
0001
0100
,
0020
0130
0001
0020
,
0130
0000
1000
0010
0000
1000
0000
0001
,
0000
0010
0000
0001
0000
1000
0000
0010
,
0000
0200
0000
0310
0000
1000
0000
0001
,
0000
1000
0000
0100
0000
0010
0000
0001
,
0000
0002
0000
0003
0000
0000
0000
0000
;

//---------------dance-single - ----------------
#NOTES:
     dance-single:
     :
     Medium:
     13:
     0.529881,0.605731,0.183464,0.406812,0.127627,465.000000,442.000000,23.000000,51.000000,0.000000,0.000000,0.529881,0.605731,0.183464,0.406812,0.127627,465.000000,442.000000,23.000000,51.000000,0.000000,0.000000:
0000
0000
0000
0000
,
0000
0000
0000
0000
0001
0010
0100
1000
,
0010
0000
0010
1000
0100
0000
1000
0010
,
0100
0220
0330
0001
,
0010
0001
0100
0010
1000
0000
0010
0100
,
0001
0000
0010
0100
1000
0000
2002
0000
,
3003
0000
0000
0100
0010
0100
0001
0010
,
0000
0100
1000
0001
0000
1000
0100
0010
,
0000
0220
0000
0330
0000
1000
0010
0100
,
0001
0010
0000
0001
0100
0010
0000
1000
,
0100
0010
0001
2000
3002
2003
3002
1003
,
0000
0000
0110
0000
0100
0010
1000
0000
,
0100
0010
0001
0100
0010
0000
1000
0010
,
1000
0100
0010
0000
0100
1000
0010
0000
,
0200
0302
0023
2030
3100
0000
0220
0000
,
0330
0001
0000
0100
0010
0100
0000
0001
,
1000
0001
0000
1000
0010
1000
0000
0100
,
1000
0100
0000
0010
0001
0010
0000
0200
,
0320
0230
0320
0130
0000
0000
0000
0000
,
1000
0000
0010
0100
0001
0000
0010
0100
,
1000
0001
0100
0020
0000
0000
0130
0000
,
0001
0010
0100
0000
1000
0100
1000
0020
,
0000
0000
0130
0000
0001
0010
0100
0000
,
0010
0001
0000
1000
0010
1000
0010
0100
,
0001
0100
0000
0001
0010
0001
0010
0100
,
0000
1000
0100
0001
0000
0100
2000
3002
,
2003
3002
0103
0000
0010
0000
0100
0010
,
1000
0000
0100
0010
0001
0000
0010
0100
,
1000
0001
0100
0010
0100
0000
0011
0000
,
1000
0000
1010
0000
0001
0000
0100
0010
,
0100
0010
0100
0000
0101
0000
0010
1000
,
0100
0000
1000
0001
0010
0000
0001
0100
,
0010
1000
0100
0000
1001
0000
0010
0100
,
0001
0000
0010
0100
1000
0000
0010
1000
,
0001
0100
0010
1000
0100
0010
0001
0000
,
0011
0000
0001
0000
0011
0000
1000
0100
,
1000
0000
0100
0000
0010
0000
0001
0000
0010
0000
0001
0000
1000
0000
0000
1001
,
0000
0000
0000
0000
0000
0000
0220
0000
0000
0000
0000
0330
0001
0000
0000
0000
0000
0000
0000
0000
0000
1001
0000
0000
0000
0000
0000
0000
0000
0000
0200
0000
0000
0000
0000
0000
0020
0000
0000
0000
0000
0000
0000
0000
0330
0000
0000
0000
,
1000
0000
0000
0000
0000
0000
0000
0000
0000
0100
0000
0000
0000
0000
0000
0000
0000
0000
0010
0000
0000
0000
0000
0000
0002
0000
0000
0000
0000
0000
2000
0000
0000
0000
3003
0000
0010
0000
0000
0000
0000
0000
0000
0000
0000
0100
0000
0000
,
0000
0000
0000
0001
0000
0000
1000
0000
0000
0200
0000
0000
0020
0000
0330
0002
0000
0000
0023
0000
0000
0230
0000
0000
,
1300
0000
0000
0010
0000
0000
0100
0000
0010
0000
0000
1000
0000
0000
0100
0000
,
0010
0000
0000
0001
0000
0000
1000
0000
0010
0000
0000
0100
0000
0000
0001
0000
,
1000
0000
0000
0100
0000
0000
0010
0000
0001
0000
0000
0100
0000
0000
1000
0000
,
0100
0000
0000
0010
0000
0000
1000
0000
0100
0000
0000
0010
0000
0000
0001
0000
,
0100
0000
0000
0010
0000
0000
0010
0000
1000
0000
0000
0100
0000
0000
0100
0000
,
0010
0000
0000
0001
0000
0000
1000
0000
0010
0000
0000
1000
0000
0000
0001
0000
,
0100
0000
0000
0010
0000
0000
0100
0000
0001
0000
0000
0000
0011
0000
0000
0000
,
1000
0000
0000
0010
0000
0000
1000
0000
0100
0000
0000
1000
0000
0000
0010
0000
,
0220
0000
0000
0330
,
1000
1001
0010
0100
0010
0000
0100
0000
,
0001
0000
1000
0200
0000
0000
0000
0000
,
0000
0000
0000
0000
,
0000
0000
0000
0000
,
0000
0000
0300
0000
,
0000
0000
0000
0000
0001
0010
0100
1000
,
0000
1000
0010
0100
,
0001
0010
0001
0000
0000
0000
1000
0000
,
0010
0100
0010
1000
,
0100
0010
0001
1000
,
0001
0000
2002
0000
0000
3003
0000
0000
,
0100
0010
1000
0100
,
1000
0010
0100
0000
,
0100
0001
0000
0001
,
0010
0100
1000
0020
,
0000
0130
0001
1000
,
0100
0000
0000
0000
0000
0000
0000
0000
0000
0000
0000
0000
0010
0000
0000
0000
0000
0000
0000
0000
0100
0000
0000
0000
0000
0000
0000
0000
0000
0000
2002
0000
0000
3003
0000
0000
0100
0000
0000
0000
0000
0000
0000
0000
0000
0010
0000
0000
,
0000
0000
0100
0000
0001
0000
0000
0010
0000
0000
0100
0000
1000
0000
0000
0010
,
0000
0000
1000
0000
0100
0000
0000
0010
0000
0000
0001
0000
0100
0000
0000
0010
,
0000
0000
0100
0000
0001
0000
0000
0010
0000
0000
0100
0000
1000
0000
0000
0010
,
0000
0000
1000
0000
0001
0000
0000
0100
0000
0000
0001
0000
0010
0000
0001
0000
,
0100
0010
1000
0100
1000
0000
0001
1000
,
0100
0000
0010
0000
0100
0000
1000
0000
0001
0000
0000
0000
0100
0000
0000
0110
,
0000
0000
0001
0000
1000
0000
0100
0000
1000
0000
0000
0000
0010
0000
0000
0110
,
0000
0000
0100
0000
0001
0000
0000
0010
0000
0000
0100
0000
2000
0000
0000
0000
,
0000
0000
0000
0000
0000
0000
0000
0000
3000
0000
0000
0000
0001
0000
0000
0100
,
0000
0010
0110
0000
0010
1000
0100
1000
,
0010
0000
0100
0001
0010
0000
0001
0100
,
0010
0100
0002
0000
1003
0100
0010
0000
,
0100
1000
0001
0100
0010
0000
0100
0001
,
0020
0000
0130
1000
0001
1000
0020
0000
,
0130
0001
0100
0010
1000
0100
0000
1000
,
0010
0100
0000
0001
0010
0100
1000
0010
,
0100
0002
0000
1003
0100
0010
0001
0010
,
0100
0000
1000
0000
0010
0000
0100
0000
0001
0000
0010
0000
0100
0000
2000
3000
,
1001
0001
0100
0010
0000
0000
0000
0000
;

//---------------dance-single - ----------------
#NOTES:
     dance-single:
     :
     Hard:
     18:
     0.889973,0.977346,0.478602,0.327045,0.745822,781.000000,721.000000,60.000000,41.000000,0.000000,0.000000,0.889973,0.977346,0.478602,0.327045,0.745822,781.000000,721.000000,60.000000,41.000000,0.000000,0.000000:
// measure 0
0000
0000
0000
0000
,  // measure 1
0000
0000
0000
0000
0010
0001
0010
0001
,  // measure 2
1000
0000
0010
0100
0001
0000
0010
0000
0100
0000
1000
0010
0100
0000
0001
0000
,  // measure 3
1000
0000
0010
0100
0020
0000
0000
0000
0000
0000
0000
0000
1030
0000
0000
0000
,  // measure 4
1000
0000
0100
0000
0010
0000
0100
0000
1000
0000
0001
0100
0010
0000
0100
0000
,  // measure 5
0001
0000
0010
0100
1000
0000
0001
0000
0100
0000
0010
0100
0002
0000
0000
0000
,  // measure 6
0000
1003
0000
0100
0010
0100
0001
0010
,  // measure 7
0100
1000
0001
0000
0100
0000
0010
0100
0001
0000
0010
0000
0100
1000
0001
0000
,  // measure 8
0100
0220
0000
0330
0010
1000
0100
1000
,  // measure 9
0001
0000
0100
0000
0010
0100
0001
0000
0010
0000
0100
1000
0010
0100
0001
0000
,  // measure 10
0010
0100
1000
0001
1000
0010
0100
0000
1001
0000
0110
0000
2000
0000
0002
0000
,  // measure 11
3003
0000
0000
0000
0010
0000
0100
0000
0010
0000
1000
0100
0010
0000
0100
0000
,  // measure 12
1000
0000
0010
0000
1000
0000
0001
0100
0010
0000
0100
0000
0001
0010
0100
1000
,  // measure 13
0010
1000
1100
0000
0001
0100
0101
0000
,  // measure 14
0020
0000
2030
0000
3200
0000
0302
0000
0013
0100
1000
0001
0200
0000
0000
0000
,  // measure 15
0310
0000
1000
0000
0100
0000
0010
0000
0001
1000
0010
0000
0100
0000
0001
0000
,  // measure 16
1000
0000
1100
0000
0001
0000
0100
0000
0010
0100
0010
1000
0100
0010
0001
0000
,  // measure 17
1000
0110
0000
0001
0010
0101
0000
0110
,  // measure 18
1100
0011
1100
2002
0000
0000
3003
0000
,  // measure 19
0010
0000
0100
0000
0001
0000
0010
0000
0100
0000
1000
0010
1000
0000
0001
0000
,  // measure 20
0100
0000
0010
1000
0010
0000
0201
0000
0000
0000
0301
0000
0110
0000
0000
0000
,  // measure 21
1000
0000
0010
0000
0110
0000
0000
0000
0001
0000
1000
0000
0100
1000
0020
0000
,  // measure 22
0000
0000
0130
0000
0001
0000
0010
0000
0001
0000
1000
0000
0100
1000
0010
0100
,  // measure 23
0001
0000
0011
0000
0000
0000
1000
0000
0001
0000
0001
0100
0001
0000
1000
0000
,  // measure 24
0010
1000
0010
0000
0000
0000
0100
0001
0100
0000
0001
0010
0001
0010
0200
0000
,  // measure 25
0000
0000
1300
0001
0010
0100
2000
0000
0000
3010
1000
0001
0100
0000
1010
0000
,  // measure 26
0101
0011
1010
0000
1001
0000
0001
0100
,  // measure 27
1000
0100
0000
0100
0010
0100
0010
0100
0001
0000
0010
0100
1000
0010
1000
0010
,  // measure 28
0100
0000
0001
0010
0001
0010
0100
0000
1000
0000
1100
0000
1000
0000
0010
0100
,  // measure 29
0001
0000
0010
0000
0100
0000
1000
0010
0100
0000
0001
0000
1000
0100
0010
0000
,  // measure 30
0010
0100
1000
0000
0001
0100
0010
0100
0001
0000
0010
0000
0001
0100
0010
0000
,  // measure 31
1000
0001
0100
0000
0010
0100
0010
0100
0010
0000
1000
0000
0100
0010
0001
0000
,  // measure 32
1000
0100
0010
0000
0001
1000
0010
1000
0001
0000
0100
0010
0100
0000
0001
0000
,  // measure 33
0010
0100
1000
0000
0010
0000
1000
0000
0100
0010
0001
0000
0100
0000
0010
0100
,  // measure 34
0001
0000
0010
0100
1000
0010
0100
0001
0010
0100
1000
0010
0100
0000
0000
0000
,  // measure 35
0210
0000
0310
0000
0120
0000
0130
1000
,  // measure 36
0010
0000
0001
0000
0100
0000
1000
0000
0010
0000
0001
0000
1000
0001
0000
0010
,  // measure 37
0100
0000
0000
0000
0000
0000
0000
0000
2200
0000
0000
0000
0000
0000
0000
3300
0010
0000
0000
0000
0100
0000
0000
0000
0000
0000
0000
0000
0001
0000
0000
0000
1000
0000
0000
0000
0000
0000
0000
0000
0010
0000
0000
0000
0000
0000
0000
0000
0202
0000
0000
0000
0000
0000
0000
0303
0000
0000
0000
0000
0000
0000
0000
0000
,  // measure 38
0010
0000
0000
0000
0100
0000
0000
0000
0000
0000
0000
0000
1000
0000
0000
0000
0010
0000
0000
0000
0000
0000
0000
0000
0100
0000
0000
0000
0000
0000
0000
0000
0001
0000
0000
0000
0000
0000
0000
0000
2020
0000
0000
0000
0000
0000
0000
3030
0100
0000
0000
0000
0001
0000
0000
0000
0000
0000
0000
0000
1000
0000
0000
0000
,  // measure 39
0010
0000
0000
0000
0100
0000
0000
0000
0001
0000
0000
0000
0000
0000
0000
0000
0010
0000
0000
0000
0000
0000
0000
0000
0110
0000
0000
0000
0000
0000
0000
0000
2002
0000
0000
0000
0000
0000
0000
3003
0110
0000
0000
0000
0000
0000
0000
0000
1001
0000
0000
0000
0000
0000
0000
0000
0110
0000
0000
0000
0000
0000
0000
0000
,  // measure 40
1000
0000
0010
0100
0000
0000
0001
0010
0001
0000
0100
0010
0000
0000
1000
0100
,  // measure 41
1000
0000
0100
0010
0000
0010
0100
0000
1000
0000
0001
0100
0000
0100
0010
0100
,  // measure 42
0001
0000
0010
0100
0000
0100
1000
0000
0010
0000
1000
0001
0000
0001
0100
0000
,  // measure 43
0010
0000
1000
0100
0000
0100
1000
0001
1000
0010
0100
0001
0010
0000
0011
0000
,  // measure 44
0001
0000
0100
0010
0100
0000
0001
0000
1000
0000
0010
0100
0010
0000
1000
0000
,  // measure 45
0001
0010
0100
1000
0010
0000
0100
0000
0001
1000
0100
0010
0001
0000
0100
0000
,  // measure 46
0001
0000
0010
0100
0000
0100
1000
0000
0010
0100
0001
1000
0100
0000
1000
0000
,  // measure 47
0010
0000
1000
0010
0000
0010
0100
0000
0001
0010
0100
1000
0100
0010
0001
0100
,  // measure 48
0020
0000
0100
0030
,  // measure 49
1010
0101
0011
1100
1000
0001
0000
0001
,  // measure 50
0100
0010
1000
0001
0000
0020
0200
0000
0000
0000
0000
0000
0000
0000
0000
0000
,  // measure 51
0000
0000
0000
0000
,  // measure 52
0000
0000
0000
0000
,  // measure 53
0000
0000
0330
0000
,  // measure 54
1001
0000
0010
0000
0100
0001
0010
0100
,  // measure 55
0000
0100
1000
0100
0001
0000
1100
0000
,  // measure 56
0010
0100
0001
0000
0011
0000
1100
0000
,  // measure 57
0010
0100
0001
0000
0010
0100
1000
0000
,  // measure 58
0010
0100
0010
0000
1000
0010
0001
0000
,  // measure 59
0001
0010
0100
0000
0011
0000
1000
0000
,  // measure 60
0010
0100
0010
0100
0001
0010
0100
1000
,  // measure 61
0100
0010
0100
0010
0001
0000
0110
0000
,  // measure 62
1000
0000
0110
0000
0001
1000
1100
0000
,  // measure 63
0010
0100
0110
0000
0011
0000
0110
0000
,  // measure 64
1100
0000
0010
0000
1000
0100
0010
0001
,  // measure 65
0100
0000
0000
0000
0000
0000
0000
0000
0000
0000
0000
0000
0000
0000
0000
0000
0000
0000
0000
0000
0000
0000
0000
0000
0010
0000
0000
0000
0000
0000
0000
0000
0000
0000
0000
0000
0000
0000
0000
0000
0000
0000
0000
0000
0000
0000
0000
0000
1010
0000
0000
0000
0000
0000
0000
0000
0000
0000
0000
0000
0000
0000
0000
0000
0000
0000
0000
0000
0000
0000
0000
0000
0000
0000
0000
0000
0000
0000
0000
0000
0101
0000
0000
0000
0000
0000
0000
0000
0000
0000
0000
0000
0000
0000
0000
0000
0000
0000
0000
0000
0000
0000
0000
0000
0000
0000
0000
0000
0000
0000
0000
0000
0000
0000
0000
0000
0000
0000
0000
0000
0022
0000
0000
0000
0000
0000
0000
0000
0033
0000
0000
0000
1000
0000
0000
0000
0000
0000
0100
0000
0000
0000
0000
0000
1000
0000
0000
0000
0000
0000
0000
0000
0000
0000
0000
0000
0000
0000
0000
0000
0000
0000
0000
0000
0000
0000
0000
0000
0010
0000
0000
0000
0000
0000
0000
0000
0000
0000
0000
0000
0100
0000
0000
0000
0000
0000
0000
0000
0000
0000
0000
0000
,  // measure 66
0000
0001
0010
0000
0001
0000
0100
0010
0000
1000
0100
0000
1000
0000
0010
0100
,  // measure 67
0000
0100
0010
0000
1000
0000
0100
0010
0000
0010
0100
0000
1000
0000
0001
0100
,  // measure 68
0000
0100
0001
0000
0010
0000
0100
0010
0000
0010
0001
0000
1000
0000
0010
0100
,  // measure 69
0001
0000
0010
0000
0100
1000
0001
0100
0010
0000
0100
0000
0001
0010
0001
0010
,  // measure 70
0001
0000
1000
0000
0010
0100
0010
0100
0010
0000
1000
0000
0100
0000
0010
0001
,  // measure 71
0100
0000
0010
0000
1000
0010
0100
0010
1000
0000
0001
0000
0010
0000
0001
0100
,  // measure 72
0000
0100
0001
0000
0010
0100
1000
0100
0010
0100
1000
0100
0010
0000
0001
0100
,  // measure 73
0000
0100
0010
0000
1000
0001
0010
0001
1000
0001
0010
0001
2000
0000
0000
0000
,  // measure 74
0000
0000
0000
0000
0000
0000
0000
0000
3000
0000
0000
0000
0110
0000
0000
0011
,  // measure 75
0000
1100
2002
3003
0100
0001
0010
0001
,  // measure 76
1000
0000
0010
0100
0001
0000
0010
0000
0100
1000
0001
0100
0010
0000
0100
0010
,  // measure 77
1000
0100
0010
0001
0200
0000
0001
0000
0301
0000
0010
0000
0001
0000
0010
0100
,  // measure 78
1000
0000
0010
0000
1000
0010
0100
0001
0010
0000
0001
1000
0100
0000
1000
0010
,  // measure 79
0200
0000
0010
0000
0310
0000
1000
0000
0001
0010
0100
1000
0020
0000
0100
0000
,  // measure 80
0130
0000
0001
0010
0100
0000
1000
0010
0100
0000
0010
0100
0001
0000
0010
0100
,  // measure 81
1000
0000
0010
0100
0001
0000
1000
0100
0010
0100
1000
0001
0100
0010
0100
0001
,  // measure 82
0010
0000
0210
0000
1000
0000
1300
0000
0001
0100
0010
0000
0100
0010
1000
0000
,  // measure 83
0010
0100
0001
0100
1000
0001
0010
1000
0001
0010
0100
1000
0010
0100
0001
0000
,  // measure 84
1010
0011
2000
0020
3030
0000
0000
0000
;
