#TITLE:Rejection Girl;
#SUBTITLE:;
#ARTIST:BEMANI Sound Team "HuΣeR";
#TITLETRANSLIT:;
#SUBTITLETRANSLIT:;
#ARTISTTRANSLIT:HuMeR;
#GENRE:STYLISH FUTURE;
#CREDIT:;
#BANNER:Rejection_Girl_banner.png;
#BACKGROUND:Rejection_Girl_bg.png;
#LYRICSPATH:;
#CDTITLE:;
#MUSIC:Rejection Girl.ogg;
#OFFSET:-0.510000;
#SAMPLESTART:83.260002;
#SAMPLELENGTH:12.000000;
#SELECTABLE:YES;
#BPMS:0.000000=174.000000
,63.000000=348.000000
,65.000000=174.000000
,95.000000=87.000000
,96.000000=174.000000
,129.000000=348.000000
,131.500000=174.000000
,154.000000=87.000000
,154.500000=348.000000
,155.500000=174.000000
,186.000000=348.000000
,188.000000=174.000000
,244.000000=348.000000
,251.000000=174.000000
,252.000000=87.000000
,252.500000=174.000000
,253.000000=348.000000
,255.000000=174.000000
,255.500000=87.000000
,256.000000=348.000000
,261.000000=174.000000
,293.000000=87.000000
,293.500000=174.000000
,294.000000=348.000000
,295.000000=174.000000
,325.000000=87.000000
;
#STOPS:8.000000=0.690000,
10.000000=0.345000,
13.000000=0.690000,
14.500000=0.086000,
14.750000=0.086000,
15.000000=0.086000,
15.250000=0.086000,
22.500000=0.172000,
32.500000=0.172000,
63.000000=0.084000,
63.500000=0.084000,
64.000000=0.056000,
64.333336=0.056000,
64.666664=0.056000,
128.000000=1.034000,
129.000000=0.172000,
129.500000=0.172000,
130.000000=0.086000,
131.500000=0.345000,
186.000000=0.086000,
186.500000=0.086000,
187.000000=0.086000,
187.500000=0.086000,
244.000000=0.086000,
244.500000=0.086000,
245.000000=0.086000,
245.500000=0.086000,
246.000000=0.086000,
246.500000=0.086000,
247.000000=0.086000,
247.500000=0.086000,
248.000000=0.086000,
248.500000=0.086000,
249.000000=0.086000,
249.500000=0.086000,
250.000000=0.086000,
250.500000=0.086000,
256.000000=0.086000,
256.500000=0.086000,
257.000000=0.086000,
257.500000=0.086000,
260.000000=0.172000,
325.000000=2.069000
;
#BGCHANGES:;
#KEYSOUNDS:;
#ATTACKS:;

//---------------dance-single - ----------------
#NOTES:
     dance-single:
     :
     Easy:
     7:
     0.303234,0.334233,0.115182,0.164545,0.000000,258.000000,244.000000,14.000000,20.000000,0.000000,0.000000,0.303234,0.334233,0.115182,0.164545,0.000000,258.000000,244.000000,14.000000,20.000000,0.000000,0.000000:
0000
0000
0000
0000
,
0000
0000
0000
0000
,
0010
0000
0010
0000
,
0000
0100
0000
0000
,
0000
0000
1001
0000
,
0010
0000
0000
0000
0100
0000
0000
0010
,
0000
0000
0000
0001
0000
0000
0000
1000
,
0000
0000
0000
0010
0000
0000
0000
0110
,
0000
0100
0000
0010
,
0000
1000
0100
0010
,
0000
0001
0000
1000
,
0000
0001
0010
0100
,
0000
1000
0010
1000
,
0000
0001
0010
0001
,
0000
1000
0001
0010
,
0100
1000
0010
0110
,
0000
1000
1000
1000
,
0000
0001
0001
0001
,
0000
0010
0010
0010
,
0000
0100
0100
0100
,
0000
1000
0001
0100
,
0000
0001
1000
0100
,
0000
1000
0001
0010
,
0000
0001
1000
0020
,
0130
0100
0001
0000
,
0010
0010
1000
0000
,
0001
0001
0010
0000
,
1000
1000
0100
0000
,
1000
0001
0010
0001
,
1000
0010
0100
0000
,
0001
0010
0100
1000
,
0010
0100
1001
0000
,
0110
0000
0001
0000
0000
0001
0000
0000
,
1000
0100
0000
0100
,
1000
0001
0000
0001
,
0100
0010
0000
0010
,
1000
0001
2002
3003
,
0010
0100
0000
0100
,
0001
0000
1000
0000
2200
3300
0000
0000
,
0001
0010
0000
0010
,
0001
0100
0010
1000
,
0100
1000
0001
1000
,
0001
0010
0001
0000
,
1000
0010
1000
0001
,
1000
0100
1000
0000
,
0001
0010
0001
1000
,
0001
0100
0010
0000
,
1000
0001
0000
0001
,
0010
0100
1000
0001
,
0200
0010
0000
0310
,
2000
0100
0000
3100
,
0002
0010
0000
0013
,
1000
0000
0001
0000
0000
0100
0000
0100
,
0020
1000
0000
1030
,
0002
0100
0000
0103
,
0010
1000
0001
0100
,
0010
1000
0100
0000
,
0102
0013
0001
1000
,
0010
1000
0100
0000
,
1020
0130
0001
0010
,
0100
1000
0001
0000
,
2000
3000
0002
0003
2000
3000
0002
0003
,
0200
0300
0020
0030
0110
0000
0000
0000
,
0001
0000
1000
0000
,
0010
0010
0110
0000
,
0000
0001
0010
0000
,
0001
1000
0100
1000
,
0000
0010
0110
0000
,
0010
1000
0100
0010
,
0000
0001
0100
0000
,
0100
0010
1000
0010
,
0000
1000
0001
0000
,
0001
0010
0100
1000
,
0001
2002
3003
0010
,
0000
0100
0100
0001
,
0000
1000
0100
0010
,
0000
0010
0100
0001
,
0000
0001
1000
0010
,
0100
0001
0010
0100
,
0000
0100
1000
0010
,
0001
1000
0001
0010
,
0100
1001
0000
0000
;

//---------------dance-single - ----------------
#NOTES:
     dance-single:
     :
     Medium:
     12:
     0.619396,0.601851,0.337318,0.353773,0.008227,527.000000,486.000000,41.000000,43.000000,0.000000,0.000000,0.619396,0.601851,0.337318,0.353773,0.008227,527.000000,486.000000,41.000000,43.000000,0.000000,0.000000:
0000
0000
0000
0000
,
0000
0000
0000
0000
,
1100
0001
0000
0001
0010
0001
1000
0100
,
0010
0001
0100
0010
0000
1010
0101
0010
,
0100
0001
0010
0100
2000
0000
3010
0001
,
0010
0100
0001
0010
0000
0010
0001
1000
,
0100
0010
0100
1000
0000
0001
1000
0000
,
0010
0100
0001
0101
0000
1100
0000
0101
,
0000
1100
0020
0000
0130
0001
0010
0000
,
0001
0010
0100
0000
1000
0001
0010
0100
,
1000
0010
0100
0000
0001
1000
0000
0001
,
1000
0010
0100
0101
0000
1100
0000
0010
,
0100
0010
1000
0000
0100
1000
0001
0010
,
0001
0100
0000
0100
0010
1000
0001
0010
,
0100
0000
1000
0001
0100
0000
0100
0001
,
1000
0000
0010
0100
0001
1000
0100
0100
,
0200
0000
0310
0000
0011
0000
1000
0001
,
0010
0001
1000
0000
1010
0000
0001
1000
,
0010
1000
0001
0000
0101
0000
0010
1000
,
0100
1000
0001
0000
0011
0000
1000
0001
,
0010
0001
1000
0100
0010
0001
0100
0010
,
0001
0000
0001
0010
0100
1000
0001
0010
,
0100
0000
0001
1000
0100
0010
0001
1000
,
0001
0010
0100
1000
0001
1000
0020
0000
,
0130
0000
0110
0000
0001
0010
0100
1000
,
0001
0000
1001
0000
0100
0010
1000
0010
,
0100
0000
0011
0000
1000
0001
0010
0100
,
0010
0000
1100
0000
0001
1000
0010
0100
,
0001
0010
0100
0000
1000
0010
0100
0000
,
0010
1000
0100
0000
1000
0010
0100
0000
,
0001
0010
0100
0001
0100
0010
0001
1000
,
0001
1000
0010
0010
0200
0000
0300
0000
,
1001
0000
0010
0010
0010
0220
0330
0000
,
0001
0010
0001
0000
1000
0010
0100
0001
,
0010
0100
1000
0000
0010
0100
0010
1000
,
0100
0010
0001
0000
1000
0001
0010
0100
,
1000
0010
0100
0001
0022
0000
0033
0000
,
1000
0001
0010
0000
0001
1000
0010
0100
,
1000
0100
0001
0010
0220
0000
0330
0000
,
1000
0000
1000
0001
0100
0010
0100
0001
,
0010
0100
0000
0110
0010
0001
1000
0100
,
1000
2001
0010
3001
,
0210
0001
0010
0301
,
0012
1000
0100
1003
,
0010
0000
0000
0100
0000
0000
0010
0000
1000
0000
0100
0000
0001
0000
0100
0000
,
1000
0000
1001
0000
0001
0010
0100
0010
,
0001
1000
0010
0100
0002
0000
0003
0000
,
1000
0000
0101
0100
0000
0010
1000
0001
,
0010
0100
0010
0001
1000
0010
0001
0010
,
2000
0100
0001
3100
,
0002
0010
1000
0013
,
0020
1000
0001
1030
,
0002
0000
0100
0000
1000
1000
0000
1003
,
2000
0010
0100
3001
,
0002
0100
1000
0013
,
0200
0001
1000
0301
,
0010
1000
0001
0010
0100
1000
0010
0000
,
1200
0000
0302
0000
0103
1000
0010
0001
,
0010
0100
0001
0010
0100
1000
0001
0000
,
0021
0000
2030
0000
3010
0001
1000
0010
,
0100
0001
0010
1000
0010
0001
1000
0001
,
2000
3020
2030
0000
3020
0230
0302
0023
,
0000
0000
2000
3000
2030
0000
0000
0000
3002
0000
0203
0000
0320
0000
0032
0000
,
1003
0010
1000
0000
0010
0000
0000
0110
,
0001
1000
0001
1000
0010
0000
0000
0000
,
1001
0000
0001
0010
0100
0000
1000
0001
,
0000
0110
0000
0001
0010
0100
1000
0010
,
1000
0001
0100
0010
0110
0000
1000
0100
,
0000
1100
0000
0101
0000
0010
0100
0001
,
0010
0001
1000
0100
2000
0000
3001
0010
,
0000
0201
0000
0010
0310
0000
1000
0001
,
0100
0010
1000
0001
0011
0000
1000
0010
,
0000
0110
0000
0001
0010
0001
1000
0010
,
0100
0001
2000
0010
0000
0000
3010
0100
,
0000
0110
0000
0001
1000
0001
0100
0010
,
0001
0010
1000
0100
1100
0000
0001
0010
,
0000
0101
0000
1000
0001
1000
0100
0001
,
0100
1000
0001
0100
0010
0000
1000
0001
,
0100
0010
0000
0010
0100
0001
0010
0100
,
1000
0001
0100
0010
1000
0000
0001
0010
,
0100
1000
0001
1000
0010
1000
0001
1000
,
0010
0000
0100
0000
0010
0000
0000
0000
2000
3000
0000
0000
0000
0000
0000
0000
0000
0000
0000
0000
0000
0000
0000
0000
0000
0000
0000
0000
0000
0000
0000
0000
;

//---------------dance-single - ----------------
#NOTES:
     dance-single:
     :
     Hard:
     17:
     0.899123,0.835904,0.329091,0.526545,0.559454,765.000000,725.000000,40.000000,64.000000,0.000000,0.000000,0.899123,0.835904,0.329091,0.526545,0.559454,765.000000,725.000000,40.000000,64.000000,0.000000,0.000000:
0000
0000
0000
0000
,
0000
0000
0000
0000
,
2002
3003
0011
0000
1000
0010
0000
1000
0100
0000
0001
0100
0010
0000
1000
0000
,
0100
0000
0010
0000
0011
0000
1000
0010
0000
1000
0200
0302
0203
2300
3000
0010
,
0100
0000
0001
0000
0010
0000
0001
1000
0001
0000
0000
1000
0010
0000
0000
0100
,
0010
0000
0100
0000
0001
1000
0000
1000
0001
0000
0011
0000
1000
0000
0100
0000
,
1000
0010
1000
0000
0001
0000
0100
0000
0010
0100
0010
0000
1000
0000
0001
0000
,
0010
0001
0000
1000
0100
0000
1000
0000
0010
0000
1000
0000
0001
0000
0010
0100
,
1000
0001
1000
0000
0110
0000
0001
1000
0000
0000
0010
1000
0001
0000
0010
0000
,
0000
0000
0110
0000
1000
0000
0001
0000
0100
0001
1000
0000
0010
0000
0100
0001
,
1000
0000
0100
0000
1000
0000
0010
0100
0001
0000
0010
0000
0001
0000
1000
0010
,
0100
0000
0001
0000
0010
0000
1000
0000
0010
0000
0001
0000
1000
0001
0100
0010
,
1000
0000
0010
0000
0100
0000
0001
1000
0001
0000
0010
0000
0100
0000
1000
0001
,
0100
0000
0010
0000
1000
0000
0001
0010
0100
0000
1000
0000
0010
0100
0001
0000
,
1000
0000
0001
0000
1000
0000
0010
0100
0010
0000
1000
0000
0001
0000
0010
0100
,
0010
0001
0100
0100
0100
0100
0200
0310
,
2000
0000
0000
0000
3020
0000
0000
0000
2030
0000
0000
0000
3001
0000
0000
0000
0000
0000
0010
0000
0000
0001
0000
0000
0010
0000
0000
0000
0000
0000
0100
0000
0000
0000
0000
0000
1000
0000
0000
0000
0000
0000
0010
0000
0000
0000
0000
0000
,
1000
0000
1001
0000
0001
0000
1000
0010
1000
0000
0001
0000
0010
0000
0100
0000
,
1000
0000
1001
0000
0001
0000
0010
0100
0010
0000
0001
0000
1000
0000
0010
0000
,
0100
0000
0101
0000
0001
0000
0010
0100
0010
0000
0001
0000
1000
0000
0010
0000
,
0100
0000
0110
0000
0010
0000
1000
0100
1000
0000
0001
0000
0010
0000
1000
0000
,
0010
0000
0001
0000
1000
0000
0001
0010
0001
0000
1000
0000
0100
0000
1000
0000
,
0001
0000
1000
0000
0010
0000
0100
0001
1000
0000
0100
0000
1000
0000
0001
0000
,
0010
0000
0000
0000
0100
0000
0000
0000
1000
0000
0000
0000
0010
0000
0100
0000
0001
0000
0000
0000
1000
0000
0000
0000
0001
0010
0200
0000
1000
0000
1300
0000
,
1000
0000
0001
0000
1000
0010
1000
0000
0001
0100
0010
0000
1000
0000
0001
0000
,
0010
0000
0001
0000
0100
0010
0100
0000
0001
1000
0100
0000
1000
0000
0010
0000
,
0100
0000
0001
0000
1000
0010
0100
0000
0001
0010
0001
0000
1000
0000
0100
0000
,
1000
0000
0001
0000
0010
0001
1000
0000
0010
0100
0001
0000
0100
0000
0100
0000
,
0010
0000
0001
0000
1000
0100
0010
0000
0001
0100
0010
0000
1000
0000
0001
1000
,
0010
0000
0100
0000
0001
1000
0010
0000
1000
0010
0100
0000
0001
0000
0010
0001
,
1000
0000
0010
0000
1000
0100
0010
0000
0001
1000
0010
0000
0100
0000
0100
0000
,
0010
0000
0010
0000
0010
0000
0010
0000
1000
0001
0100
0010
1000
0100
0010
0001
,
0200
0300
0000
0000
0220
0330
2002
3003
0220
0330
0201
0000
0000
0000
0020
0330
,
1000
0000
0010
0000
0100
0001
0100
0000
0001
0000
0010
0000
1000
0000
0010
0000
,
0001
0000
1000
0000
0010
1000
0010
0000
1000
0000
0100
0000
0001
0000
0100
0000
,
1000
0000
0001
0000
0100
0010
0100
0000
0001
0000
0010
0000
0100
0000
1000
0000
,
0001
0000
1000
0000
0010
0100
0010
0000
1000
0000
0100
1000
0000
0010
1000
0010
,
0100
0000
0001
0000
0010
0001
1000
0000
0010
0100
0001
0000
1000
0000
0100
0000
,
1000
0000
0001
0000
0010
0001
0100
0000
0002
0023
2030
0000
0000
0000
3001
0000
,
0100
0000
1000
0001
0100
0000
0010
0000
1000
0000
0001
0000
0100
0000
0010
0000
,
1000
0000
0001
0000
0010
0000
0100
0000
1000
0001
0010
0001
1000
0000
0010
0000
,
0210
0000
0000
0000
1300
0000
0100
0000
0210
0000
0000
0000
0301
0010
0001
0000
,
0010
0000
0100
1000
0000
0100
1000
0001
0100
0000
0010
0000
1000
0001
1000
0000
,
0120
0000
0000
0000
0031
0000
0010
0000
0120
0000
0000
0000
1030
0100
1000
0000
,
0100
0000
0010
0001
0000
0010
0001
1000
0010
0000
0100
0000
0001
1000
0010
0000
,
0100
0000
0001
0000
0010
0001
1000
0000
0010
0000
0100
0000
0001
1000
0100
0000
,
1000
0000
0001
0000
0010
0100
0010
0000
0200
0000
2300
0000
3020
0000
0032
0000
,
0103
0000
0010
1000
0001
0000
1000
0000
0100
0000
0010
0100
0010
0000
0001
0000
,
1000
0000
0010
0000
1000
0000
0001
0000
0010
0001
0100
0010
1000
0000
0001
0000
,
1002
0010
0100
1003
,
2010
0001
0100
3010
,
0201
0010
1000
0301
,
1020
0000
0001
0000
0230
0001
0000
0301
,
1000
0000
0010
0000
1000
0001
0010
0000
0100
0000
1000
0000
0001
0000
0000
0000
,
0100
0000
0010
0000
1000
0001
0100
0000
0010
0000
1000
0000
0100
0000
0000
0000
,
0010
0000
0100
0000
1000
0001
0100
0000
0010
0000
1000
0000
0001
0000
0000
0000
,
0100
0000
0001
0000
0010
0000
0001
0000
1000
0100
1000
0010
0100
0000
0001
0000
,
0012
0000
1003
0000
2100
0000
3001
0000
0100
0010
0100
0000
0001
0000
0010
0000
,
0001
1000
0001
0000
1000
0000
0010
0000
0100
0010
0100
0000
0001
0000
1000
0000
,
2010
0000
3001
0000
0102
0000
1003
0000
0100
0010
0100
0000
1000
0000
0001
0000
,
0100
0010
0100
0000
0001
0000
0010
0000
0001
0000
0101
0000
0000
0000
1010
0000
,
2000
0000
3002
0000
0020
0030
0023
0000
0230
0000
2300
0000
3020
0000
0032
0000
,
2000
3000
2003
0000
3200
0000
0320
0000
0002
0003
2030
3000
0100
0000
0001
0000
,
0001
0100
0000
0000
1000
0000
0010
0000
0100
0000
0001
0000
0010
0000
0100
0010
,
0200
0302
0203
2300
3100
0001
0100
1000
,
0020
0030
0000
0000
1100
0000
1000
0001
1000
0000
0010
0000
0100
0000
0001
0000
,
0010
0000
0011
0000
0000
0000
1000
0010
1000
0000
0001
0000
1000
0000
0100
0000
,
0001
0000
0100
0000
1000
0000
0010
0100
0020
0000
1000
0000
1030
0000
0101
0000
,
0000
0000
0011
0000
0001
0000
1000
0000
0010
0000
1000
0000
0001
0010
0100
0010
,
0001
0000
1000
0000
1001
0000
0001
1000
0001
0000
0100
0000
0010
0000
1000
0000
,
0100
0000
1100
0000
0000
0000
0001
0100
0001
0000
1000
0000
0001
0000
0010
0000
,
1000
0000
0010
0000
0001
0000
0100
0010
0200
0000
0301
0000
0001
0000
1010
0000
,
0000
0000
1100
0000
1000
0000
0001
0000
0100
0000
0001
0000
1000
0100
0010
0100
,
1000
0000
0010
0000
0210
0000
0001
0000
0310
0000
0000
0000
0110
0000
1000
0001
,
1000
0000
0001
0000
0010
0000
0001
1000
0100
0000
1000
0000
0010
0000
0100
0001
,
0010
0000
0100
0000
1000
0000
0010
0100
0010
0000
1000
0000
0001
0000
0010
0001
,
1000
0000
0010
0000
0100
0000
0001
0010
0001
0000
0100
0000
0001
0010
0001
0000
,
1000
0000
0100
0000
1000
0000
0010
0001
0010
0000
1000
0000
0001
0000
0010
0100
,
0010
0000
0100
0000
1000
0000
0001
0010
0001
0000
1000
0000
0100
0010
0001
0000
,
1000
0000
0001
0000
1000
0000
0010
0100
0001
0000
0010
0000
0001
1000
0100
0000
,
1000
0000
0010
0000
0110
0000
0100
0000
0110
0000
0010
0000
0100
0001
0010
0100
,
1000
0000
0010
0000
0100
0000
0002
0000
2000
3003
0000
0000
0000
0000
0000
0000
0000
0000
0000
0000
0000
0000
0000
0000
0000
0000
0000
0000
0000
0000
0000
0000
;

//---------------dance-double - ----------------
#NOTES:
     dance-double:
     :
     Hard:
     17:
     0.894422,0.869340,0.312636,0.518318,0.543000,761.000000,723.000000,38.000000,63.000000,0.000000,0.000000,0.894422,0.869340,0.312636,0.518318,0.543000,761.000000,723.000000,38.000000,63.000000,0.000000,0.000000:
// measure 0
00000000
00000000
00000000
00000000
,  // measure 1
00000000
00000000
00000000
00000000
,  // measure 2
00202000
00303000
01010000
00000000
00010000
10000000
00000000
00100000
01000000
00000000
01000000
00010000
00100000
00000000
00001000
00000000
,  // measure 3
01000000
00000000
00010000
00000000
10010000
00000000
00100000
00001000
01000000
00000000
00020000
00230000
00302000
00023000
00030010
00000100
,  // measure 4
00000001
00000000
00000010
00000000
00000100
00000000
00001000
00000100
00010000
00000000
00000000
00000010
00001000
00000000
00000000
00000001
,  // measure 5
00000100
00000000
00000010
00000000
00010000
00001000
00000000
00001000
00010000
00000000
00011000
00000000
00100000
00001000
00100000
00000000
,  // measure 6
00010000
10000000
00100000
00000000
01000000
00000000
00010000
00000000
10000000
00100000
01000000
00000000
00001000
00000000
00010000
00000000
,  // measure 7
00000100
00001000
00000000
00000010
00001000
00000000
00000001
00000000
00000010
00000000
00001000
00000000
00000010
00000000
00000001
00001000
,  // measure 8
00000100
00010000
00001000
00000000
00110000
00000000
10000000
00010000
00000000
00000000
00100000
01000000
10000000
00000000
00010000
00000000
,  // measure 9
00000000
00000000
01100000
00000000
00010000
00000000
10000000
00000000
00100000
00000000
01000000
00000000
00010000
00100000
00001000
00000000
,  // measure 10
00010000
00000000
00000100
00000000
00001000
00000000
00000010
00000100
00001000
00000000
00000100
00000000
00000001
00000000
00000010
00001000
,  // measure 11
00000001
00000000
00000100
00000000
00000010
00000000
00001000
00000000
00000100
00000000
00010000
00000000
00000010
00010000
00001000
00010000
,  // measure 12
00000100
00000000
00010000
00000000
00001000
00000000
00100000
00010000
10000000
00000000
00100000
00000000
01000000
00000000
00010000
00100000
,  // measure 13
00001000
00000000
00010000
00000000
00000010
00000000
00000100
00000001
00001000
00000000
00000010
00000000
00010000
00001000
00010000
00000000
,  // measure 14
00000100
00000000
00010000
00000000
00001000
00000000
00100000
00000000
00010000
00000000
10000000
01000000
10000000
00000000
00010000
00000000
,  // measure 15
00100000
00000000
00001000
00010000
00000100
00000000
00010000
00000000
00010000
00000000
00010000
00000000
00020000
00000000
00030020
00000000
,  // measure 16
00002030
00000000
00000000
00000000
00003200
00000000
00000000
00000000
00020300
00000000
00000000
00000000
00031000
00000000
00000000
00000000
00000000
00000000
00100000
00000000
00000000
00010000
00000000
00000000
00100000
00000000
00000000
00000000
00000000
00000000
00010000
00000000
00000000
00000000
00000000
00000000
10000000
00000000
00000000
00000000
00000000
00000000
01000000
00000000
00000000
00000000
00000000
00000000
,  // measure 17
00100000
00000000
01100000
00000000
01000000
00000000
10000000
00010000
10000000
00000000
00100000
00000000
01000000
00000000
00001000
00000000
,  // measure 18
00010000
00000000
00011000
00000000
00001000
00000000
00010000
00000010
00010000
00000000
00000100
00000000
00001000
00000000
00000001
00000000
,  // measure 19
00000010
00000000
00000011
00000000
00000001
00000000
00001000
00000100
00001000
00000000
00000010
00000000
00010000
00000000
00001000
00000000
,  // measure 20
00100000
00000000
00101000
00000000
00001000
00000000
00010000
00001000
01000000
00000000
00010000
00000000
00100000
00000000
01000000
00000000
,  // measure 21
10000000
00000000
00010000
00000000
10000000
00000000
00100000
01000000
00100000
00000000
10000000
00000000
00010000
00000000
00100000
00000000
,  // measure 22
00000100
00000000
00001000
00000000
00000010
00000000
00010000
00001000
00010000
00000000
00000100
00000000
00001000
00000000
00000001
00000000
,  // measure 23
00000010
00000000
00000000
00000000
00000100
00000000
00000000
00000000
00010000
00000000
00000000
00000000
00001000
00000000
00100000
00000000
00010000
00000000
00000000
00000000
10000000
00000000
00000000
00000000
00100000
01000000
00020000
00000000
00100000
00000000
00100000
00000000
,  // measure 24
10030000
00000000
01000000
00000000
00100000
01000000
10000000
00000000
00010000
01000000
00100000
00000000
01000000
00000000
00001000
00000000
,  // measure 25
00010000
00000000
00000010
00000000
00001000
00000100
00000010
00000000
00000001
00000100
00000010
00000000
00001000
00000000
00000100
00000000
,  // measure 26
00010000
00000000
00001000
00000000
00100000
00010000
10000000
00000000
00100000
10000000
00010000
00000000
00100000
00000000
00001000
00000000
,  // measure 27
00010000
00000000
00000010
00000000
00001000
00000001
00000100
00000000
00000001
00001000
00000100
00000000
00001000
00000000
00000010
00000000
,  // measure 28
00010000
00000000
00001000
00000000
00010000
00000100
00010000
00000000
00001000
01000000
00001000
00000000
00010000
00000000
00010000
00001000
,  // measure 29
00010000
00000000
00000010
00000000
00010000
00000100
00010000
00000000
00001000
01000000
00001000
00000000
00100000
00000000
00100000
00010000
,  // measure 30
10000000
00000000
00100000
00000000
01000000
00100000
10000000
00000000
00010000
00100000
00001000
00000000
00001000
00000000
00010000
00000010
,  // measure 31
00000100
00000000
00001000
00000000
00000100
00000000
00000010
00000000
00000100
00000001
00000010
00000100
00001000
00000010
00010000
00000200
,  // measure 32
00020000
00030300
00000000
00000000
00022000
00033000
02200000
03300000
00120000
00000000
20000000
00000000
00030000
00000000
02000000
33000000
,  // measure 33
00100000
00000000
00001000
00000000
00010000
00001000
00010000
00000000
00000010
00000000
00000100
00000000
00000001
00000000
00000010
00000000
,  // measure 34
00000100
00000000
00001000
00000000
00000010
00010000
00000010
00000000
00001000
00000000
00000100
00000000
00010000
00000000
00001000
00000000
,  // measure 35
00100000
00000000
00010000
00000000
10000000
01000000
10000000
00000000
00100000
00000000
01000000
00000000
10000000
00000000
01000000
00000000
,  // measure 36
00010000
00000000
00100000
00000000
00001000
00010000
00000100
00000000
00010000
00000000
00000010
00000100
00000000
00000010
00001000
00000100
,  // measure 37
00010000
00000000
00000010
00000000
00001000
00000001
00001000
00000000
00000100
00000000
00000010
00000000
00000001
00000000
00000010
00000000
,  // measure 38
00000100
00000000
00010000
00000000
00001000
00100000
00010000
00000000
10000000
02000000
00020000
00000000
03000000
00000000
01030000
00000000
,  // measure 39
10000000
00000000
00100000
01000000
00010000
00000000
00100000
00000000
00001000
00000000
00010000
00000000
01000000
00000000
00010000
00000000
,  // measure 40
00001000
00000000
00010000
00000000
00000010
00000000
00001000
00000000
00000100
00001000
00000001
00001000
00000010
00000000
00000100
00000000
,  // measure 41
00000102
00000000
00000000
00000000
00000013
00000000
00000100
00000000
00001002
00000000
00000000
00000000
00000103
00000010
00010000
00000000
,  // measure 42
00000100
00000000
00001000
00000010
00000000
00010000
00001000
00010000
00000100
00000000
00010000
00000000
00001000
01000000
00001000
00000000
,  // measure 43
02010000
00000000
00000000
00000000
03100000
00000000
10000000
00000000
12000000
00000000
00000000
00000000
03100000
00010000
00100000
00000000
,  // measure 44
00001000
00000000
01000000
00010000
00000000
01000000
00100000
10000000
00010000
00000000
00100000
00000000
00001000
00010000
00001000
00000000
,  // measure 45
00100000
00000000
00010000
00000000
10000000
01000000
00100000
00000000
00010000
00000000
01000000
00000000
00001000
00010000
00000100
00000000
,  // measure 46
00001000
00000000
00000010
00000000
00000100
00000001
00000100
00000000
00000020
00000000
00002030
00000000
00023000
00000000
00230000
00000000
,  // measure 47
01300000
00000000
10000000
00100000
10000000
00000000
00010000
00000000
00100000
00000000
00001000
00000000
00010000
00000000
00000010
00001000
,  // measure 48
00000100
00000000
00010000
00000000
00000010
00000000
00001000
00000000
00000001
00000010
00000100
00001000
00000010
00000000
00000100
00000000
,  // measure 49
00000201
00000010
00001000
00000310
,  // measure 50
00002010
00000100
00000001
00003100
,  // measure 51
00010200
00001000
00010000
00100300
,  // measure 52
00102000
00000000
00013000
00000000
01000000
10100000
00000000
00110000
,  // measure 53
00010000
00000000
10000000
00000000
00100000
01000000
00100000
00000000
10000000
00000000
01000000
00000000
00100000
00000000
00000000
00000000
,  // measure 54
00001000
00000000
00010000
00000000
00000010
00000100
00000010
00000000
00001000
00000000
00000100
00000000
00000010
00000000
00000000
00000000
,  // measure 55
00000001
00000000
00001000
00000000
00000100
00010000
00000100
00000000
00010000
00000000
00001000
00000000
00100000
00000000
00000000
00000000
,  // measure 56
00001000
00000000
00010000
00000000
00000010
00001000
00000010
00000000
00000100
00000000
00000001
00000000
00000010
00000000
00000000
00000000
,  // measure 57
00002100
00000000
00003010
00000000
00000102
00000000
00000013
00000000
00000001
00000100
00000010
00000000
00010000
00000000
00001000
00000000
,  // measure 58
00100000
00010000
10000000
00000000
01000000
00000000
10000000
00000000
00100000
00000000
01000000
00000000
00010000
00000000
00100000
00000000
,  // measure 59
01020000
00000000
00130000
00000000
21000000
00000000
30100000
00000000
01000000
00010000
00100000
00000000
00001000
00000000
00010000
00000000
,  // measure 60
00000100
00010000
00001000
00000000
00010000
00000000
00000010
00000000
00000100
00000000
00000101
00000000
00000000
00000000
00001100
00000000
,  // measure 61
00000002
00002003
00003200
00020300
02030000
23000000
30020000
00230000
,  // measure 62
00302000
00000000
02000000
03000000
02003000
00000000
03020000
00000000
20030000
00000000
30200000
00000000
00320000
00000000
00230000
00000000
,  // measure 63
01300000
00010000
00000000
00000000
10000000
00000000
00010000
00000000
00100000
00000000
00001000
00000000
00010000
00000000
00001000
00010000
,  // measure 64
00000020
00020030
00030200
00002300
00003001
00000100
00000010
00001000
,  // measure 65
00000200
00000300
00000000
00000000
00010010
00000000
00010000
00000100
00010000
00000000
00000010
00000000
00000100
00000000
00000001
00000000
,  // measure 66
00001000
00000000
00001100
00000000
00000000
00000000
00000010
00010000
00000010
00000000
00001000
00000000
00000100
00000000
00100000
00000000
,  // measure 67
00010000
00000000
00010000
00000000
10000000
00000000
01000000
00100000
00010000
00000000
00100000
00000000
00001000
00000000
00010000
00000000
,  // measure 68
01000000
00000000
10000000
00000000
00010000
00000000
00100000
00000000
00001000
00000000
00010000
00000000
00000010
00001000
00000100
00000000
,  // measure 69
00010000
00000000
00000010
00000000
00000100
00000000
00000001
00000010
00000001
00000000
00001000
00000000
00000010
00000000
00010000
00000000
,  // measure 70
00001000
00000000
00011000
00000000
00000000
00000000
00000100
00010000
00000100
00000000
00010000
00000000
00001000
00000000
00100000
00000000
,  // measure 71
01000000
00000000
10000000
00000000
00100000
00000000
01000000
00010000
02000000
00000000
03001000
00000000
00100000
00000000
00101000
00000000
,  // measure 72
00000000
00000000
00010100
00000000
00000100
00000000
00001000
00000000
00000010
00000000
00010000
00000000
00000001
00001000
00000010
00001000
,  // measure 73
00000001
00000000
00000100
00000000
00000120
00000000
00010000
00000000
00001030
00000000
00000000
00000000
00011000
00000000
00001000
00100000
,  // measure 74
00001000
00000000
00010000
00000000
01000000
00000000
00100000
00010000
10000000
00000000
00100000
00000000
01000000
00000000
00010000
00100000
,  // measure 75
00001000
00000000
00010000
00000000
00000100
00000000
00000010
00000100
00000010
00000000
00000001
00000000
00001000
00000000
00000010
00000100
,  // measure 76
00000001
00000000
00001000
00000000
00000100
00000000
00010000
00000000
00001000
00000000
00010000
00000000
00000100
00001000
00000100
00010000
,  // measure 77
00001000
00000000
01000000
00000000
00100000
00000000
10000000
01000000
00100000
00000000
00010000
00000000
00100000
00000000
00001000
00010000
,  // measure 78
00000100
00000000
00010000
00000000
00000010
00000000
00001000
00000010
00000100
00000000
00000001
00000000
00000010
00000100
00001000
00000000
,  // measure 79
00000010
00000000
00010000
00000000
00000100
00000000
00001000
00000001
00000010
00000000
00000100
00000000
00010000
00000000
00001000
01000000
,  // measure 80
00010000
00000000
00100000
00000000
00011000
00000000
00010000
00000000
00011000
00000000
00001000
00000000
00010000
00001000
00100000
00000100
,  // measure 81
00010000
00000000
00001000
00000000
00100000
00000000
01000000
00000000
20000000
30000000
00000000
00000000
00000000
00000000
00000000
00000000
00000000
00000000
00000000
00000000
00000000
00000000
00000000
00000000
00000000
00000000
00000000
00000000
00000000
00000000
00000000
00000000
;
