#TITLE:Refrain;
#SUBTITLE:;
#ARTIST:お月さま交響曲;
#TITLETRANSLIT:;
#SUBTITLETRANSLIT:;
#ARTISTTRANSLIT:Otsukisama koukyoukyoku;
#GENRE:;
#CREDIT:;
#BANNER:Refrain_banner.png;
#BACKGROUND:Refrain.png;
#LYRICSPATH:;
#CDTITLE:;
#MUSIC:Refrain.ogg;
#OFFSET:-0.730000;
#SAMPLESTART:76.550003;
#SAMPLELENGTH:15.000000;
#SELECTABLE:YES;
#BPMS:0.000000=163.000000
;
#STOPS:76.000000=0.368000
;
#BGCHANGES:;
#KEYSOUNDS:;
#ATTACKS:;

//---------------dance-single - ----------------
#NOTES:
     dance-single:
     :
     Easy:
     6:
     0.234291,0.261564,0.109336,0.227082,0.000000,195.000000,182.000000,13.000000,27.000000,0.000000,0.000000,0.234291,0.261564,0.109336,0.227082,0.000000,195.000000,182.000000,13.000000,27.000000,0.000000,0.000000:
0000
0000
0000
0000
,
0000
0000
0000
0000
,
0000
0000
0000
0000
,
0000
0000
0000
0000
,
0000
0000
0000
0000
,
1000
0000
0000
1000
0000
0000
0000
0000
,
0001
0000
0000
0001
0000
0000
0000
0000
,
0100
0000
0010
0000
,
0220
0000
0330
0000
,
0001
0000
0010
0000
,
2002
0000
3003
0000
,
0200
0000
0300
0000
,
0020
0000
1030
0000
,
1000
0000
0100
0010
,
0001
1000
0001
0000
,
0100
0010
1000
0000
,
0100
0000
0000
0010
0000
0000
0001
0000
,
1000
0000
0000
0001
0000
0000
1000
0000
,
0010
0100
0010
0100
,
0002
0003
0000
0000
1000
0000
0000
0000
0000
0000
0000
0000
0010
0000
0000
0000
,
1000
0100
0000
0010
,
0001
0100
0000
0001
,
0000
2002
0000
3003
,
0000
0100
0000
0010
,
1000
0001
0000
0010
,
0001
1000
0000
0001
,
0000
0220
0000
0330
,
0000
0010
0000
1000
,
0001
0100
0000
0001
,
0010
0100
0000
1000
,
0010
2000
0000
3001
,
0000
0010
0000
0001
,
0100
0001
0000
1000
,
0001
0100
0000
0010
,
0100
2002
0000
3003
,
0000
0001
0100
0001
,
0000
0010
0001
0010
,
0000
0001
0100
0001
,
0000
1000
0001
2002
,
3003
1000
0010
1000
,
0000
0100
1000
0100
,
0000
2000
0000
3010
,
0000
0110
0000
0001
,
0000
1000
0000
0100
,
0000
0010
0000
0001
,
0000
0100
0000
0010
,
0000
1001
0000
0010
,
1000
0100
0000
1000
,
0010
0100
0000
0001
,
0000
0012
0000
2003
,
0000
0020
0000
3030
,
0000
0100
0001
0010
,
0001
1000
0000
0010
,
0000
1000
0100
0010
,
0001
0100
0000
0010
,
0000
0010
0100
0002
,
0000
0013
0100
2000
,
0000
3010
0000
0010
,
0100
0010
0000
1000
,
0000
0001
0100
0010
,
0100
0001
1000
0100
,
0000
1000
0010
0100
,
0010
1000
0000
0001
,
0010
0002
0100
0103
,
0000
0020
1000
1030
,
0000
1010
0000
0001
,
0200
0000
0000
0300
,
0000
0010
0100
0001
,
0000
0010
0001
0100
,
0000
0001
0010
0100
,
1000
0001
0000
1001
,
0000
0100
0010
0100
,
0000
0001
0010
0001
,
0000
1000
0001
0010
,
0100
1000
0000
1010
,
0000
0000
0000
0220
,
0000
0000
0000
0000
,
0000
0000
0000
0330
;

//---------------dance-single - ----------------
#NOTES:
     dance-single:
     :
     Medium:
     12:
     0.439745,0.490433,0.176619,0.218671,0.100925,366.000000,345.000000,21.000000,26.000000,0.000000,0.000000,0.439745,0.490433,0.176619,0.218671,0.100925,366.000000,345.000000,21.000000,26.000000,0.000000,0.000000:
// measure 0
0000
0000
0000
0000
,  // measure 1
0000
0000
0000
0000
,  // measure 2
0000
0000
0000
0000
,  // measure 3
0000
0000
0000
0000
,  // measure 4
0000
0000
0000
0000
,  // measure 5
0010
0000
0000
0100
0000
0000
0001
0000
0000
0000
0010
0000
0100
0000
0000
0000
,  // measure 6
1000
0000
0000
0100
0000
0000
0010
0000
0000
0000
0001
0000
1000
0000
0000
0000
,  // measure 7
1001
0000
0000
0100
0000
0010
0000
0220
,  // measure 8
0000
0000
0330
0000
,  // measure 9
1000
0000
0000
0100
0000
0000
0001
0000
0100
0000
0000
0000
1000
0000
0000
0000
,  // measure 10
1001
0000
0010
0100
,  // measure 11
0011
0000
1000
0010
,  // measure 12
1100
0000
0001
1000
,  // measure 13
0110
0000
0000
0000
0001
0100
1000
0000
,  // measure 14
0100
0000
0001
0000
0010
0000
0001
1000
,  // measure 15
0100
0000
1000
0000
0010
0000
1000
0001
,  // measure 16
0100
0000
0000
0001
0000
0000
0010
0000
0000
0100
0000
0000
1000
0000
0000
0000
,  // measure 17
0010
0000
0000
0100
0000
0000
0010
0000
,  // measure 18
1000
0000
0000
0001
0000
0000
1000
0000
0100
0000
0000
0010
0000
0000
0100
0000
,  // measure 19
0000
0000
0001
0010
0001
1000
0000
0000
,  // measure 20
0010
0000
1000
0100
1000
0001
0000
0000
,  // measure 21
0100
0000
0000
0000
0010
0000
0000
0000
1000
0000
0000
0000
0100
0000
0000
1000
,  // measure 22
0000
0000
0001
0000
0010
0000
0000
0001
0000
0000
1000
0000
0010
0000
0000
0000
,  // measure 23
0110
0000
0000
0000
0001
0000
0000
0010
0000
0000
0100
0000
0000
0000
1000
0000
,  // measure 24
0010
0000
0000
0000
1000
0000
0000
0100
0000
0000
0010
0000
0001
0000
0000
1000
,  // measure 25
0000
0010
1000
0000
1100
0000
0001
0100
,  // measure 26
0010
1000
0001
0022
,  // measure 27
0033
0000
0100
0010
0100
0001
0000
1000
,  // measure 28
0100
0000
1000
0010
1000
0001
0000
0010
,  // measure 29
0001
0000
0100
0000
0001
0000
0010
0100
,  // measure 30
1000
0000
0000
0000
0010
0000
0000
0100
0000
0000
0020
0000
0000
0000
0000
0000
,  // measure 31
1030
0000
0001
0100
0010
0100
0000
0001
,  // measure 32
0010
0000
0100
1000
0100
0000
1000
0001
,  // measure 33
1000
0000
0010
0000
0110
0000
1000
0010
,  // measure 34
0100
0000
0002
0000
0000
0010
0020
0000
,  // measure 35
0033
0000
0000
0000
1000
0000
0100
0000
0010
0000
0000
0000
0001
0000
0000
1000
,  // measure 36
0000
0000
0001
0000
0010
0000
0100
0000
1000
0000
0000
0000
0010
0000
0000
0100
,  // measure 37
0000
0000
0001
0000
1000
0000
0001
0000
0010
0000
0000
0000
0001
0000
0000
0100
,  // measure 38
0000
0000
0010
0000
1000
0000
0000
0100
0000
0000
0010
0000
0001
0000
0010
0000
,  // measure 39
1000
0000
0010
0000
0001
0000
0000
1000
0000
0000
0001
0000
0100
0000
0010
0000
,  // measure 40
0100
0000
0001
0000
0010
0100
1000
0000
,  // measure 41
1100
1010
0000
0011
,  // measure 42
0000
2000
0010
0010
,  // measure 43
3010
0000
0000
0000
1000
0000
0000
0100
0000
0000
0010
0000
0001
0000
0000
0000
,  // measure 44
1000
0002
0100
0100
,  // measure 45
0103
0000
0000
0000
0001
0000
0000
0100
0000
0000
0010
0000
1000
0000
0000
0000
,  // measure 46
0100
1020
0100
0130
,  // measure 47
0001
0010
0001
0000
1000
0100
1000
0000
,  // measure 48
0001
0201
0010
0310
,  // measure 49
0001
0020
0000
0200
,  // measure 50
0330
2002
0000
3003
,  // measure 51
0000
0000
0100
0010
0100
0000
0001
1000
,  // measure 52
0100
1000
0002
0000
0010
0000
1000
0000
,  // measure 53
0013
0000
0001
0100
0010
0000
1000
0100
,  // measure 54
0010
0100
1000
0000
0010
0000
0220
0000
,  // measure 55
0330
0000
0001
0010
1000
0010
0001
0000
,  // measure 56
1000
0000
0001
0100
1000
0100
0001
0000
,  // measure 57
1000
0000
0001
0010
0100
1000
0010
0000
,  // measure 58
0100
0001
1100
0022
,  // measure 59
0033
0000
1000
0010
0100
0010
1000
0100
,  // measure 60
0010
0100
2000
0000
0001
0000
3010
0000
,  // measure 61
0100
0000
0001
0010
0100
0010
0001
0100
,  // measure 62
0010
0100
0002
0000
1000
0000
0103
0000
,  // measure 63
0010
0000
1000
0010
0001
0010
1000
0000
,  // measure 64
0001
0000
1000
0100
0001
0100
1000
0000
,  // measure 65
0001
0000
0000
0000
0010
0000
0000
0100
0000
0000
1000
0000
0002
0000
0000
0200
,  // measure 66
0000
0000
0000
0303
,  // measure 67
0000
0000
1000
0100
0010
0000
0100
1000
,  // measure 68
0001
1000
0010
0100
0010
0000
1000
0010
,  // measure 69
0100
0010
1000
0001
0010
0000
0001
0100
,  // measure 70
0010
0000
0100
0000
0001
0000
0000
0000
1000
0000
0000
0000
0010
0000
0000
0100
,  // measure 71
0000
0010
1000
0100
0010
0000
0001
0010
,  // measure 72
0100
0010
0001
0100
0010
0000
0100
0010
,  // measure 73
1000
0010
0100
0001
0010
0000
0001
1000
,  // measure 74
0100
0000
1000
0000
0010
0000
0000
0000
0110
0000
0000
0000
1000
0000
0000
0001
,  // measure 75
0000
1000
0000
0000
0000
0000
2002
0000
,  // measure 76
0000
0000
0000
0000
,  // measure 77
0000
0000
0000
3003
;

//---------------dance-single - ----------------
#NOTES:
     dance-single:
     :
     Hard:
     15:
     0.695663,0.784693,0.361648,0.235492,0.521447,579.000000,536.000000,43.000000,28.000000,0.000000,0.000000,0.695663,0.784693,0.361648,0.235492,0.521447,579.000000,536.000000,43.000000,28.000000,0.000000,0.000000:
// measure 0
0000
0000
0000
0000
,  // measure 1
0000
0000
0000
0000
,  // measure 2
0000
0000
0000
0000
,  // measure 3
0000
0000
0000
0000
,  // measure 4
0000
0000
0000
0000
,  // measure 5
0001
0000
0000
0010
0000
0000
0110
0000
0000
0000
0001
0000
0100
0000
0001
0000
,  // measure 6
1000
0000
0000
0010
0000
0000
0110
0000
0000
0000
1000
0000
0010
0000
1000
0000
,  // measure 7
0200
0000
0310
0001
0000
1001
0000
2020
,  // measure 8
0000
0000
3030
0000
,  // measure 9
0001
0000
0000
0100
0000
0000
1000
0000
0001
0000
0000
0000
0110
0000
0000
0000
,  // measure 10
2002
3003
0010
0100
,  // measure 11
2200
0000
3300
0000
0010
0000
0100
0001
,  // measure 12
0022
0000
0033
0000
1000
0000
0001
0100
,  // measure 13
0001
0000
0010
0000
1000
0000
0010
0000
0001
0000
1000
0010
1000
0000
0000
0000
,  // measure 14
0001
0100
0001
0100
0010
1000
0010
1000
,  // measure 15
0001
0010
0001
0010
0100
1000
0100
1000
,  // measure 16
0010
0000
1000
0010
0000
0100
0010
0000
0000
1000
0100
0000
1000
0001
0000
0010
,  // measure 17
0001
0000
0100
1000
0000
0100
0000
0001
0010
0000
0000
0100
0000
1000
0100
0000
,  // measure 18
1000
0010
0000
1000
0010
0000
0100
0001
0000
0100
0001
0000
0010
0001
0100
0020
,  // measure 19
0000
0030
0000
0000
1000
0000
0100
0010
0000
0100
1000
0000
0001
0000
0100
0000
,  // measure 20
1000
0000
0100
0000
0010
0000
0100
0010
0000
1000
0010
0000
1000
0000
0010
0000
,  // measure 21
0001
0000
0010
0000
1000
0000
0001
0000
0011
0000
0000
0000
1000
0000
0010
0100
,  // measure 22
0000
0000
0001
0000
0010
0000
0001
1000
0000
0000
0110
0000
0000
0000
0001
0000
,  // measure 23
1000
0100
0010
0000
0001
0000
0100
0010
0000
0100
0001
0000
0010
0000
0100
0000
,  // measure 24
1000
0000
0010
0000
1000
0000
0100
0010
0000
0100
1000
0000
0010
0000
1000
0000
,  // measure 25
0001
0000
0010
0000
0001
0000
1000
0000
1100
0000
0000
0000
0010
0000
0100
0001
,  // measure 26
0010
0001
1000
0000
0020
0000
0000
0000
0100
0000
0100
0000
0130
0000
0000
0000
,  // measure 27
1001
0000
0000
0000
0001
0000
0010
0100
0000
1000
0010
0000
1000
0000
0100
0000
,  // measure 28
0010
0000
0001
0000
0100
0000
0001
0010
0000
0100
1000
0000
0010
0000
1000
0000
,  // measure 29
0001
0000
0010
0001
0010
0000
0100
0000
1100
0000
0000
0000
1000
0000
0010
0100
,  // measure 30
0010
0000
1000
0000
0001
0000
0010
0100
0000
0000
0011
0000
0000
0000
1000
0000
,  // measure 31
0001
1000
0100
1000
0001
0000
0010
0100
0000
1000
0010
0000
1000
0000
0100
0000
,  // measure 32
1000
0000
0010
0000
1000
0000
0001
0100
0000
0000
0010
0100
0010
0000
1000
0000
,  // measure 33
0100
0010
0001
0100
0110
0000
1000
0100
,  // measure 34
0110
0000
0012
0000
0000
1000
1003
0000
,  // measure 35
0110
0000
0000
0000
1000
0000
0010
0000
0001
0000
0010
0000
1000
0000
0001
0010
,  // measure 36
0000
1000
0010
0000
0001
0000
0100
0000
1000
0000
0100
0000
0001
0000
1000
0100
,  // measure 37
0000
0001
0100
0000
1000
0000
0010
0000
1000
0000
0001
0000
0010
0000
0001
1000
,  // measure 38
0000
0100
0010
0000
0001
0000
0000
1001
0000
0000
0100
0000
0002
0000
0023
0000
,  // measure 39
2030
0000
3001
0000
0100
0000
0000
1100
0000
0000
1001
0000
0011
0000
0000
0110
,  // measure 40
0000
0000
1010
0000
0100
0010
1000
0000
,  // measure 41
0011
1010
0100
2002
,  // measure 42
3003
0210
0001
1000
,  // measure 43
0301
0000
0010
0000
0100
0000
1000
0001
0000
0000
1000
0000
0010
0000
0000
0000
,  // measure 44
0110
0000
0000
0000
1001
0000
0000
0000
0010
0000
0001
0000
1000
0000
0010
0100
,  // measure 45
0000
0010
0100
0000
0001
0000
0000
0010
0000
0000
0100
0000
1000
0000
0010
0100
,  // measure 46
0010
1010
0001
0010
,  // measure 47
0001
0000
0100
0000
0001
0000
0000
0010
0000
0000
1000
0000
0001
0000
0000
0100
,  // measure 48
0000
1000
0010
0000
1001
0000
0100
0001
,  // measure 49
1000
0000
0110
0000
0001
1000
0010
0000
,  // measure 50
0210
2300
3020
0032
,  // measure 51
1003
0000
0000
0000
0010
0000
1000
0100
0000
0000
0010
0100
1000
0000
0100
0000
,  // measure 52
0010
0000
0001
0000
0100
0000
0001
0010
0000
0000
0001
0100
0001
0000
0010
0000
,  // measure 53
0100
0000
1000
0000
0010
0000
1000
0100
0000
0000
0010
0001
0010
0000
0001
0000
,  // measure 54
1000
0000
0001
0000
0100
0000
0010
0000
1000
0000
0010
0100
0001
0000
0010
0000
,  // measure 55
0001
0000
1000
0001
0010
0000
0100
1000
0000
0100
0001
0000
0100
0000
1000
0000
,  // measure 56
0010
0000
0001
0000
0010
0000
1000
0010
0000
0001
0010
0000
0100
0000
0001
0010
,  // measure 57
0000
0001
1000
0000
0010
0000
0100
0000
0010
0000
1000
0001
0000
0000
0010
0000
,  // measure 58
0001
0010
0100
1000
0001
0000
0000
0000
0110
0000
0000
0000
2002
0000
0000
0000
,  // measure 59
3003
0000
0000
0000
0100
0000
0010
0100
0000
0010
0100
0000
0001
0000
0010
0000
,  // measure 60
0100
1000
0100
0000
1000
0000
0001
0010
0000
0001
1000
0000
0001
0000
0010
0100
,  // measure 61
1000
0100
0010
0000
0001
0000
0100
0001
0000
0100
0001
0000
1000
0000
0010
0000
,  // measure 62
0100
0000
0010
0100
0010
0000
1000
0100
0000
1000
0100
0000
1000
0000
0010
0100
,  // measure 63
0001
0100
0010
0000
1000
0000
0001
0010
0000
0100
1000
0000
0010
0000
1000
0001
,  // measure 64
0000
1000
0001
0000
0010
0000
0001
0000
0100
0000
0001
0000
0010
0000
0000
0100
,  // measure 65
0000
0000
1000
0000
1010
0000
0000
0001
0000
0000
0011
0000
1000
0000
0000
0202
,  // measure 66
0000
0000
0000
0303
,  // measure 67
0000
0000
0000
0000
0010
0000
0100
0000
0001
0010
0001
0000
1000
0000
0010
0100
,  // measure 68
0000
0010
0100
0000
0001
0000
0010
0000
0100
1000
0100
0000
1000
0000
0010
0000
,  // measure 69
0100
0001
0100
0000
0001
0000
0010
0000
0100
1000
0100
0000
1000
0000
0001
0100
,  // measure 70
0000
0001
0100
0000
0010
0000
1000
0000
0010
1000
0100
1000
0010
0000
0000
0110
,  // measure 71
0000
0000
0001
0000
0010
0000
0001
0000
1000
0001
1000
0000
0001
0000
0010
0000
,  // measure 72
0001
1000
0001
0000
0100
0000
0001
0000
1000
0001
1000
0000
0001
0000
0100
0000
,  // measure 73
0001
1000
0001
0000
1000
0100
0010
0000
0001
0100
0010
0000
1000
0000
0001
0100
,  // measure 74
0010
0100
0001
0000
1000
0010
0100
0000
0001
0010
0100
0000
1000
0000
0000
1001
,  // measure 75
0000
0000
0100
0000
0001
1000
0100
0000
1000
0001
0100
0000
0220
0000
0000
0000
,  // measure 76
0000
0000
0000
0000
,  // measure 77
0000
0000
0330
1001
;
