#TITLE:Reb∞t;
#SUBTITLE:;
#ARTIST:BEMANI Sound Team "TAG";
#TITLETRANSLIT:Reboot;
#SUBTITLETRANSLIT:;
#ARTISTTRANSLIT:TAG;
#GENRE:;
#CREDIT:;
#BANNER:Reboot_banner.png;
#BACKGROUND:Reboot.png;
#LYRICSPATH:;
#CDTITLE:;
#MUSIC:Reboot.ogg;
#OFFSET:-0.350000;
#SAMPLESTART:0.350000;
#SAMPLELENGTH:15.000000;
#SELECTABLE:YES;
#BPMS:0.000000=240.000000
,128.000000=120.000000
,159.000000=240.000000
,335.000000=480.000000
,423.000000=240.000000
;
#STOPS:158.000000=0.500000,
423.000000=0.125000,
423.250000=0.125000,
423.500000=0.125000,
423.750000=0.125000
;
#BGCHANGES:;
#KEYSOUNDS:;
#ATTACKS:;

//---------------dance-single - ----------------
#NOTES:
     dance-single:
     :
     Easy:
     11:
     0.452780,0.640847,0.072583,0.346785,0.020162,393.000000,384.000000,9.000000,43.000000,0.000000,0.000000,0.452780,0.640847,0.072583,0.346785,0.020162,393.000000,384.000000,9.000000,43.000000,0.000000,0.000000:
0000
0000
0000
0000
,
0000
0000
0000
0000
,
0000
0000
0000
0000
,
0000
0000
0000
0000
,
1000
0000
0001
0000
0100
0010
0000
0010
,
0000
1000
0000
0001
1000
0000
0010
0000
,
0100
0000
0001
0000
0010
0100
0000
1000
,
0000
0010
0000
1000
0001
0000
0100
0000
,
0010
1000
0000
1000
0000
1000
0000
1000
,
0000
0001
0000
0001
0000
0001
0010
0001
,
0000
0100
0000
0100
0000
0100
0000
0100
,
0000
0010
0000
0010
0000
0010
1000
0010
,
0100
0001
0010
0001
,
1000
0010
0000
0010
0000
0100
0010
0000
,
1000
0000
1100
0000
0001
0010
0000
0001
,
0100
0000
0010
0000
0000
0100
0010
0000
,
1000
0010
1000
0001
,
0100
0010
1000
0100
,
0010
0100
1000
0001
,
0010
0001
0100
0010
,
1000
0001
0010
0001
,
1000
0010
0100
0001
,
0010
0000
0000
0010
0000
0000
0010
0000
0100
0000
0000
0100
0000
0000
0100
0000
,
1000
0001
2002
3003
,
0010
0000
0100
0010
0000
0100
0010
0000
,
1000
0000
0100
1000
0000
0001
1000
0000
,
0010
0000
0100
0001
0000
0100
0001
0000
,
1000
0000
0001
0010
0000
0001
1000
0000
,
0010
0000
0100
0001
0000
1000
0100
0000
,
1000
0000
0010
1000
0000
0001
0100
0000
,
0010
0000
0000
0100
0000
0000
0010
0000
1000
0000
0000
0001
0000
0000
1000
0000
,
0100
0000
0000
0010
0000
0000
0100
0000
2000
0000
0000
0000
0000
0000
0000
0000
,
3002
0000
0203
0000
,
0320
0000
1000
0000
,
0230
0000
0302
0000
,
0023
0000
0000
0000
0031
0000
1000
0100
,
2000
0000
0000
0010
3020
0000
0000
0100
,
0230
0000
0302
0000
,
1003
0010
1000
0000
0001
0010
0001
0000
,
0100
0010
0100
0010
1001
0000
0100
0000
,
0000
0100
0000
0000
0100
0000
0000
0100
,
0000
0002
0000
0013
,
0000
0010
0000
0000
0010
0000
0000
0010
,
0000
0200
0000
1300
,
0000
1000
0000
0000
1000
0000
0000
1000
,
0000
0020
0000
0130
,
0000
0100
0000
0000
0100
0000
0000
0100
,
0000
0001
1000
0001
,
0000
0010
0000
0000
0100
0000
0000
1000
,
0000
0020
0000
1030
,
0000
0010
0000
0000
0100
0000
0000
0001
,
0000
0020
0000
0031
,
0000
1000
0000
0000
0010
0000
0000
0100
,
0000
0020
0000
1030
,
0000
0001
0000
0000
0010
0000
0000
0100
,
0000
1000
0000
0220
,
0000
0000
0000
0330
,
0000
0000
0000
0000
0000
0001
0000
0000
,
0000
1000
0000
0000
0000
0001
0000
0000
,
1000
0010
1000
0001
,
0010
0200
0000
0000
0310
0000
0001
0000
,
1000
0020
0000
0000
0130
0000
0001
0000
,
1000
0100
0000
1000
0001
0000
1000
0000
,
0001
0010
0000
0001
1000
0000
0010
0000
,
0100
0010
0000
0100
0010
0000
1000
0000
,
0100
1000
0000
0001
0010
0000
0001
0000
,
0000
1000
0000
0000
0010
0000
0100
0000
,
0000
0010
0100
0000
0001
0000
1000
0000
,
0100
1000
0000
0001
0010
0000
0001
0000
,
1000
0010
0000
0100
0010
0000
1000
0000
,
0001
1000
0000
0001
0010
0000
0200
0000
,
0000
1300
0001
0200
,
0000
0000
0310
0020
,
0000
0000
1030
2000
,
0000
0000
3001
1001
,
0000
0110
0000
1000
,
0001
0010
0000
0001
1000
0000
0001
0000
,
1000
0010
0000
0010
0100
0000
0001
0000
,
0010
0001
0000
0010
0001
0000
1000
0000
,
0010
1000
0000
0010
1000
0000
0001
0000
,
0010
0100
0000
0010
0100
0000
1000
0000
,
0010
0100
0000
0010
0100
0000
0001
0000
,
1000
0001
0000
0100
0010
0000
2000
0000
,
0000
3002
0000
0103
,
0000
0100
0000
0100
,
0000
0100
0000
0010
,
0000
0010
0000
0010
,
0000
0000
0000
1000
,
0000
1000
0000
1000
,
0000
1000
0000
0001
,
0000
0001
0000
0001
,
0000
0000
0000
0100
,
0010
0100
0010
0100
,
0000
0000
0000
0001
,
1000
0001
1000
0001
,
0000
0000
0000
2000
,
0000
0000
0000
3020
,
0000
0000
0000
0230
,
0000
0000
0000
0302
,
0000
0000
0000
0023
,
0000
0000
0000
0000
,
0000
0000
0000
0000
,
0000
0000
0000
0000
,
0000
0000
0000
0032
,
0000
0000
0000
0000
,
0000
0000
0000
1003
,
0000
0010
0100
0000
,
0100
0001
0010
0001
,
1000
0100
1000
0000
,
1000
0010
0100
0020
,
0000
1030
0001
0000
,
0001
0010
0100
1000
,
0001
0100
0010
0000
,
0010
1000
0000
0001
0000
0010
0000
0100
,
0010
0022
0000
0030
,
1000
2000
0003
0010
,
3020
0000
0100
0000
0000
0230
0000
0000
,
0001
0000
0301
0000
0000
0010
0000
0000
,
0100
0000
1000
0000
0010
1000
0000
0001
,
0010
0000
0001
0000
0100
0001
0000
1000
,
0100
0000
0010
0000
0000
0220
0000
0000
,
0000
0330
0000
0000
,
0000
1001
0000
0000
;

//---------------dance-single - ----------------
#NOTES:
     dance-single:
     :
     Medium:
     15:
     0.783435,1.380286,0.225814,0.274202,0.169360,680.000000,652.000000,28.000000,34.000000,0.000000,0.000000,0.783435,1.380286,0.225814,0.274202,0.169360,680.000000,652.000000,28.000000,34.000000,0.000000,0.000000:
0000
0000
0000
0000
,
0000
0000
0000
0000
,
0000
0000
0000
0000
,
0000
0000
0000
0000
,
0100
0010
1000
0010
1000
0100
0010
0001
,
0000
0001
0010
0001
1000
0100
0010
0000
,
0001
0100
0001
0000
1000
0010
0100
0010
,
0000
0010
1000
0100
0010
0001
0010
0000
,
0001
0100
0000
0110
0000
0100
0000
0101
,
0000
0010
0000
1010
0000
1000
0010
0100
,
0010
1010
0000
1100
0000
1001
0000
0001
,
1000
0001
1000
0010
0100
0001
0010
0100
,
1000
0010
2000
0000
3001
0100
0002
0000
,
0013
0100
0000
1100
0000
0010
0100
0010
,
1000
0010
2000
0000
3001
0100
0002
0000
,
1003
0100
0001
0200
0000
1300
0001
0000
,
0100
0010
0100
0001
0000
0001
1000
0100
,
0000
1000
0010
0100
0010
1000
0001
0000
,
0010
0001
0100
0001
0000
1000
0100
0010
,
0000
0001
0010
0100
0010
0001
1000
0000
,
0010
0100
1000
0100
0000
0001
0100
0010
,
0100
0001
1000
0000
0100
0010
0100
0000
,
1000
0000
0000
1010
0000
0000
1000
0000
0001
0000
0000
0011
0000
0000
0001
0000
,
0100
0000
0000
0110
0000
0000
0010
0000
1000
0000
0000
1001
0000
0000
0001
0000
,
0010
0100
0010
0001
0000
0100
0010
0100
,
0000
0001
1000
0100
1000
0001
0010
0000
,
0100
1000
0100
0010
0000
0001
0100
0010
,
0000
0010
1000
0100
0010
0001
0100
0000
,
0010
0100
0001
1000
0000
1000
0100
0010
,
0000
0100
1000
0010
0100
0001
0010
0000
,
0001
0000
0000
0101
0000
0000
0100
0000
0010
0000
0000
1010
0000
0000
1000
0000
,
0100
0000
0000
0110
0000
0000
0010
0000
0002
0000
0000
0000
0010
0000
0000
0000
,
0013
0000
0001
1000
0000
0000
0010
0000
0100
0000
0001
1000
0000
0000
1000
0000
,
0010
0000
0100
0010
0000
1000
0100
0000
1000
0001
0010
0001
0000
0000
0100
0000
,
0010
0000
0100
0001
0000
0000
0010
0000
0001
0000
1000
0100
0000
0000
1000
0000
,
0010
0100
0010
1000
0000
0001
0010
0002
0000
0203
0000
0320
0000
1030
0000
0200
,
1000
0000
0000
1300
0000
1000
0001
0020
0000
0000
0031
0000
0100
0000
0010
0000
,
1000
0000
0001
0010
0000
0001
1000
0000
0010
0000
0100
0010
0000
1000
0100
0000
,
1000
0100
0010
0100
1000
0100
0010
0000
0001
0100
0010
0100
0001
0100
0010
0000
,
1000
0001
1000
0001
0100
0010
0100
0010
0200
0300
0000
0000
0001
0000
0010
0000
,
0000
0001
0010
0000
0001
0010
0000
0001
,
0010
0000
0101
0000
0000
0000
1000
0010
,
0000
1000
0010
0000
1000
0010
0000
1000
,
0010
0000
1001
0000
0000
0000
0100
0010
,
0000
0100
0010
0000
0100
0010
0000
0100
,
0010
0000
1100
0000
0000
0000
0100
0001
,
0000
0100
0001
0000
0100
0001
0000
0100
,
0001
0000
1001
0000
0010
0000
1000
0010
,
0000
0100
0001
0000
0010
0001
0000
1000
,
0100
0000
1010
0000
0100
0000
0010
0100
,
0000
0001
0100
0000
0010
1000
0000
0100
,
1000
0000
0011
0000
0001
0000
0100
0010
,
0000
1000
0100
0000
0010
0001
0000
0001
,
1000
0000
0011
0000
0100
0000
0010
1000
,
0000
0001
0010
0000
0100
1000
0000
0001
,
0100
0000
0010
1000
0100
0010
0002
0000
,
0000
2000
0003
0020
,
3000
0000
0130
0000
0001
0010
0000
0001
,
1000
0100
0000
1000
0010
0100
0000
0010
,
1000
0001
0000
1000
0001
0000
0100
0010
,
0100
0001
0000
0001
0010
0000
0001
0010
,
0100
1000
0000
0010
1000
0000
0001
1000
,
0100
1000
0000
0001
1000
0000
0010
0100
,
0001
0000
1000
0100
0010
0000
0001
0100
,
0001
0010
0000
0001
1000
0000
0010
1000
,
0100
1000
0000
1000
0010
0000
0100
0010
,
0100
0000
0001
0100
0001
0000
0010
0001
,
1000
0001
0100
0010
0100
0000
0010
1000
,
0100
1000
0000
0100
0010
0000
0001
0100
,
0001
0010
0000
0100
0010
0000
0001
0100
,
0010
1000
0000
0010
1000
0100
2000
0000
,
3010
0000
0100
0001
0010
0000
0002
0010
,
0003
0010
0001
0000
0100
0010
1000
0000
,
0001
1000
0100
0000
1000
0010
0200
0000
,
0310
0100
0000
0100
0010
0000
1000
0001
,
0010
0100
0010
0001
1000
0000
0010
0100
,
0010
0001
0000
0010
0100
0000
0010
1000
,
0100
1000
0000
0100
0010
0000
0001
0010
,
0100
1000
0000
0010
1000
0000
0100
0010
,
0001
1000
0010
0100
0010
0000
1000
0100
,
0010
0100
0000
0010
0100
0000
0010
0001
,
0100
0001
0000
0010
0100
0000
1000
0001
,
1000
0010
0100
0010
1000
0000
0001
0010
,
0100
1000
0010
0100
0001
0000
1000
0000
,
0100
1000
0010
0100
,
0010
1000
0100
0010
,
0100
1000
0010
0100
,
0010
1000
0000
0001
,
0010
0001
0100
0010
,
0100
0001
0010
0100
,
0010
0001
0100
0010
,
0100
0001
0000
1000
,
0001
1000
0001
1001
,
0000
0000
0000
0100
,
0010
0100
0010
0110
,
0000
0000
0000
0001
,
0010
0100
1000
1001
,
0000
0000
0000
1000
,
0010
0100
0001
0010
,
0100
1000
0001
0200
,
0000
0000
0000
0000
,
0000
0000
0000
0020
,
0000
0000
0000
0300
,
0000
0000
0000
2000
,
0000
0000
0000
0000
,
0030
0000
0000
0000
0000
0000
0000
0000
3000
0000
0000
0000
0002
0203
0320
2030
,
3001
0100
0010
0100
0001
0000
0010
0001
,
0010
0001
0000
1000
0100
1000
0000
0010
,
0100
0010
0100
0001
0100
0000
0010
1000
,
0100
0010
0100
1000
0002
0000
0103
0000
,
0020
0000
1030
0100
0010
0000
0001
0100
,
0010
0100
0001
0010
0001
0000
0100
0010
,
0100
0000
0010
1000
0100
0000
1000
0001
,
0010
0002
0000
0203
0000
0320
0000
1030
,
0001
0000
1200
0000
0000
0310
0000
0010
,
0001
2000
0010
0000
0010
3000
0020
0000
,
0130
0000
0011
0000
0001
1000
0000
1000
,
0001
0000
1001
0000
1000
0001
0000
0001
,
1000
0000
0010
0100
0010
0000
1000
0100
,
0010
0000
0001
0100
0010
0000
1000
0010
,
0100
0000
0001
0010
0100
2000
0000
0000
,
3001
0000
0001
0100
1000
0100
0001
0010
,
0001
1001
0000
0000
;

//---------------dance-single - ----------------
#NOTES:
     dance-single:
     :
     Challenge:
     18:
     1.081832,1.922542,0.645182,0.266138,0.439530,939.000000,859.000000,80.000000,33.000000,0.000000,0.000000,1.081832,1.922542,0.645182,0.266138,0.439530,939.000000,859.000000,80.000000,33.000000,0.000000,0.000000:
// measure 0
0000
0000
0000
0000
,  // measure 1
0000
0000
0000
0000
,  // measure 2
0000
0000
0000
0000
,  // measure 3
0000
0000
0000
0000
,  // measure 4
0100
0110
0010
1000
0100
1000
0001
0010
,  // measure 5
0000
0000
0001
0000
0010
0000
0001
0000
1000
0001
1000
0000
0010
0000
0100
0000
,  // measure 6
0010
1000
0100
0001
0100
1000
0010
0100
,  // measure 7
0001
0010
1000
0010
0001
1000
1001
0000
,  // measure 8
0100
0110
0010
0110
0100
0110
0010
0110
,  // measure 9
1000
1001
0001
1001
1000
1001
0011
0000
,  // measure 10
1000
1100
1000
1100
0001
0101
0001
0101
,  // measure 11
0010
1000
0100
0010
0001
0010
1000
0010
,  // measure 12
0001
0000
0100
0000
1001
0000
0000
0000
1000
0000
0001
0000
0100
0010
0100
0010
,  // measure 13
1000
0000
1100
0000
0000
0000
0101
0000
0000
0000
0010
0000
0001
0010
0100
1000
,  // measure 14
0010
0000
0100
0000
0001
0010
0001
0010
0001
0000
1000
0000
0100
1000
0100
1000
,  // measure 15
0010
0000
0110
0000
0010
0000
0110
0000
0000
0000
1000
0000
0001
1000
0100
0010
,  // measure 16
0001
0000
0100
0010
0100
0000
0001
0000
1000
0000
0001
0010
0001
0000
1000
0000
,  // measure 17
0001
0000
0010
0001
0010
0000
0100
0000
1000
0000
0001
0000
1000
0000
0010
0000
,  // measure 18
0100
0000
0001
0010
0001
0000
1000
0000
0010
0000
1000
0100
1000
0000
0001
0000
,  // measure 19
0100
0010
1000
0001
0010
1000
0010
0001
,  // measure 20
1000
0000
0010
0100
0010
0000
1000
0000
0001
0000
0010
0100
0010
0000
0001
0000
,  // measure 21
1000
0000
0001
0010
0001
0000
1000
0000
0010
0000
1000
0000
0010
0000
0001
0000
,  // measure 22
0010
0000
0000
0110
0000
0000
1100
0000
1000
0000
0000
0011
0000
0000
1001
0000
,  // measure 23
0001
0000
0000
0110
0000
0000
0101
0000
1000
0001
1000
0001
1000
0000
0010
0000
,  // measure 24
1000
0000
0100
0010
0100
0000
1000
0000
0001
0000
0100
0010
0100
0000
0001
0000
,  // measure 25
1000
0000
0001
0100
0001
0000
1000
0000
0001
0000
0100
0000
1000
0000
0100
0000
,  // measure 26
0001
0000
1000
0010
1000
0000
0001
0000
1000
0000
0100
0010
0100
0000
1000
0000
,  // measure 27
0001
0000
1000
0100
1000
0000
0001
0000
0100
0000
0010
0000
1000
0000
0100
0000
,  // measure 28
1000
0000
0001
0010
0001
0000
1000
0000
0001
0000
1000
0010
1000
0000
0001
0000
,  // measure 29
0100
0000
0001
0010
0001
0000
1000
0000
0001
0000
0010
0000
1000
0000
0010
0000
,  // measure 30
0001
0000
0000
0101
0000
0000
1100
0000
1000
0000
0000
1010
0000
0000
0011
0000
,  // measure 31
0001
0000
0000
1001
0000
0000
0110
0000
2002
0000
0000
0000
3003
0000
0000
0000
,  // measure 32
0010
0100
0001
0020
0000
0031
1000
0100
1000
0010
0100
0002
0000
1003
0010
1000
,  // measure 33
0100
0010
0100
2000
0000
3001
0100
0010
1000
0100
0010
0001
0010
0100
1000
0000
,  // measure 34
0010
0100
0001
0200
0000
0310
1000
0100
1000
0001
0010
0002
0000
0103
0010
1000
,  // measure 35
0100
1000
0001
0200
0000
0310
1000
0002
0000
2003
0000
3200
0000
0310
0000
0012
,  // measure 36
0000
0000
1003
0000
0000
1000
0010
0100
0000
0100
0010
0000
1000
0001
0010
0000
,  // measure 37
0001
0010
0100
0010
0000
0001
1000
0000
1000
0010
0100
0010
0000
1000
0001
0000
,  // measure 38
1000
0010
0100
0010
1000
0100
0010
0001
0010
0001
0100
0010
1000
0100
0001
0100
,  // measure 39
1000
0010
1000
0010
1000
0010
1000
0010
0100
0001
0100
0001
0100
0001
0100
0001
0200
0300
0000
0000
0000
0000
0000
0000
0001
0000
0000
0000
0011
0000
0000
0000
,  // measure 40
0000
0010
0011
0000
0001
0011
0000
0100
,  // measure 41
0101
0000
0010
0100
0010
0000
1000
1010
,  // measure 42
0000
0010
1010
0000
1000
1010
0000
0001
,  // measure 43
1001
0000
0010
0100
0010
0000
0001
0101
,  // measure 44
0000
0100
0110
0000
0010
1010
0000
1000
,  // measure 45
1100
0000
1000
0001
0010
0000
0001
1001
,  // measure 46
0000
1000
1100
0000
0100
0110
0000
0010
,  // measure 47
0011
0000
1000
0001
0010
0100
1000
1010
,  // measure 48
0000
0001
0011
0000
1000
1100
0000
0001
,  // measure 49
0101
0000
0010
1000
0010
0000
0100
0101
,  // measure 50
0000
0001
0011
0000
0010
0110
0000
0100
,  // measure 51
1100
0000
1000
0010
1000
0000
0001
0011
,  // measure 52
0000
0010
0110
0000
0100
1100
0000
1000
,  // measure 53
1001
0000
0100
0010
0100
0000
0010
1010
,  // measure 54
0000
1000
1001
0000
0001
0011
0000
0100
,  // measure 55
0110
1001
0000
0220
,  // measure 56
0000
0000
0000
0330
,  // measure 57
0000
0000
0000
0001
1000
0001
0000
1000
,  // measure 58
0010
1000
0000
0001
0010
0001
0000
1000
,  // measure 59
0001
0010
0100
1000
0001
1000
0010
0100
,  // measure 60
0001
0011
0000
1000
0100
0000
1000
0010
,  // measure 61
0100
0110
0000
0010
1000
0001
1000
0100
,  // measure 62
0010
0001
0100
0010
1000
0000
0001
0100
,  // measure 63
0010
0100
0001
1000
0100
0000
0010
0100
,  // measure 64
1000
0010
0100
0001
0010
0000
0001
0100
,  // measure 65
0010
1000
0100
0010
0001
0000
0100
0010
,  // measure 66
0100
0010
1000
0100
1000
0001
0010
0001
,  // measure 67
0100
0010
1000
0001
1001
0000
0100
0010
,  // measure 68
1000
1100
0000
0010
0001
0000
0100
0010
,  // measure 69
1000
1001
0000
0001
0010
0001
1000
0010
,  // measure 70
0100
0010
1000
0001
0010
0000
1100
0000
,  // measure 71
0011
0000
1000
0001
1000
0010
0200
0001
,  // measure 72
0000
0301
0100
0010
0100
0010
0000
1000
,  // measure 73
0001
0010
0001
1000
0100
0010
0100
1000
,  // measure 74
0001
0010
1000
0001
0100
1000
0010
0100
,  // measure 75
0010
0000
1000
0000
0001
1000
0001
1000
0001
0000
0000
0000
1000
0000
0100
1000
,  // measure 76
0100
0000
1000
0000
0000
0000
0001
0000
0010
0000
0001
0000
0100
0000
0010
0100
,  // measure 77
0010
0000
0100
0000
0000
0000
0001
0000
0010
0000
0001
0000
1000
0000
0010
0100
,  // measure 78
0010
0000
1000
0000
0001
0000
0010
0000
0100
0000
0010
0000
0001
0000
1000
0100
,  // measure 79
1000
0000
0001
0000
0100
0000
0010
0000
2000
0000
0000
0000
3001
0000
0100
0010
,  // measure 80
0100
0000
0001
0000
1000
0000
0010
0000
0100
0000
0001
0000
1000
0000
0100
0010
,  // measure 81
0100
0000
1000
0000
0001
0000
0010
0000
0100
0000
1000
0000
0010
0000
0100
0010
,  // measure 82
0100
0000
0010
0000
1000
0000
0001
1000
0001
0000
1000
0000
0010
0000
0010
0000
,  // measure 83
0010
0010
0100
0010
0110
0000
1000
0000
,  // measure 84
0010
0100
0010
1000
,  // measure 85
0010
0100
1000
0100
,  // measure 86
0010
0000
1000
0000
0100
0000
0010
0001
,  // measure 87
0010
0001
0010
0000
0000
0000
0001
0000
,  // measure 88
0100
0010
0100
0001
,  // measure 89
0010
0100
0010
0001
,  // measure 90
0100
0000
0001
0000
0010
0000
0100
1000
,  // measure 91
0100
1000
0100
0000
0000
0000
1000
0001
,  // measure 92
0010
0001
1000
0100
0010
0001
2000
0000
,  // measure 93
0000
0000
3001
0010
0100
1000
0001
0010
,  // measure 94
0100
1000
0010
0100
0001
1000
0002
0000
,  // measure 95
0000
0000
1003
0100
0010
0001
0100
0010
,  // measure 96
0100
0010
1000
0001
1000
0001
2000
0000
,  // measure 97
0000
0000
3001
0010
0001
0010
0001
0100
,  // measure 98
0001
0100
0010
1000
0010
1000
0020
0000
,  // measure 99
0000
0030
0000
1000
,  // measure 100
0001
1000
0001
1000
,  // measure 101
0001
1000
0001
1000
,  // measure 102
0001
1000
0001
1000
,  // measure 103
0001
0000
1000
0000
0001
0000
0100
0010
,  // measure 104
0100
0010
0100
0010
0100
0010
0100
0010
,  // measure 105
0100
0000
0010
0000
0100
0000
0010
0000
0100
0000
0010
0000
0100
0011
2000
3020
,  // measure 106
0230
0301
1000
0010
0100
0010
1000
0001
,  // measure 107
0010
0011
0000
1000
0001
0010
0001
1000
,  // measure 108
0100
0010
0100
1000
0001
1000
0010
0100
,  // measure 109
0001
1000
0001
0010
0001
0100
0100
0010
,  // measure 110
0010
0000
1000
0001
0010
0001
1000
0100
,  // measure 111
1000
0010
0100
0010
0200
0000
0301
0010
,  // measure 112
0001
0010
0001
0001
1001
1000
1000
0010
,  // measure 113
0100
0020
0000
2030
0000
3200
0000
0310
,  // measure 114
0001
2000
0002
3000
0000
0100
0003
0010
,  // measure 115
0001
0020
0100
0000
0000
0130
2000
0000
,  // measure 116
3010
0000
0011
0000
1000
0100
0000
1000
,  // measure 117
0010
0100
0001
0010
0001
0000
1000
0100
,  // measure 118
1000
0000
0001
0100
1000
0001
0010
1000
,  // measure 119
0001
1000
0100
0001
1000
0010
0001
1000
,  // measure 120
0001
1000
0010
0100
0010
2000
0000
0000
,  // measure 121
3001
0000
0001
0010
1000
0010
0001
0100
,  // measure 122
0010
1000
1001
0000
0000
0000
0000
0000
;

//---------------dance-single - ----------------
#NOTES:
     dance-single:
     :
     Hard:
     17:
     0.963165,1.577470,0.637117,0.290332,0.237911,836.000000,757.000000,79.000000,36.000000,0.000000,0.000000,0.963165,1.577470,0.637117,0.290332,0.237911,836.000000,757.000000,79.000000,36.000000,0.000000,0.000000:
0000
0000
0000
0000
,
0000
0000
0000
0000
,
0000
0000
0000
0000
,
0000
0000
0000
0000
,
1000
1001
0002
0000
0103
0010
1000
1100
,
0000
0000
0001
0000
0010
0000
0001
0000
1000
0001
1000
0000
0010
0000
0100
0000
,
0001
0010
0100
0000
1000
0010
0100
0010
,
0000
1000
0001
0010
0100
0010
0001
1000
,
0001
0101
0001
0101
0001
0101
0001
0100
,
0010
1000
0100
1000
0010
1000
0100
0000
,
1000
1010
1000
1010
1000
1010
1000
0010
,
0100
0001
1000
0010
1000
0100
0001
0100
,
1000
0001
0011
0000
1000
0010
0000
0100
,
1000
0000
0100
0000
0001
0000
0011
0000
0000
0000
1000
0000
0001
0100
0001
0100
,
0010
1000
1100
0000
0001
0011
0000
1000
,
0010
0000
0100
0000
0010
0000
0110
0000
0000
0000
1000
0000
0001
1000
0001
1000
,
0010
0100
0010
1000
0001
0010
0100
1000
,
0010
1000
0100
0010
0001
0100
0001
0010
,
0100
1000
0010
0100
0010
1000
0100
0010
,
0001
1000
0001
0010
0100
0010
0001
1000
,
0010
0100
0001
0100
0010
1000
0100
0010
,
0001
1000
0010
1000
0001
0010
0100
1000
,
0010
0000
0000
0110
0000
0000
1010
0000
1000
0000
0000
1100
0000
0000
1001
0000
,
0001
0000
0000
0110
0000
0000
1001
0000
1000
0001
0100
0010
2000
0000
0000
0000
,
3001
0100
0010
0100
0001
1000
0100
0010
,
0100
1000
0001
0010
0100
1000
0010
0100
,
0001
0100
1000
0100
0001
0010
0001
1000
,
0100
1000
0100
0001
0100
1000
0010
0100
,
0001
0100
0010
0100
0001
1000
0100
0010
,
0100
1000
0001
1000
0010
0100
0001
0000
,
1010
0000
0000
1001
0000
0000
1000
0000
1001
0000
0000
0011
0000
0000
0001
0000
,
0010
0000
0000
0110
0000
0000
0100
0000
1001
0000
0000
0000
0020
0000
0000
0000
,
1030
0000
0100
1000
0000
0010
0100
0000
0001
0000
0010
0001
0000
1000
0100
0000
,
0010
0000
0100
1000
0000
0001
1000
0000
0010
0100
0010
0000
1000
0000
0001
0000
,
0010
0000
0001
0100
0000
0010
1000
0000
0001
0000
1000
0100
0000
0010
0001
0000
,
0100
0000
0001
1000
0000
0010
0100
0020
0000
2030
0000
3200
0000
0320
0000
0032
,
0000
0000
0000
1003
0000
1000
0001
1000
0000
0010
0100
0000
0010
0000
1000
0000
,
0001
0000
0010
0001
0000
0010
0001
0000
1000
0000
0010
1000
0000
0010
1000
0000
,
0001
0100
0010
1000
0001
0100
0010
1000
0100
1000
0100
0010
0001
0010
0100
1000
,
0001
0000
0010
0000
0100
0000
1000
0000
0010
0000
0100
0000
0001
1000
0001
1000
0200
0000
0300
0000
0000
0000
0000
0000
1000
0000
0000
0000
1010
0000
0000
0000
,
0000
0010
1010
0000
1000
1010
0000
0010
,
1010
0000
2002
0000
3003
0000
0001
0011
,
0000
0010
0011
0000
0001
0011
0000
0010
,
0011
0000
2002
0000
3003
0000
0100
0110
,
0000
0010
0110
0000
0100
0110
0000
0010
,
0110
0000
0202
0000
0303
0000
1000
1100
,
0000
0100
1100
0000
1000
1100
0000
0100
,
1100
0000
2002
0000
3003
0000
0001
0101
,
0000
0100
0101
0000
0001
0101
0000
0100
,
0101
0000
2200
0000
3300
0000
1000
1010
,
0000
0010
1010
0000
1000
1010
0000
0010
,
1010
0000
2002
0000
3003
0000
0010
0011
,
0000
0001
0011
0000
0010
0011
0000
0001
,
0011
0000
2002
0000
3003
0000
0100
0110
,
0000
0010
0110
0000
0100
0110
0000
0010
,
0110
0000
0001
0100
1000
0100
0020
0000
,
0000
1000
1000
0100
,
0100
0000
0031
0000
0001
0010
0000
1000
,
0010
1010
0000
0001
0010
0011
0000
1000
,
0001
1000
0100
0010
0110
0000
1000
0100
,
0010
0100
1000
0001
0010
0000
0001
0100
,
0010
0100
0001
1000
0010
0000
1000
0001
,
0010
0001
0100
0010
0100
0000
0001
1000
,
0001
0100
0010
1000
0100
0000
0010
0100
,
1000
0010
0100
0001
0010
0000
0001
0010
,
0100
1000
0010
0100
1000
0000
0100
0010
,
0001
1000
0100
0010
0001
0000
1000
0001
,
0100
0010
1000
0001
1001
0000
0100
0010
,
1000
1001
0000
0000
0011
0000
1000
0001
,
0010
0110
0000
0000
1100
0000
0001
1000
,
0010
0100
0001
1000
0100
0000
1000
0001
,
0010
0100
0010
0001
1000
0000
1000
0100
,
0000
1000
0100
0000
0010
0001
0000
0001
,
0010
0000
0001
1000
0010
0100
0010
1000
,
0001
1000
0001
0010
0100
0000
1000
0010
,
0100
0000
0010
0000
1000
0000
0001
0000
0011
0000
0000
0000
1000
0000
0010
1000
,
0010
0000
1000
0000
0000
0000
0001
0000
0010
0000
0001
0000
0100
0000
0001
0100
,
0001
0100
0000
0001
0100
0001
1000
0010
,
0100
0010
1000
0001
0010
0100
1000
0100
,
0001
0000
0100
0000
1000
0000
0010
0000
0100
0000
0000
0000
0001
0000
0010
0001
,
0010
0000
0001
0000
0000
0000
1000
0000
0010
0000
1000
0000
0100
0000
1000
0100
,
1000
0100
0000
1000
0001
1000
0010
0100
,
0001
1000
0010
0001
0010
1000
0002
0000
,
0103
0010
0100
0000
1001
0000
0100
0000
,
0010
1000
0010
0100
,
0001
0100
0010
0100
,
0001
0010
0100
1000
,
0010
1000
1000
0001
,
0010
0001
0010
0001
,
1000
0100
1000
0010
,
1000
0001
1000
0100
,
0010
0100
0100
0010
,
0001
0010
0001
0000
0010
0000
0002
0000
,
0000
1003
0000
0010
,
1000
0010
1000
0000
0010
0000
2000
0000
,
0000
0000
3001
0000
0000
0000
0100
0010
,
0100
0010
0100
0010
0100
0010
0100
0000
,
0000
0000
0000
0000
0000
0000
0001
1000
,
0001
1000
0001
1000
0001
1000
0001
0000
,
0000
0000
0000
0100
,
0100
0100
0100
0100
,
0100
0100
0100
0010
,
0010
0010
0010
0010
,
0010
0010
0010
1000
,
1000
1000
1000
0001
,
0001
0000
0000
0000
0001
0000
0000
0000
0001
0000
0000
0000
0200
0310
1010
0100
,
0001
0010
0001
0100
0010
1000
0001
0010
,
0001
1000
0000
1000
0010
0100
0010
1000
,
0100
0010
0001
0100
0001
0010
0100
0010
,
0100
1000
0000
1000
0010
1000
0001
0010
,
0001
0001
0100
0010
1000
1000
0001
0010
,
0100
1000
0000
0010
0100
0010
1000
0001
,
0010
0010
0001
0010
0100
0010
0001
1000
,
0001
0200
0000
0320
0000
2030
0000
3001
,
0100
0001
0012
0000
0000
1000
0000
1003
,
0100
2000
0010
0000
3010
0000
0200
0000
,
0301
0000
0101
0000
0010
0200
0000
0310
,
1000
0100
1000
0000
0010
0100
0000
0001
,
0011
0000
1000
0100
0010
0100
1000
0001
,
0010
0100
0010
0001
1000
0010
0001
0010
,
1000
0001
1000
0010
0100
0002
0000
0000
,
0013
0000
0001
1000
0100
1000
0001
0010
,
0100
0011
0000
0000
;
