#TITLE:ラプンツェル;
#SUBTITLE:;
#ARTIST:RoughSketch;
#TITLETRANSLIT:Rapunzel;
#SUBTITLETRANSLIT:;
#ARTISTTRANSLIT:;
#GENRE:;
#CREDIT:;
#BANNER:Rapunzel_banner.png;
#BACKGROUND:Rapunzel.png;
#LYRICSPATH:;
#CDTITLE:;
#MUSIC:Rapunzel.ogg;
#OFFSET:0.360000;
#SAMPLESTART:89.480003;
#SAMPLELENGTH:12.000000;
#SELECTABLE:YES;
#BPMS:0.000000=195.000000
;
#STOPS:
;
#BGCHANGES:;
#KEYSOUNDS:;
#ATTACKS:;

//---------------dance-single - ----------------
#NOTES:
     dance-single:
     :
     Easy:
     6:
     0.266753,0.359592,0.122310,0.293544,0.000000,229.000000,214.000000,15.000000,36.000000,0.000000,0.000000,0.266753,0.359592,0.122310,0.293544,0.000000,229.000000,214.000000,15.000000,36.000000,0.000000,0.000000:
0000
0000
0000
0000
,
0000
0000
0000
0000
,
0000
0000
0000
0000
,
0000
0000
0000
0000
,
0000
0000
0000
0000
,
0001
0000
1000
0000
,
0100
0000
0010
0000
,
0002
0000
0003
0000
,
2000
0000
3000
0000
,
0100
0000
0010
0000
,
1000
0000
0001
0000
,
0010
0000
0100
0000
,
2000
0000
3000
0000
,
0001
0000
0100
0000
,
0010
0000
1000
0000
,
0200
0000
0310
0000
,
2002
0000
3003
0000
,
0010
0000
0010
0000
,
0010
0100
0010
0000
,
1000
0000
1000
0000
,
0001
0010
0001
0000
,
1000
0100
1000
0000
,
0001
0100
0001
0000
,
0220
0000
0000
0000
,
0330
0000
0000
0000
,
0001
0010
0100
1000
,
0001
1000
0100
0000
,
0010
0100
1000
0001
,
1000
0010
0110
0000
,
0001
1000
0010
0100
,
0001
0010
0100
0000
,
1000
0010
0100
0001
,
0022
0000
0033
0000
,
2000
3000
2000
3000
,
0002
0003
0002
0003
,
0100
0000
0010
0000
,
1000
0000
0100
0000
,
2000
0000
3010
0000
,
0002
0000
0013
0000
,
0100
0000
0001
0000
,
1000
0000
0100
0000
,
0110
0000
0110
0000
,
1001
0000
1001
0000
,
0010
0000
0001
0000
,
1000
0000
0010
0000
,
0200
0000
0301
0000
,
2000
0000
3010
0000
,
0001
0000
0010
0000
,
2200
0000
3300
0000
,
0010
0000
1000
0001
,
1000
0000
0100
0000
,
0010
0000
0001
1000
,
0002
0000
0003
0000
,
0100
0000
0010
1000
,
0001
0000
0100
0000
,
0001
0000
0010
0100
,
0020
0000
0030
0000
,
0001
0100
0001
0000
,
1000
0100
1000
0000
,
0010
0000
0100
0010
,
0200
0000
0300
0000
,
0001
0000
0010
0000
,
0001
1000
0100
0000
,
2000
0000
3010
0000
,
0002
0000
0013
0000
,
0200
0000
0301
0000
,
2000
0000
3100
0000
,
0010
1000
0010
1000
,
0001
0010
0001
0000
,
0100
0001
0100
0001
,
1000
0100
1000
0000
,
0220
0000
0000
0000
,
0330
0000
0000
0000
,
0001
0000
0010
0001
,
1000
0010
1000
0000
,
0001
0000
1000
0100
,
0020
0000
0030
0000
,
0100
0000
1000
0001
,
0100
0010
0100
0000
,
0001
0000
1000
0010
,
0220
0000
0330
0000
,
0001
0000
0001
0100
,
0010
1000
0100
0000
,
1000
0000
1000
0100
,
0010
0000
0001
1000
,
0001
0000
0100
0010
,
1000
0001
0010
0000
,
0101
0000
1010
0000
,
2002
0000
3003
0000
,
0010
0001
1000
0000
,
0010
1000
0001
0000
,
0100
0001
1000
0000
,
0100
1000
0001
0000
,
0010
0000
0010
0001
,
1000
0000
0100
1000
,
0001
0000
1000
0000
,
0010
0000
0100
0000
,
2002
0000
0000
0000
,
3003
0000
0000
0000
;

//---------------dance-single - ----------------
#NOTES:
     dance-single:
     :
     Medium:
     12:
     0.517197,0.639275,0.293544,0.318007,0.004077,444.000000,408.000000,36.000000,39.000000,0.000000,0.000000,0.517197,0.639275,0.293544,0.318007,0.004077,444.000000,408.000000,36.000000,39.000000,0.000000,0.000000:
0000
0000
0000
0000
,
0000
0000
0000
0000
,
0000
0000
0000
0000
,
0000
0000
0000
0000
,
0000
0000
0000
0000
,
0010
0000
0000
2002
0000
0000
3003
0000
,
0100
0000
0000
0011
0000
0000
1000
0000
,
0001
0000
0000
0010
0000
0000
0001
1000
,
0000
0010
0000
0100
0020
0000
0030
0000
,
1001
0000
0000
0100
0000
0000
0001
0000
,
0010
0000
0001
1000
0000
0000
0100
0000
,
1000
0000
0100
0010
0000
0000
0001
0000
,
1000
0000
0000
1001
0000
0000
0010
0000
,
1000
0000
0001
0100
0000
0000
0010
0000
,
0100
0000
0001
0010
0000
0000
0100
0000
,
1000
0000
1001
0000
,
0010
0100
0001
1001
,
1000
0000
0010
0100
0001
0000
0010
0001
,
0000
1000
0001
0000
0010
0000
0100
0000
,
1000
0000
0001
0010
0100
0000
0010
0001
,
0000
1000
0010
0000
0100
0000
0110
0000
,
0001
0100
0001
0000
1000
0100
1000
0000
,
0001
0010
0001
0000
1000
0010
1000
0000
,
0220
0000
0000
0330
,
0100
1000
0010
0001
,
1000
0000
0001
1000
0100
0000
0010
0001
,
1000
0000
0010
0100
0010
0000
1010
0000
,
0100
0000
0001
0010
0100
0000
0010
0100
,
1000
0000
0001
1000
0200
0000
0320
0000
,
0031
0000
1000
0010
0100
0000
0001
1000
,
0010
0000
1000
0001
0010
0000
0001
0000
,
1000
0100
1000
0000
0001
0010
0001
0100
,
0002
0000
0000
0003
,
0100
0110
0001
1001
,
1000
1100
0001
0101
,
0110
0000
0000
1000
0100
0000
0010
0000
,
0100
1000
0000
0001
1000
0000
0010
0000
,
0200
0000
0000
0000
0301
0000
0010
0100
,
0000
1000
0001
0000
1000
0000
0100
0000
,
0010
0000
0001
0000
1000
0001
1000
0001
,
0000
0100
0010
0000
1000
0010
1000
0000
,
0022
0033
2200
3300
,
2020
3030
0202
0303
,
1000
0000
0001
0000
1000
0010
0100
0010
,
0000
1000
0100
0000
0010
0000
0001
0000
,
2001
0000
0000
0000
3010
0000
0100
0001
,
0010
0001
1000
0000
0100
0000
0010
0000
,
0002
0000
0000
0000
1003
0000
0010
0100
,
0000
0001
1000
0000
0100
0000
0010
0000
,
0011
0000
0000
0000
1000
0000
0001
1000
,
0000
0010
0000
0200
0000
0000
0310
0000
,
0010
0000
1000
0100
0000
0010
0000
2002
,
0000
0000
3003
0000
,
0100
0000
0000
0000
0001
0000
1000
0010
,
0000
1000
0001
1000
0000
0000
0100
0000
,
0010
0000
0100
1000
0000
0001
0000
2002
,
0000
0000
3003
0000
,
0110
0000
0010
0000
1000
0000
0001
0010
,
0000
0001
1000
0100
0000
0010
0100
0000
,
0010
0000
0001
1000
0000
0001
0000
2002
,
0000
0000
3003
0000
,
0110
0000
0000
0000
1000
0000
0010
1000
,
0000
0001
0010
0001
0000
0000
0100
0000
,
0001
0000
0010
0100
0000
0100
0010
0000
,
0001
0000
1000
0010
0000
0010
1000
0000
,
0001
0000
0100
0010
0000
0010
0100
0000
,
0010
0000
1000
0100
0010
0000
0110
0000
,
0100
1000
0100
0000
1000
0001
1000
0000
,
0001
0010
0001
0000
0100
0010
0100
0000
,
0001
1000
0001
1000
0010
0100
0001
0000
,
1000
0001
1000
0100
0010
0100
1000
0000
,
2020
0000
0000
3030
,
0202
0000
0000
0303
,
1000
0010
1000
0000
0001
0000
0100
0010
,
0000
1000
0100
0010
0000
0100
1000
0000
,
0001
0100
0001
0000
1000
0001
0010
0200
,
0000
0000
0010
0310
,
0001
1000
0001
0000
1000
0000
0010
0100
,
0000
0001
1000
0001
0000
0010
0100
0000
,
1000
0100
0010
0001
0000
1000
0000
0220
,
0000
0000
0330
0000
0001
0100
1000
0000
,
0100
0001
0100
0000
0001
0010
0001
0000
,
1000
0010
0001
0000
0001
0010
0200
0000
,
0000
0000
0301
0000
1000
0000
0100
0000
0010
0000
0000
0100
0000
0000
0010
0000
,
0001
0000
1001
0000
0100
0010
1000
0000
,
0001
0100
0001
1000
0100
0010
0001
0000
,
1000
0010
1000
0001
0010
0100
1000
0000
,
0010
0000
0100
0001
0000
1000
0100
0020
,
0000
0000
0030
0000
,
0001
0100
0001
1000
0100
1000
0010
0000
,
1000
0100
0010
0100
1000
0001
0100
0000
,
0010
1000
0001
0100
0010
1000
0100
0000
,
0010
0001
1000
0100
1000
0010
0100
0000
,
0010
0000
0110
0000
1000
0100
1000
0000
,
0001
0000
0011
0000
1000
0010
1000
0000
,
0001
0101
1000
1100
,
0220
0000
0000
0330
,
2002
0000
0000
0000
,
3003
0000
0000
0000
;

//---------------dance-single - ----------------
#NOTES:
     dance-single:
     :
     Hard:
     15:
     0.740850,0.918957,0.424009,0.415855,0.183465,636.000000,584.000000,52.000000,51.000000,0.000000,0.000000,0.740850,0.918957,0.424009,0.415855,0.183465,636.000000,584.000000,52.000000,51.000000,0.000000,0.000000:
// measure 0
0000
0000
0000
0000
,  // measure 1
0000
0000
0000
0000
,  // measure 2
0000
0000
0000
0000
,  // measure 3
0000
0000
0000
0000
,  // measure 4
0000
0000
0000
0000
,  // measure 5
0011
0000
0000
0101
0000
0000
1000
0000
,  // measure 6
0010
0000
0000
0110
0000
0000
0001
0000
,  // measure 7
1100
0000
0000
0110
0000
0000
0001
1000
,  // measure 8
0000
0001
1000
0100
0010
0000
0110
0000
,  // measure 9
0100
1000
0100
0002
0000
0103
1000
0010
,  // measure 10
0100
0001
0100
2000
0000
3100
0001
0100
,  // measure 11
0010
0001
0010
2000
0000
3010
0001
0010
,  // measure 12
1000
0100
0010
0001
1000
0000
1001
0000
,  // measure 13
0010
0100
1000
0200
0000
0301
0010
0100
,  // measure 14
0010
0001
1000
0020
0000
1030
0001
0010
,  // measure 15
0100
0010
0001
1000
0010
0100
0001
0000
,  // measure 16
1000
0001
0010
0100
1000
0001
1001
0000
,  // measure 17
0100
0000
0010
0100
0010
0000
1000
0000
0100
0000
0010
0001
0010
0000
0001
0000
,  // measure 18
1000
0000
0010
1000
0010
0000
1000
0000
0100
0000
0001
0000
0100
0000
1000
0000
,  // measure 19
0010
0000
1000
0100
1000
0000
0001
0000
0100
0000
0010
0100
0010
0000
1000
0000
,  // measure 20
0001
0000
0010
0001
0010
0000
0100
0000
1000
0000
0001
0000
1001
0000
0000
0000
,  // measure 21
0100
0000
0001
0010
0001
0000
1000
0000
0010
0000
1000
0100
1000
0000
0001
0000
,  // measure 22
0010
0000
0100
1000
0100
0000
0010
0000
0001
0100
0001
0000
1000
0010
1000
0010
,  // measure 23
2000
0000
0000
0000
,  // measure 24
0002
0000
0000
3003
,  // measure 25
0010
0000
0100
0001
0100
0000
0010
0000
1000
0000
0100
0010
0100
0000
1000
0000
,  // measure 26
0010
0000
1000
0100
1000
0000
0001
0000
0010
0000
1000
0000
0010
0000
0001
0000
,  // measure 27
1000
0000
0100
0010
0100
0000
1000
0000
0010
0000
0100
0001
0100
0000
0010
0000
,  // measure 28
1000
0000
0001
0010
0001
0000
1000
0000
0100
0000
0010
0000
0110
0000
0000
0000
,  // measure 29
0001
0000
1000
0010
0100
0000
0001
0000
1000
0000
0100
0010
0001
0000
1000
0000
,  // measure 30
0010
0000
1000
0001
0100
0000
0010
0000
1000
0000
0010
0000
0001
0000
0010
0000
,  // measure 31
1000
0000
0001
0000
0010
0000
0100
0000
1000
0000
0001
0000
1000
0100
0010
0001
,  // measure 32
0200
0000
0000
0300
,  // measure 33
0201
0310
1020
0130
,  // measure 34
2010
3100
0012
0103
,  // measure 35
1001
0000
0000
0100
0100
0010
0100
0010
,  // measure 36
0000
0010
1000
0010
0100
0000
0011
0000
,  // measure 37
1100
0000
0000
0000
0110
0000
1000
0001
,  // measure 38
0000
0010
0100
0010
0001
0000
1100
0000
,  // measure 39
0020
0000
0000
1030
1000
0001
1000
0010
,  // measure 40
0000
0100
0001
1000
0100
0010
0001
0000
,  // measure 41
1002
0103
2001
3010
,  // measure 42
0021
1030
1020
0031
,  // measure 43
1200
0000
0301
0000
0100
1000
1000
0100
,  // measure 44
0000
1000
0010
1000
0001
0000
0101
0000
,  // measure 45
0012
0000
0000
0000
1003
0000
0010
0001
,  // measure 46
0000
0001
0010
1000
0001
0000
1001
0000
,  // measure 47
0120
0000
0000
0000
1030
0100
0001
0100
,  // measure 48
0000
0220
0000
0000
0000
0000
0330
0000
,  // measure 49
2200
0000
0300
0000
3001
0000
0010
0002
,  // measure 50
0000
0203
0000
0010
0000
0310
0110
0000
,  // measure 51
1020
0000
0100
0130
0000
0100
0002
0020
,  // measure 52
0000
0000
0000
0033
,  // measure 53
2200
0000
0300
0000
3010
0000
0001
0020
,  // measure 54
0000
1000
1000
2030
0000
3001
1001
0000
,  // measure 55
0210
0000
0001
0301
0000
1000
0100
0020
,  // measure 56
0002
0030
2000
3003
,  // measure 57
0101
0000
0010
0000
1000
0001
0010
0001
,  // measure 58
0000
0100
0100
0100
0000
0010
0110
0000
,  // measure 59
1000
0100
1000
1010
0000
0100
0001
0011
,  // measure 60
0000
0000
1000
0000
1000
0000
0000
0000
0001
0000
0010
0100
1000
0000
0001
0000
,  // measure 61
1000
0010
2000
0000
3001
0010
0100
0010
,  // measure 62
0001
1000
1000
2000
0000
3010
0110
0000
,  // measure 63
0201
0000
0010
0310
0000
0100
0001
0100
,  // measure 64
0020
0000
0100
0130
0000
0001
0010
0100
,  // measure 65
2000
0000
0010
3010
0000
0010
1000
0100
,  // measure 66
0020
0000
0001
0031
1000
0100
0001
0100
,  // measure 67
1000
0010
1000
0010
0100
0001
0100
0001
,  // measure 68
0010
0001
0010
0001
1000
0100
1000
0100
,  // measure 69
0010
0100
0010
0100
1000
0001
0010
0001
,  // measure 70
0100
0000
0010
0000
1000
0000
0001
0000
0100
0010
0100
0010
1000
0001
1000
0001
,  // measure 71
2000
0000
0000
0000
,  // measure 72
0002
0000
0000
3003
,  // measure 73
0010
0000
0010
0000
0010
0000
0001
1000
0100
0000
1000
0000
0010
0000
0100
0000
,  // measure 74
0000
0000
0100
0000
0001
0000
0010
0000
0100
0000
0010
0000
0001
0000
1000
0001
,  // measure 75
1000
0010
0100
0001
0000
0001
1000
0200
,  // measure 76
0000
0010
0010
0000
1300
0000
1100
0000
,  // measure 77
0001
0000
0100
0000
0100
0000
0010
1000
0001
0000
0010
0000
0001
0000
0100
0000
,  // measure 78
0000
0000
0010
0100
0010
0000
1000
0000
0000
0000
1000
0000
0001
0000
0010
0100
,  // measure 79
1000
0000
0001
0000
0100
0000
0110
0000
0000
0000
0010
0000
1000
0000
0001
1000
,  // measure 80
0002
0010
0013
0000
0001
0010
1000
0010
,  // measure 81
0001
0100
1000
0100
0001
1000
0100
0001
,  // measure 82
0100
0000
1000
0000
0010
0000
0001
0000
0010
0000
1000
0000
0001
1000
0001
0000
,  // measure 83
0000
0000
0100
0000
0110
0000
0100
0000
0001
0000
0000
0011
0000
0000
1000
0000
,  // measure 84
0100
1000
0010
0100
0001
0010
1000
0010
,  // measure 85
0001
0000
0100
0000
0001
0000
1000
0000
0010
0000
1000
0000
0001
0000
0010
0100
,  // measure 86
1000
0000
0001
0000
0010
0000
0110
0000
0000
0000
1000
0010
1000
0000
0001
0000
,  // measure 87
0100
0000
0001
0000
1000
0000
1010
0000
0000
0000
0001
0000
0010
0000
0100
1000
,  // measure 88
0002
0000
0000
0003
,  // measure 89
0100
0010
0100
0010
1000
0100
1000
0100
,  // measure 90
0010
0000
0001
0000
0010
0000
0001
0000
1000
0000
0010
0000
0001
0010
0000
0100
,  // measure 91
0010
1000
0001
0100
0010
0100
0001
0010
,  // measure 92
0100
0000
1000
0000
0100
0000
0010
0000
0100
0010
0100
0010
0100
0000
0000
0000
,  // measure 93
1001
0000
0000
0000
0010
0000
0100
0000
0001
0000
1000
0000
0100
1000
0001
0000
,  // measure 94
0100
0000
0010
0000
0100
0000
0001
0000
1000
0000
0100
0000
1000
0001
0010
0000
,  // measure 95
0001
1000
1010
0000
1000
0001
0101
0000
,  // measure 96
2001
0000
0100
0001
0100
0000
3001
0000
,  // measure 97
0022
0000
0000
0000
,  // measure 98
0033
0000
0000
0000
;
