#TITLE:乱膳の舞姫;
#SUBTITLE:;
#ARTIST:BEMANI Sound Team "Akhuta Works" feat. mami;
#TITLETRANSLIT:Ranzen no maihime;
#SUBTITLETRANSLIT:;
#ARTISTTRANSLIT:Akhuta Works feat. mami;
#GENRE:BALKANIC ROCK;
#CREDIT:;
#BANNER:Ranzen_no_maihime_banner.png;
#BACKGROUND:Ranzen_no_maihime.png;
#LYRICSPATH:;
#CDTITLE:;
#MUSIC:Ranzen_no_maihime.ogg;
#OFFSET:0.760000;
#SAMPLESTART:73.620003;
#SAMPLELENGTH:12.000000;
#LASTBEATHINT:329.000000;
#SELECTABLE:YES;
#BPMS:0.000000=171.000000
;
#STOPS:
;
#BGCHANGES:;
#KEYSOUNDS:;
#ATTACKS:;

//---------------dance-single - ----------------
#NOTES:
     dance-single:
     :
     Easy:
     7:
     0.265726,0.341927,0.176750,0.193583,0.000000,221.000000,200.000000,21.000000,23.000000,0.000000,0.000000,0.265726,0.341927,0.176750,0.193583,0.000000,221.000000,200.000000,21.000000,23.000000,0.000000,0.000000:
0000
0000
0000
0000
,
0000
0000
0000
0000
,
0000
0000
0000
0000
,
0000
0000
0000
0000
,
0000
0000
0000
0000
,
1000
0000
0100
0000
,
1000
0010
0100
0000
,
0001
0000
0010
0000
,
2002
0000
3003
0000
,
0100
0000
0001
0010
,
0001
1000
0010
0000
,
0100
0000
0010
1000
,
0100
1000
0001
0000
,
1001
0000
0010
1000
,
0001
1000
0100
0000
,
0011
0000
1100
0000
,
0010
0100
0220
0330
,
0002
0000
0000
0003
,
2000
0000
0000
3000
,
1001
0000
0010
0000
,
0010
0000
0010
0000
,
0100
0000
0100
0000
,
0100
0001
1000
0000
,
0010
0000
0010
0100
,
0001
0010
0100
0000
,
1000
0000
0010
0100
,
0010
1000
0100
0000
,
1000
0000
0001
0010
,
0100
1000
0001
0000
,
1000
0000
0010
1000
,
0100
0010
0001
0000
,
1001
0000
0010
0100
,
0010
1000
0010
0000
,
1000
0000
0001
0100
,
0010
0100
0001
0000
,
1010
0000
0100
0000
,
0011
0000
1000
0000
,
0002
0000
0013
0100
,
1000
0100
0010
0000
,
0001
0100
0010
0000
,
2200
3300
0001
0001
,
0002
0000
0023
0000
,
0130
1000
0010
0000
,
0020
0000
0230
0000
,
0301
1000
0100
0000
,
2000
0000
3020
0000
,
0130
0001
1000
0000
,
0101
0000
0010
0000
,
1100
0000
0001
0000
,
1000
0000
0100
0000
,
0010
0000
0001
0000
,
0001
0000
0010
0000
,
2200
0000
3300
0000
,
0010
0000
0100
0010
,
1000
0100
0010
0000
,
0001
0000
0100
0010
,
0100
0001
1000
0000
,
1001
0000
0010
0100
,
0001
1000
0100
0000
,
1010
0000
0100
0001
,
1000
0010
0100
0010
,
2002
3003
0000
0100
,
0000
0010
1000
0100
,
0010
0000
0002
0000
,
2003
0000
3100
0010
,
0110
0000
1000
0000
,
0010
0000
1000
0100
,
0010
0000
0001
0000
,
0100
0000
0001
0010
,
0100
0000
0110
0000
,
1000
0001
1000
0010
,
1000
0000
0001
0010
,
0100
0010
0001
1000
,
0001
0000
0100
0010
,
0100
0001
0100
1000
,
0100
0000
0010
1000
,
0100
0010
0001
1000
,
0110
0000
2002
0000
,
0000
0000
3003
0000
,
0000
0000
0010
0000
,
0010
0000
0100
0010
,
0100
1001
0000
0000
;

//---------------dance-single - ----------------
#NOTES:
     dance-single:
     :
     Medium:
     11:
     0.488166,0.512890,0.244083,0.227250,0.101000,406.000000,377.000000,29.000000,27.000000,0.000000,0.000000,0.488166,0.512890,0.244083,0.227250,0.101000,406.000000,377.000000,29.000000,27.000000,0.000000,0.000000:
// measure 0
0000
0000
0000
0000
,  // measure 1
0000
0000
0000
0000
,  // measure 2
0000
0000
0000
0000
,  // measure 3
0000
0000
0000
0000
,  // measure 4
0000
0000
0000
0000
,  // measure 5
0100
0000
0110
0000
0001
0010
0100
1000
,  // measure 6
0010
0000
0110
0000
1000
0100
0010
0001
,  // measure 7
0200
0300
2002
3003
,  // measure 8
0220
0000
0000
0330
,  // measure 9
2000
0000
3010
0000
1000
0100
0010
0000
,  // measure 10
0001
0000
0100
0010
1000
0010
0100
0000
,  // measure 11
0002
0000
1003
0100
0020
0000
0031
0000
,  // measure 12
1000
0010
0220
0330
,  // measure 13
0002
0000
0013
0000
0100
1000
0100
0000
,  // measure 14
1000
0000
0010
0100
0010
0000
1000
0000
,  // measure 15
0001
0011
1000
1010
,  // measure 16
0001
1000
0100
0010
0001
0000
0000
0000
,  // measure 17
0220
0000
0330
0000
,  // measure 18
2002
0000
3003
0000
,  // measure 19
1010
0000
1000
0100
1000
0000
0010
0000
,  // measure 20
1000
0000
0001
0010
0001
0000
0100
0000
,  // measure 21
0001
0001
1000
1000
,  // measure 22
0010
0110
2002
3003
,  // measure 23
0110
0000
0001
0000
1000
0000
0100
1000
,  // measure 24
0001
0000
0000
0100
0000
0000
0001
0000
0010
0000
0000
0000
0100
0000
0000
0000
,  // measure 25
1000
0000
0010
0100
0001
0000
1000
0000
,  // measure 26
0200
0000
0000
0310
0001
0000
1001
0000
,  // measure 27
0100
0000
0001
0000
0010
0100
1000
0000
,  // measure 28
0010
0000
0000
1000
0000
0000
0001
0000
0100
0000
0000
0010
0000
0000
1000
0000
,  // measure 29
0100
0000
1000
0000
0010
0100
0010
0100
,  // measure 30
0001
0010
0100
0000
2200
0000
3300
0000
,  // measure 31
0010
0000
0100
0000
0010
1000
0001
0000
,  // measure 32
0010
0000
0000
0100
0000
0000
1000
0000
0010
0000
0000
0000
0100
0000
0000
0000
,  // measure 33
0001
0000
1000
0100
0010
0000
0001
0000
,  // measure 34
0100
0000
0000
0010
0000
0000
0100
0000
0001
0000
0000
0000
1001
0000
0000
0000
,  // measure 35
0100
0010
1000
0000
0100
0010
0001
0000
,  // measure 36
1000
0000
0000
0001
0000
0000
0010
0000
0100
0000
0000
1000
0000
0000
0010
0000
,  // measure 37
0100
0000
0001
0000
1000
0010
0100
0010
,  // measure 38
1000
0100
0001
0000
0001
0100
1000
0000
,  // measure 39
0001
0000
0010
0000
0100
0000
0000
0000
1000
0000
0000
0010
0000
0000
1000
0000
,  // measure 40
0001
0100
0010
0110
,  // measure 41
1000
0000
0100
1000
0100
0000
1000
0000
,  // measure 42
0010
0100
0010
0000
1000
0000
0100
0010
,  // measure 43
0001
0000
1000
0010
1000
0000
0001
0010
,  // measure 44
0001
0100
0010
1001
,  // measure 45
0010
0000
0100
1000
0010
0000
0100
0001
,  // measure 46
0010
0000
0001
0000
1000
0100
0010
0000
,  // measure 47
0001
0000
1000
0010
0100
0000
0001
0010
,  // measure 48
0100
0000
1000
0010
0100
0001
0010
0000
,  // measure 49
0001
0000
0000
0100
0000
0000
0001
0000
0010
0000
0000
0100
0000
0000
0010
0000
,  // measure 50
0100
0000
0000
1000
0000
0000
0100
0000
1000
0000
0000
0010
0000
0000
1000
0000
,  // measure 51
0001
0000
0000
0010
0000
0000
0100
0000
1000
0000
0000
0010
0000
0000
0100
0000
,  // measure 52
0001
0000
0000
1000
0000
0000
0100
0000
0220
0000
0000
0000
0330
0000
0000
0000
,  // measure 53
0001
0000
1001
0000
1000
0010
0100
0000
,  // measure 54
0001
0000
0000
0010
0100
0000
0010
0000
0001
0000
0000
0000
1000
0000
0000
0000
,  // measure 55
0010
0000
0110
0000
1000
0100
0010
0000
,  // measure 56
0001
0000
0000
0100
0010
0000
0100
0000
0001
0000
1000
0000
0001
0000
0000
0000
,  // measure 57
1000
0000
1100
0000
0010
1000
0010
0000
,  // measure 58
1000
0000
0000
0001
0010
0000
0001
0000
1000
0000
0000
0000
0010
0000
0000
0000
,  // measure 59
0100
0000
0110
0000
0001
1000
0001
0000
,  // measure 60
1000
0000
0000
0100
0010
0000
0100
0000
1000
0000
0001
0000
1000
0000
0000
0000
,  // measure 61
0220
0330
0001
0010
,  // measure 62
0001
0000
1000
0000
0010
0000
0000
0000
0100
0000
0000
0010
0000
0000
0100
0000
,  // measure 63
0001
0000
1000
0000
0100
0000
1000
0010
,  // measure 64
0100
0010
1000
0000
0002
0000
0000
0013
,  // measure 65
0100
0110
1000
0010
,  // measure 66
1000
0000
0100
0000
0010
0000
0000
0000
0001
0000
0000
0100
0000
0000
0010
0000
,  // measure 67
1000
0000
0000
0100
0000
0000
0010
0000
0001
0000
0000
0000
0000
0000
1000
0000
,  // measure 68
0010
0000
1000
0000
0001
0010
0100
1000
,  // measure 69
0020
0030
0110
1000
,  // measure 70
0100
0000
1000
0000
0001
0000
0000
0000
0100
0000
0000
0010
0000
0000
0100
0000
,  // measure 71
0001
0000
0010
0000
0100
0000
0000
0000
1000
0000
0000
0100
0000
0000
1000
0000
,  // measure 72
0010
0100
0010
0000
1000
0100
0010
0001
,  // measure 73
0200
0000
0300
0000
0001
0010
0001
0000
,  // measure 74
1000
0010
1000
0000
0001
0100
0001
0000
,  // measure 75
1000
0100
1000
0000
0010
0000
0100
0000
,  // measure 76
0001
1000
0010
0000
1000
0100
0010
0001
,  // measure 77
1000
0001
0010
0000
0110
0000
0000
0000
,  // measure 78
1000
0000
0001
0000
,  // measure 79
1000
0000
0010
0010
,  // measure 80
0100
0100
0001
1000
,  // measure 81
0110
1001
0000
0000
;

//---------------dance-single - ----------------
#NOTES:
     dance-single:
     :
     Hard:
     15:
     0.785154,0.889010,0.505000,0.235666,0.458708,653.000000,593.000000,60.000000,28.000000,0.000000,0.000000,0.785154,0.889010,0.505000,0.235666,0.458708,653.000000,593.000000,60.000000,28.000000,0.000000,0.000000:
// measure 0
0000
0000
0000
0000
,  // measure 1
0000
0000
0000
0000
,  // measure 2
0000
0000
0000
0000
,  // measure 3
0000
0000
0000
0000
,  // measure 4
0000
0000
0000
0000
,  // measure 5
1001
0000
0000
0000
0010
0000
0100
0000
0001
0000
0010
0100
1000
0000
0010
0000
,  // measure 6
2000
0000
0000
0000
3001
0000
0100
0000
0010
0000
1000
0100
0010
0000
0001
0000
,  // measure 7
1000
0000
0010
0000
0100
0010
0100
0000
0001
0000
0010
0000
0100
0010
0100
0000
,  // measure 8
1000
0000
0001
1000
0001
1000
0001
1000
0001
0000
0010
0100
1000
0000
0000
0000
,  // measure 9
1002
0000
0000
0000
0000
0000
0013
0000
0100
0000
1000
0010
0100
0000
0010
0000
,  // measure 10
2000
0000
0000
0000
3100
0000
0001
0000
0100
0000
1000
0001
0100
0000
0010
0000
,  // measure 11
2000
0000
0000
0000
3001
0000
0010
0000
1000
0000
0010
0001
0100
0000
0010
0000
,  // measure 12
1000
0001
0100
0010
0001
0100
1000
0010
,  // measure 13
0210
0000
0000
0000
0000
0000
0301
0000
0010
0000
0001
1000
0010
0000
0100
0000
,  // measure 14
0001
0000
0010
0000
0100
0000
0010
0000
0001
0000
1000
0001
0100
0000
0010
0000
,  // measure 15
0200
0000
0000
0000
1300
0000
0100
0000
0001
0000
0010
0001
1000
0000
0100
0000
,  // measure 16
1000
0010
0001
0200
0020
0000
0330
0000
,  // measure 17
2002
0000
0000
3003
,  // measure 18
0220
0000
0000
0330
,  // measure 19
1001
0000
0100
0010
0020
0000
1030
0100
,  // measure 20
0002
0000
0103
1000
0010
0100
0100
0010
,  // measure 21
1010
0011
1100
0101
,  // measure 22
0011
1100
0220
0330
,  // measure 23
1001
0000
0000
0001
0100
0000
0010
0000
0100
0000
0001
0010
0100
0000
1000
0000
,  // measure 24
0010
0000
0100
0010
0000
0100
0010
0000
1000
0000
0100
0000
0001
0000
0100
0000
,  // measure 25
1000
0000
0000
0010
1000
0000
0001
0000
0010
0000
1000
0000
0010
0000
0001
0000
,  // measure 26
0200
0000
0010
0010
0310
0000
1001
0000
,  // measure 27
0010
0000
1000
0000
0100
0000
1000
0000
0001
0000
0010
0100
1000
0000
0010
0000
,  // measure 28
1000
0000
0100
0010
0000
0100
1000
0000
0001
0000
0100
0010
0000
0100
0001
0000
,  // measure 29
0020
0000
0100
0100
0130
1000
0100
0001
,  // measure 30
0100
1000
0010
0001
0010
0000
0110
0000
,  // measure 31
0002
0000
0000
0000
0103
0000
0010
0000
0100
0000
0001
0010
0100
0000
1000
0000
,  // measure 32
0010
0000
1000
0001
0000
0010
0001
0000
0100
0000
0010
1000
0100
0000
0000
0000
,  // measure 33
1001
0000
0000
0000
0010
0000
0100
0000
0001
0000
1000
0100
0010
0000
0001
0000
,  // measure 34
0100
0000
1000
0100
0000
0001
0010
0000
0100
0000
0000
0000
1001
0000
0000
0000
,  // measure 35
0010
0000
1000
0000
0001
0000
0010
0000
0001
0000
0010
0100
1000
0000
0010
0000
,  // measure 36
1000
0000
0100
1000
0000
0010
1000
0000
0001
0000
0010
0001
0000
1000
0001
0000
,  // measure 37
0200
0000
0000
0000
0310
0000
1000
0000
0100
0000
1000
0010
0100
0010
1000
0000
,  // measure 38
0001
0010
0100
0010
0001
1000
0100
0001
,  // measure 39
0100
0000
0010
0000
0001
0000
1000
0000
0010
0000
0000
0110
0000
0000
1001
0000
,  // measure 40
0100
0000
0010
0100
0010
0100
0010
0000
1000
0000
0000
0000
0011
0000
0000
0000
,  // measure 41
1010
0000
0000
0100
0010
0000
1000
0000
0010
0000
0000
0100
0010
0000
1000
0000
,  // measure 42
0001
0000
0010
0000
1000
0000
0010
0000
0001
0000
1000
0001
0100
0001
1000
0000
,  // measure 43
0100
0000
0000
0010
0100
0000
1000
0000
0100
0000
0000
0010
0100
0000
1000
0000
,  // measure 44
0001
0000
1000
0010
0100
0010
1000
0000
0001
0000
0100
0000
1000
0000
0100
0000
,  // measure 45
0001
0000
0010
0100
0010
0000
0001
0000
1000
0000
0010
0100
0010
0000
1000
0000
,  // measure 46
0001
0000
0010
0000
1000
0000
0001
0000
0100
0000
1000
0010
0100
0000
0001
0000
,  // measure 47
1000
0000
0001
0100
0001
0000
1000
0000
0001
0000
0010
0100
0010
0000
0001
0000
,  // measure 48
1000
0010
0100
0000
0001
0010
0100
1000
0010
0000
0100
0000
0110
0000
0000
0000
,  // measure 49
1010
0000
0000
1100
0000
0000
1010
0000
0101
0000
0000
0011
0000
0000
0101
0000
,  // measure 50
1001
0000
0000
0011
0000
0000
0110
0000
1100
0000
0000
1010
0000
0000
0101
0000
,  // measure 51
1001
0000
0000
1100
0000
0000
1001
0000
0011
0000
0000
1010
0000
0000
0110
0000
,  // measure 52
1001
0000
0000
0110
0000
0000
1100
0000
0202
0000
0000
0000
0303
0000
0000
0000
,  // measure 53
0110
0000
0000
0010
1000
0000
0100
0000
1000
0000
0010
0100
0001
0000
0010
0000
,  // measure 54
0001
0000
1000
0010
1000
0000
0001
0000
0010
0000
0100
0000
0110
0000
0000
0000
,  // measure 55
1000
0000
0000
1000
0001
0000
0100
0000
0010
0000
0100
0001
0100
0000
0010
0000
,  // measure 56
1000
0000
0100
1000
0100
0000
0010
0000
0100
0000
1000
0000
1001
0000
0000
0000
,  // measure 57
0011
0000
0000
0010
0100
0000
1000
0000
0010
0000
0100
0001
0010
0000
0100
0000
,  // measure 58
1000
0000
0001
0100
0001
0000
1000
0000
0100
0000
0010
0000
0110
0000
0000
0000
,  // measure 59
0001
0000
0000
0001
1000
0000
0010
0000
1000
0000
0010
0100
0010
0000
1000
0000
,  // measure 60
0001
0000
0000
0001
1000
0000
0010
0000
0100
0000
0001
0000
1001
0000
0000
0000
,  // measure 61
2200
0000
0000
0000
3300
0000
0000
0000
0010
0000
0000
0100
0010
0000
1000
0000
,  // measure 62
0001
0000
0010
0001
1000
0000
0010
0000
1000
0000
0001
0010
0000
0000
0001
0000
,  // measure 63
1000
0000
0001
0010
0100
0000
0000
0000
1100
0000
0000
0000
0010
0000
1000
0000
,  // measure 64
0001
0000
1000
0010
0100
0000
0001
0000
0020
0000
0000
0000
0100
0000
0100
0000
,  // measure 65
0130
0000
0000
0000
0011
0000
0000
0000
1000
0000
0000
0010
1000
0000
0001
0000
,  // measure 66
0010
0000
0001
0100
0010
0000
1000
0000
0001
0000
0100
0001
0000
0000
1000
0000
,  // measure 67
0010
0000
1000
0100
0000
1000
0010
0000
0200
0000
0000
0000
0301
0000
0000
0000
,  // measure 68
0010
0000
0001
1000
0001
0000
0100
0000
0010
0000
0001
0000
0100
0000
1000
0000
,  // measure 69
0010
0000
0000
0000
1001
0000
0000
0000
0010
0000
0000
0000
1000
0100
0010
0100
,  // measure 70
1000
0000
0000
0000
0001
0000
0100
0000
0010
0000
0100
0010
0000
1000
0100
0000
,  // measure 71
1000
0000
0010
0100
0010
0000
1000
0000
0001
0000
0010
0100
0000
0010
0001
0000
,  // measure 72
1000
0000
0001
0100
0001
0000
0010
0000
0001
0000
0010
0100
0010
0000
0100
1000
,  // measure 73
0100
0000
0000
0000
1010
0000
0000
0000
0100
0000
0001
0000
1000
0100
1000
0000
,  // measure 74
0010
0000
1000
0000
0001
0010
0001
0000
0100
0000
0001
0000
0010
0001
0010
0000
,  // measure 75
0100
0000
1000
0000
0010
0100
0010
0000
2000
0000
0000
0000
3001
0010
0100
0000
,  // measure 76
1000
0000
0010
0100
0001
0000
1000
0000
0001
0000
0010
0000
0001
1000
0100
0000
,  // measure 77
1000
0000
0010
0000
0100
0001
1000
0000
0020
0000
0000
0000
0100
0000
0100
0000
,  // measure 78
0130
0000
0000
0010
0100
0000
0001
0000
1000
0000
0100
0001
0000
0100
1000
0000
,  // measure 79
0001
0010
0100
0000
0011
0000
1000
0010
,  // measure 80
0100
0000
0001
1000
0100
0000
0010
0000
0001
0000
0000
0000
1010
0000
0000
0000
,  // measure 81
0011
0110
0000
0000
;
