#TITLE:Rampage;
#SUBTITLE:;
#ARTIST:USAO;
#TITLETRANSLIT:;
#SUBTITLETRANSLIT:;
#ARTISTTRANSLIT:;
#GENRE:HARDCORE;
#CREDIT:;
#BANNER:Rampage_banner.png;
#BACKGROUND:Rampage.png;
#LYRICSPATH:;
#CDTITLE:;
#MUSIC:Rampage.ogg;
#OFFSET:0.608000;
#SAMPLESTART:111.389999;
#SAMPLELENGTH:14.760000;
#SELECTABLE:YES;
#BPMS:0.000000=195.000000
;
#STOPS:
;
#BGCHANGES:;
#KEYSOUNDS:;
#ATTACKS:;

//---------------dance-single - ----------------
#NOTES:
     dance-single:
     :
     Easy:
     7:
     0.313083,0.380680,0.135195,0.120964,0.000000,308.000000,289.000000,19.000000,17.000000,0.000000,0.000000,0.313083,0.380680,0.135195,0.120964,0.000000,308.000000,289.000000,19.000000,17.000000,0.000000,0.000000:
0000
0000
0000
0000
,
0000
0000
0000
0000
,
0000
0000
0000
0000
,
0000
0000
0000
0000
,
0000
0000
0000
0000
,
0000
0000
0000
0000
,
0000
0000
0000
0000
,
1000
0000
0001
0000
,
0100
0000
0010
0000
,
1000
0100
0010
0001
,
2002
0000
0000
3003
,
1000
0001
1000
0000
,
0010
0100
0010
0000
,
1000
0100
1000
0000
,
0001
0010
0001
0000
,
0100
0001
0001
0000
,
1000
0010
0010
0000
,
0001
0100
0100
0000
,
0010
1000
1000
0000
,
1000
0100
1000
0100
,
0010
0001
0020
0030
,
0001
0100
0001
0100
,
0010
1000
0020
0030
,
1000
0100
0010
0000
,
0001
0100
0010
0000
,
1000
0010
1000
0000
,
0001
0010
0001
0000
,
1000
0100
0100
0000
,
0010
0001
0001
0000
,
0100
0010
0010
0000
,
0001
1000
1000
0000
,
0001
1001
0000
1000
,
0100
0010
0000
0010
,
0001
0100
0000
0100
,
0010
1000
0100
1000
,
0000
1001
0000
1001
,
0000
1001
0000
1001
,
0100
0000
0010
0000
,
1000
0001
1000
0001
,
0220
0000
0000
0000
,
0000
0000
0000
0000
,
0330
0000
0000
0000
,
0000
0000
0000
0000
,
1000
0010
0100
0000
,
0001
0100
0010
0000
,
1000
0100
0010
0000
,
0100
0010
0001
0000
,
1000
0001
0100
0000
,
0010
1000
0001
0000
,
0010
0001
0100
0000
,
0010
1000
0100
0000
,
1000
1000
1000
0000
,
0001
0001
0001
0000
,
0100
0100
0100
0000
,
0010
0010
0010
0000
,
1000
0010
0010
0000
,
0100
0001
0001
0000
,
0010
0100
0100
0000
,
0001
1000
1000
0000
,
0001
0010
0001
0010
,
0200
0000
0000
0300
,
1000
0010
1000
0010
,
0200
0000
0000
0300
,
0001
1000
0100
1000
,
0020
0000
0000
0030
,
0100
0001
1000
0100
,
0020
0000
0000
0030
,
0001
0001
0001
0001
,
0100
0100
0200
0300
,
0010
0010
0010
0010
,
1000
1000
2000
3000
,
0001
1000
0001
1000
,
0010
0100
0110
0000
,
1000
0010
0100
0001
,
2002
0000
0000
3003
,
1000
0010
0100
0000
,
0001
0010
0100
0000
,
1000
0100
0100
0000
,
0001
0010
0010
0000
,
0001
0100
0010
0000
,
1000
0100
0010
0000
,
0001
0001
0010
0010
,
0100
0100
1000
1000
,
0000
0110
0000
0110
,
0000
0110
0000
0110
,
0000
1001
0000
1001
,
0000
1010
0000
0101
,
0001
0010
0001
0000
,
1000
0010
1000
0000
,
1000
0100
0010
0001
,
2002
0000
0000
3003
,
1000
0010
0100
0001
,
0100
0000
0010
0000
,
1000
0001
0010
0100
,
2000
0000
3001
0001
,
1000
0010
0100
0000
,
0001
0010
0100
0000
,
1000
0010
0010
0000
,
0001
0100
0100
0000
,
0001
0010
0100
0010
,
0001
1000
0001
0000
,
1000
0010
0100
0010
,
1000
0001
1000
0000
,
0001
0100
0010
1000
,
0001
0010
0100
0000
,
1000
0010
0100
0001
,
0010
0001
0100
0010
,
1001
0000
0000
0000
;

//---------------dance-single - ----------------
#NOTES:
     dance-single:
     :
     Medium:
     11:
     0.574324,0.685224,0.583472,0.135195,0.000000,565.000000,483.000000,82.000000,19.000000,0.000000,0.000000,0.574324,0.685224,0.583472,0.135195,0.000000,565.000000,483.000000,82.000000,19.000000,0.000000,0.000000:
0000
0000
0000
0000
,
0000
0000
0000
0000
,
0000
0000
0000
0000
,
0000
0000
0000
0000
,
0000
0000
0000
0000
,
0000
0000
0000
0000
,
0100
0010
0220
0330
,
1100
0000
0011
0000
,
1010
0000
0101
0000
,
1000
0001
0100
0010
,
2002
0000
0000
3003
,
0100
0000
0010
0000
1000
0010
1000
0000
,
0001
0000
0100
0000
0001
0010
0001
0000
,
1000
0000
0010
0000
0100
0010
0100
0000
,
0001
0000
0010
0000
0100
0010
0100
0000
,
1000
0000
0001
0000
0001
0010
0001
0000
,
0100
0000
0010
0000
0010
1000
0010
0000
,
1000
0100
1000
0000
0001
0010
0001
0000
,
0100
0010
0100
0000
0010
0000
0110
0000
,
1001
1001
1001
1001
,
0110
0110
0110
0110
,
1100
1100
0011
0011
,
0220
0000
0000
0330
,
1000
0000
0010
0000
0100
0010
1000
0000
,
0001
0000
0100
0000
0010
0100
0001
0000
,
1000
0100
1000
0010
0100
0001
0010
0000
,
0001
0010
0001
0100
0010
1000
0100
0000
,
1000
0000
0010
0000
0100
0001
0100
0000
,
0001
0000
0010
0000
0100
1000
0100
0000
,
0000
1000
0100
1000
0001
0010
0001
0100
,
0010
0100
0001
1000
0100
0010
0001
0000
,
1000
0000
1100
0000
0001
0010
0001
0000
,
0100
0000
0101
0000
0010
1000
0010
0000
,
0100
0000
0110
0000
0001
1000
0001
0000
,
1000
0000
1010
0000
0001
0100
0010
0000
,
1000
1100
0001
0101
,
1000
1010
0001
0011
,
1000
0100
0010
0100
0010
0001
1000
0000
,
0001
0010
0100
0010
0100
1000
0001
0000
,
2002
0000
0000
0000
,
0000
0000
0000
0000
,
0000
0000
0000
0000
,
0000
0000
0000
3003
,
0100
0000
0100
0010
0000
1000
0000
0002
,
0000
0000
0000
0013
0000
0010
0000
0001
,
1000
0100
0010
0001
,
0100
0000
0010
0000
1000
0001
0100
0001
,
1000
0000
1000
0010
0000
0010
0100
0001
,
0000
0000
1000
0000
0001
0010
0100
0000
,
0010
0000
0001
0000
1000
0100
0010
0000
,
0001
0100
0010
0000
1000
0100
0010
0000
,
0011
0000
0001
0000
0100
0010
0100
0000
,
0010
0000
1010
0000
1000
0100
1000
0000
,
0001
0000
0110
0000
0100
0010
0100
0000
,
0001
0000
0011
0000
0010
0001
0100
0000
,
0010
0000
1010
0000
1000
0100
1000
0000
,
0001
0000
0101
0000
0001
0010
0001
0000
,
1000
0000
1010
0000
0010
0100
0010
0000
,
1000
0000
0001
0000
0100
0010
0100
0000
,
0001
0000
0001
0010
0000
0010
0000
0220
,
0000
0330
0000
0000
1000
0000
0100
0000
,
1000
0100
1000
0100
0010
0000
0010
0000
,
0001
0100
0001
0100
0010
0000
0010
0000
,
1000
0000
0100
0000
1000
0100
1000
0010
,
0000
0010
0100
0000
0001
0000
0010
0000
,
0001
0100
0010
0000
1000
0100
0010
0000
,
0001
0010
0100
0000
1000
0010
0100
0000
,
0110
0110
0110
0110
,
1001
1001
1001
1001
,
1010
1010
0101
0101
,
0011
0011
1100
1100
,
0001
0100
0001
0100
0010
0000
0010
0000
,
1000
0100
1000
0100
0010
0000
0010
0000
,
0001
0100
0010
1000
0001
0010
0100
0000
,
2002
0000
0000
3003
,
1000
0000
0010
0000
0100
0010
0100
0010
,
1000
0000
0001
0000
0010
0100
0010
0100
,
1000
0000
0001
0000
0100
0010
1000
0000
,
0001
0010
0100
0000
1000
0010
0100
0000
,
0001
0000
0100
0000
0010
1000
0001
0100
,
0010
0000
1000
0000
0001
0010
0100
1000
,
0000
0001
0010
0001
0100
0010
1000
0010
,
0100
0001
0010
0100
1000
0001
0100
0000
,
0010
1010
0100
0101
,
0001
0011
0100
1100
,
0001
1010
1000
0101
,
1000
0000
0110
0000
0001
0100
0010
0000
,
1010
1010
1010
1010
,
0101
0101
0101
0101
,
0011
0011
1100
1100
,
0220
0000
0000
0330
,
1000
0000
0010
0100
0000
0100
0000
0002
,
0000
0000
0000
0013
0100
1000
0100
0010
,
0001
0100
0010
0000
1000
0100
0010
0000
,
2002
3003
0100
0110
,
0001
1000
0001
0000
0100
0010
0100
0001
,
0000
0001
1000
0100
0000
0010
0001
0010
,
0001
0100
0001
0000
1000
0100
1000
0000
,
0010
1000
0100
1000
0010
0000
0110
0000
,
0001
0000
0010
0100
0000
0100
0000
2000
,
0000
0000
0000
3001
0010
0100
0010
0001
,
1000
0100
0010
0000
0001
0100
0010
0000
,
1000
0010
0100
0001
0010
0100
1000
0000
,
0001
0101
1000
1100
,
0001
0011
1000
1010
,
0001
0100
0001
0100
0010
1000
0010
1000
,
0001
0010
0100
1000
0100
0010
0001
0000
,
1001
0000
0000
0000
;

//---------------dance-single - ----------------
#NOTES:
     dance-single:
     :
     Hard:
     16:
     0.804053,0.875564,0.547895,0.441162,0.117406,791.000000,714.000000,77.000000,62.000000,0.000000,0.000000,0.804053,0.875564,0.547895,0.441162,0.117406,791.000000,714.000000,77.000000,62.000000,0.000000,0.000000:
// measure 0
0000
0000
0000
0000
,  // measure 1
0000
0000
0000
0000
,  // measure 2
0000
0000
0000
0000
,  // measure 3
0000
0000
0000
0000
,  // measure 4
0000
0000
0000
0000
,  // measure 5
0000
0000
0000
0000
,  // measure 6
1000
0001
2002
3003
,  // measure 7
0100
0010
0100
0010
0100
1000
0100
1000
,  // measure 8
0100
0001
0100
0001
0010
0100
0010
0100
,  // measure 9
1000
0100
1000
0000
0001
0100
0001
0000
0010
0000
0010
0000
0010
0000
0010
0000
,  // measure 10
0000
0001
0010
1000
0001
0100
1001
0000
,  // measure 11
1000
0100
1000
0100
0010
0001
0010
0001
,  // measure 12
1000
0010
1000
0010
0100
0001
0100
0001
,  // measure 13
0010
0100
0010
0100
1000
0001
1000
0001
,  // measure 14
0100
0010
1000
0001
0100
0010
1001
0000
,  // measure 15
0001
0010
0001
0010
0100
1000
0100
1000
,  // measure 16
0001
0100
0001
0100
0010
1000
0010
1000
,  // measure 17
0001
0000
0100
0010
0100
0000
0010
0000
1000
0000
0001
0000
0100
0000
0010
0000
,  // measure 18
1000
0100
0010
0100
1000
0001
0100
0000
,  // measure 19
2002
3003
0220
0330
2002
3003
0220
0330
,  // measure 20
2200
3300
0022
0033
0202
0303
2020
3030
,  // measure 21
1000
0100
0010
0001
1000
0100
0010
0001
,  // measure 22
1000
0010
1000
0010
0100
0001
0100
0001
1000
0000
0001
0000
1001
0000
0000
0000
,  // measure 23
0001
0010
0100
0010
0001
1000
0010
0100
,  // measure 24
0010
1000
0100
1000
0001
0010
0100
0100
,  // measure 25
1000
0010
0100
0010
1000
0001
0010
0001
,  // measure 26
0100
0010
1000
0010
0100
0001
0011
0000
,  // measure 27
0101
0100
0010
0100
0001
0010
0100
1000
,  // measure 28
0010
0100
0001
0010
0001
0100
0020
0000
,  // measure 29
1030
1000
0100
1000
0001
0001
0100
0010
,  // measure 30
0100
1000
0100
0001
0100
0010
0110
0000
,  // measure 31
2002
3003
1000
0010
0100
0010
1000
0000
,  // measure 32
1001
0000
0001
0010
0100
0010
0001
1000
,  // measure 33
1010
0000
0100
0001
0010
0001
0100
0001
,  // measure 34
0011
0000
1000
0100
1000
0001
0110
0000
,  // measure 35
0001
0100
0101
0000
1000
0100
1100
0000
,  // measure 36
0001
0010
0011
0000
1000
0010
1010
0000
,  // measure 37
0100
0000
0010
0100
0001
0000
1000
0000
0010
0000
0100
0001
1000
0000
0100
0000
,  // measure 38
0010
0001
0010
0000
0001
0000
0100
0000
0010
0100
0001
0000
0010
0000
0100
0000
,  // measure 39
0210
0000
0000
0010
0000
0000
0010
0000
,  // measure 40
0001
0000
0000
0001
0000
0001
0001
0000
,  // measure 41
1000
0000
0000
1000
0000
0000
1000
0000
,  // measure 42
0001
0000
0000
0001
0000
0301
0000
0000
,  // measure 43
1010
0000
0010
0100
0000
0001
0000
0101
,  // measure 44
0000
1001
0000
0001
0010
0100
1000
0001
,  // measure 45
0100
0010
0100
0010
1000
0001
1000
0001
,  // measure 46
1000
0100
0010
0100
1000
0001
0010
0001
,  // measure 47
0100
0000
0001
0010
0000
0010
0100
0110
,  // measure 48
0000
0000
0001
0000
1000
0001
1000
0001
0100
0000
0010
0000
0100
0000
0010
0000
,  // measure 49
1000
0000
0001
0000
0010
0000
0100
0000
1000
0000
0001
0000
0100
0000
0010
1000
,  // measure 50
0010
0100
0001
1000
0001
0010
0011
0000
,  // measure 51
1100
0000
1000
0001
0000
0101
0000
0011
,  // measure 52
0000
0010
0100
0010
0001
1000
0010
1000
,  // measure 53
0001
0000
1000
0000
0100
0000
0010
0001
0010
0000
0100
0000
1000
0000
0001
0000
,  // measure 54
0000
0110
0000
0010
1000
0010
0100
0001
,  // measure 55
1000
0000
0010
0100
0000
0101
0000
1100
,  // measure 56
0000
1000
0001
0010
0100
0001
1000
0001
,  // measure 57
0100
0000
1000
0000
0001
0000
0010
0001
1000
0000
0010
0000
0100
0000
1000
0000
,  // measure 58
0000
0000
1100
0000
0000
0000
0100
0010
0100
0000
0001
0000
0100
0000
0000
0000
,  // measure 59
1001
0000
1000
0001
0000
1001
0000
0220
,  // measure 60
0000
0000
0330
0000
0000
0000
1000
0001
1000
0000
0001
0000
0010
0000
0100
0000
,  // measure 61
0010
0001
1000
0010
0100
0001
1000
0100
,  // measure 62
1000
0001
0010
0100
0001
0100
1000
0001
,  // measure 63
1000
0000
0010
0100
1000
0100
0001
0020
,  // measure 64
0000
0031
0100
0020
0000
1030
0001
0100
,  // measure 65
0001
0000
0010
0000
0100
0000
1000
0000
0001
0000
0100
0000
0010
0000
0100
0010
,  // measure 66
1000
0001
0010
0100
1000
0001
1001
0000
,  // measure 67
2020
3030
0220
0330
2002
3003
0220
0330
,  // measure 68
0022
0033
0220
0330
2020
3030
0022
0033
,  // measure 69
2200
3300
0202
0303
2200
3300
0202
0303
,  // measure 70
0022
0033
2200
3300
0022
0033
2200
3300
,  // measure 71
0001
0100
0001
0100
0010
1000
0010
1000
,  // measure 72
0001
0010
0100
1000
0010
0100
0010
0000
,  // measure 73
1000
0010
1000
0000
0001
0010
0001
0000
0010
0000
0100
0000
0010
0000
0100
0000
,  // measure 74
1001
0000
0100
0100
0010
0000
0110
0000
,  // measure 75
1000
0010
0001
0010
0100
0001
0010
0001
,  // measure 76
1000
0100
0001
0100
0010
0001
0010
0001
,  // measure 77
0001
0100
0001
0100
0010
1000
0001
0100
,  // measure 78
0001
0010
0100
1000
0010
0100
2000
0000
,  // measure 79
3100
0001
1000
0100
0010
0001
1000
0010
,  // measure 80
1000
0001
0100
0001
1000
0100
0010
0001
,  // measure 81
1000
0010
1000
0001
0100
0010
1000
0001
,  // measure 82
0010
0001
0010
1000
0010
0100
1000
0000
,  // measure 83
0101
0000
0011
0000
1000
0010
1010
0000
,  // measure 84
0011
0000
0101
0000
0010
0100
1100
0000
,  // measure 85
1001
0000
1010
0000
0100
0001
1100
0000
,  // measure 86
0110
0000
0011
0000
1001
1000
1001
0000
,  // measure 87
0001
0100
0001
0100
0010
1000
0010
1000
,  // measure 88
0001
0010
0100
1000
0010
0100
0001
0000
,  // measure 89
1000
0100
1000
0000
0001
0100
0001
0000
0100
0000
0010
0000
0100
0000
0010
0000
,  // measure 90
1000
0010
0001
0100
1000
0001
0010
0000
,  // measure 91
1001
0000
1000
0001
0000
1000
0000
2002
,  // measure 92
0000
0000
3003
0000
0000
0000
0100
0010
0100
0000
0001
0000
0010
0000
0100
0000
,  // measure 93
1000
0001
1000
0001
0100
0010
0100
0010
,  // measure 94
2000
0010
0010
0010
3100
0001
1000
0100
,  // measure 95
0010
0010
0011
0000
0100
0010
1000
0100
,  // measure 96
0000
0000
1000
0000
0100
0000
0001
0000
0000
0000
0001
0000
0100
0000
0010
0001
,  // measure 97
1000
0100
0010
1000
0010
0001
0100
1000
,  // measure 98
0001
0010
1000
0100
0001
0100
0110
0000
,  // measure 99
1000
0000
0010
0000
1000
0000
0100
0010
0001
0000
1000
0000
0010
0000
0100
0000
,  // measure 100
0001
0000
1000
0000
0010
0000
0100
0010
1000
0000
0001
0000
0010
0000
0100
0000
,  // measure 101
1000
0000
0001
0000
0100
0000
0010
1000
0001
0000
0100
0000
0001
0000
0010
0000
,  // measure 102
0001
0100
1000
0100
0001
1000
0010
0001
,  // measure 103
0010
0100
0010
0100
0001
1000
0001
1000
,  // measure 104
0001
0100
0001
0100
1000
0100
1000
0100
,  // measure 105
0010
1000
0010
0000
1000
0001
1000
0000
0100
0010
0100
0000
1000
0001
1000
0000
,  // measure 106
0010
0000
0100
0000
0010
0000
0100
0000
0001
0010
0100
0000
1000
0000
0001
0000
,  // measure 107
1001
0000
0000
0000
;

//---------------dance-double - ----------------
#NOTES:
     dance-double:
     :
     Easy:
     8:
     0.331380,0.380680,0.113848,0.128079,0.000000,326.000000,310.000000,16.000000,18.000000,0.000000,0.000000,0.331380,0.380680,0.113848,0.128079,0.000000,326.000000,310.000000,16.000000,18.000000,0.000000,0.000000:
00000000
00000000
00000000
00000000
,
00000000
00000000
00000000
00000000
,
00000000
00000000
00000000
00000000
,
00000000
00000000
00000000
00000000
,
00000000
00000000
00000000
00000000
,
00000000
00000000
00000000
00000000
,
00000000
00000000
00000000
00000000
,
00010000
00000000
10000000
00000000
,
00010000
00000000
00100000
00000000
,
00001000
00010000
00000100
00010000
,
00022000
00000000
00000000
00000000
00000000
00033000
00000000
00000000
,
00000010
00000100
00000010
00001000
,
00000001
00000010
00000100
00000000
,
00010000
00001000
00100000
00010000
,
10000000
01000000
01000000
00000000
,
10000000
00100000
01000000
00010000
,
00100000
00001000
00010000
00000000
,
00000100
00001000
00000001
00000010
,
00000001
00000100
00000100
00000000
,
00000001
00000001
00000010
00000010
,
00001000
00001000
00010000
00000000
,
01000000
01000000
10000000
10000000
,
20020000
00000000
00000000
00000000
00000000
30030000
00000000
00000000
,
00100000
01000000
00100000
10000000
,
00001000
00010000
00001000
00000000
,
00010000
00000010
00000100
00000010
,
00001000
00000001
00000010
00000000
,
00000001
00000010
00000100
00001000
,
00000100
00010000
00001000
00000000
,
00100000
00010000
10000000
01000000
,
10000000
00010000
10000000
00000000
,
00100000
01000000
00000000
01000000
,
00100000
10000000
00000000
10000000
,
00010000
00100000
00000000
00100000
,
00001000
00010000
00002000
00000000
,
00003000
00010100
00000000
00000101
,
00000000
00000011
00000000
00001010
,
00000200
00000000
00000320
00000000
,
00001030
00000100
00010000
00001000
,
00022000
00000000
00000000
00000000
,
00000000
00000000
00000000
00000000
,
00033000
00000000
00000000
00000000
,
00000000
00000000
00000000
00000000
,
00010000
00100000
00010000
01000000
,
00100000
00000000
10000000
00000000
,
01000000
10000000
00010000
00100000
,
00001000
00000000
00010000
00000000
,
00000010
00000100
00000001
00001000
,
00000001
00000000
00000010
00000000
,
00000100
00010000
00001000
00010000
,
00000100
00001000
00001000
00000000
,
00000010
00000100
00000010
00001000
,
00000001
00001000
00000100
00000000
,
00010000
00001000
00100000
01000000
,
10000000
00010000
10000000
00000000
,
00100000
01000000
00001000
00010000
,
00000010
00000100
00000001
00000000
,
00000010
00000100
00001000
00000001
,
00000100
00000010
00010000
00000000
,
00001000
00100000
00000000
00100000
,
00020000
00000000
10030000
10000000
,
00100000
01000000
00100000
10000000
,
00010000
00100000
00001000
00000000
,
00010000
00000100
00000100
00000000
,
00001000
00000001
00000010
00000000
,
00000001
00000100
00000010
00001000
,
00000100
00010000
00001000
00000000
,
00100000
00100000
00010000
00010000
,
10000000
10000000
02000000
03000000
,
00100000
00100000
00001000
00001000
,
00010000
00010000
00000200
00000300
,
00000010
00000001
00000010
00000100
,
00001000
00000100
00010000
00000000
,
00001000
00100000
00010000
10000000
,
20020000
00000000
00000000
00000000
00000000
30030000
00000000
00000000
,
00100000
01000000
00100000
10000000
,
00100000
01000000
00010000
00000000
,
00100000
00001000
00010000
00001000
,
00100000
00001000
00010000
00010000
,
00000100
00000010
00000100
00001000
,
00000001
00001000
00000001
00000000
,
00000100
00000010
00000010
00000010
,
00001000
00000100
00010000
00001000
,
00000000
00011000
00000000
00110000
,
00000000
10100000
00000000
10010000
,
00000000
01001000
00000000
00011000
,
00000000
00001010
00000002
00000003
,
00000100
00000100
00000001
00000001
,
00000010
00000010
00001000
00000000
,
00010000
00010000
01000000
01000000
,
20000000
00000000
00000000
30000000
,
00010000
00100000
00001000
00100000
,
00020000
00000000
01030000
00000000
,
00001000
00010000
00000100
00010000
,
00002000
00000000
00003100
00000100
,
00000001
00000010
00000001
00000000
,
00001000
00000100
00001000
00000000
,
00000010
00010000
00001000
00000000
,
00100000
00001000
01000000
00000000
,
00100000
10000000
00010000
10000000
,
01000000
00100000
00001000
00000000
,
00010000
00000100
00000010
00000100
,
00001000
00000001
00000010
00000000
,
00000001
00000001
00001000
00001000
,
00000100
00000100
00010000
00010000
,
00001000
00100000
10000000
00100000
,
00010000
01000000
00001000
00000000
,
00011000
00000000
00000000
00000000
;

//---------------dance-double - ----------------
#NOTES:
     dance-double:
     :
     Medium:
     12:
     0.630231,0.685224,0.498086,0.092502,0.000000,620.000000,550.000000,70.000000,13.000000,0.000000,0.000000,0.630231,0.685224,0.498086,0.092502,0.000000,620.000000,550.000000,70.000000,13.000000,0.000000,0.000000:
00000000
00000000
00000000
00000000
,
00000000
00000000
00000000
00000000
,
00000000
00000000
00000000
00000000
,
00000000
00000000
00000000
00000000
,
00000000
00000000
00000000
00000000
,
00000000
00000000
00000000
00000000
,
00100000
00001000
00011000
00000000
,
00001001
00000000
00000110
00000000
,
00010010
00000000
00011000
00000000
,
00100000
00010000
10000000
01000000
,
20020000
00000000
00000000
00000000
00000000
30030000
00000000
00000000
,
01000000
00100000
01000000
00000000
00010000
00100000
00001000
00010000
,
00000100
00010000
00000100
00000000
00001000
00000010
00000100
00000010
,
00001000
00000001
00001000
00000000
00000010
00001000
00000100
00010000
,
00001000
00000000
00010000
00001000
00010000
00000000
00011000
00000000
,
00001000
00100000
00010000
00000000
10000000
00100000
10000000
01000000
,
10000000
00010000
01000000
00000000
00010000
00100000
00001000
00010000
,
00000010
00000100
00000010
00000000
00001000
00000001
00001000
00000100
,
00010000
00000000
00001000
00000000
00100000
01000000
00100000
00000000
,
01100000
01100000
01100000
01100000
,
10010000
10010000
10010000
10010000
,
00110000
00110000
00011000
00011000
,
00001100
00001100
00000022
00000033
,
00001000
00000000
00000010
00000100
00000001
00001000
00000100
00000000
,
00010000
00000000
00001000
00100000
00010000
10000000
01000000
00000000
,
10000000
00100000
10000000
01000000
10000000
00010000
00100000
00000000
,
00001000
01000000
00001000
00010000
00000100
00001000
00000100
00000000
,
00000010
00000000
00000001
00000010
00000100
00001000
00000100
00000000
,
00010000
00000000
00001000
00010000
00100000
00010000
00001000
00000000
,
00000000
00100000
01000000
10000000
00010000
00100000
01000000
00100000
,
00010000
10000000
00010000
00100000
00001000
00010000
00001000
00000000
,
00010000
00000000
00010100
00000000
00000010
00001000
00000010
00000000
,
00000100
00000000
00000101
00000000
00000001
00001000
00000010
00000000
,
00010000
00000000
00010100
00000000
00001000
01000000
00010000
00000000
,
10000000
00000000
00100000
01000000
00100000
10000000
00010000
00000000
,
00100000
00101000
00001000
00011000
,
00010000
00010010
00000010
00000110
,
00001000
00000001
00000010
00000001
00000100
00000001
00000010
00000000
,
00001000
00010000
00001000
00010000
01000000
10000000
01000000
00000000
,
20020000
00000000
00000000
00000000
,
00000000
00000000
00000000
00000000
,
00000000
00000000
00000000
00000000
,
00000000
00000000
00000000
00000000
00000000
30030000
00000000
00000000
,
01000000
00000000
00100000
01000000
00000000
00010000
00000000
00110000
,
00000000
00000000
00000000
00001000
00010000
00000010
00000100
00001000
,
00000100
00000001
00001000
00000000
00000001
00000010
00000100
00000000
,
00010000
00001000
00100000
00010000
10000000
00010000
01000000
00000000
,
00100000
00000000
00100000
10000000
00000000
10000000
00010000
01000000
,
00000000
00000000
00001000
00100000
00010000
00100000
00001000
00010000
,
00000100
00001000
00000100
00000000
00000010
00000001
00000010
00000000
,
00000001
00000010
00000100
00001000
00000100
00000000
00010100
00000000
,
00011000
00000000
00001000
00100000
00000000
00010000
00000000
00110000
,
00000000
00000000
10000000
01000000
00100000
01000000
10000000
00000000
,
00020000
00000000
00130000
00001000
00100000
00010000
00000000
01000000
,
00000000
01010000
00000000
00010000
00100000
00001000
00010000
00000000
,
00000010
00000000
00000010
00000100
00000000
00000100
00000000
00000101
,
00000000
00000000
00000010
00001000
00000100
00001000
00000010
00000000
,
00000100
00000000
00000100
00000001
00001000
00000001
00000000
00001010
,
00000000
00001100
00000000
00010000
00001000
00010000
00001000
00000000
,
00100000
00000000
00100000
00010000
00000000
10000000
00000000
20020000
,
00000000
30030000
00000000
01000000
00100000
10000000
00010000
00000000
,
00100000
00010000
00100000
00000000
01000000
10000000
01000000
00000000
,
00100000
00001000
00010000
00001000
00100000
00000000
00001000
00000000
,
00010000
00000000
00010010
00000000
00000010
00000100
00000010
00001000
,
00000000
00001000
00000001
00001000
00000000
00000001
00000010
00000000
,
00000001
00001000
00000100
00000000
00010000
00000010
00001000
00000000
,
00000100
00010000
00001000
00100000
00010000
10000000
01000000
00000000
,
10100000
10100000
01010000
01010000
,
00110000
00110000
00011000
00011000
,
00001100
00001100
00000101
00000101
,
00000011
00000011
00001010
00001010
,
00000010
00000100
00000010
00000100
00000001
00001000
00000001
00001000
,
00000010
00010000
00001000
00010000
00000100
00000000
00000100
00000000
,
00010000
00100000
01000000
00100000
10000000
00010000
10000000
00000000
,
02200000
00000000
00000000
00000000
00000000
03300000
00000000
00000000
,
10000000
01000000
10000000
00000000
00010000
00100000
00010000
01000000
,
00001000
00010000
00001000
00100000
00001000
00010000
00000100
00000000
,
00001000
00000010
00000100
00000000
00000001
00000010
00000100
00000000
,
00001000
00000010
00000100
00000001
00001000
00000100
00010000
00000000
,
00001000
00000000
00011000
00000000
00010000
00100000
00010000
00100000
,
00000000
00100000
10000000
00100000
00000000
01000000
00100000
10000000
,
01000000
10000000
01000000
00100000
01000000
10000000
00010000
00100000
,
00001000
00000000
00010000
00001000
00010000
00000010
00000100
00000000
,
00000001
00000011
00001000
00001010
,
00000100
00010100
00010000
00011000
,
00001000
00101000
00100000
00110000
,
00010000
00000000
01010000
00000000
10000000
01000000
10000000
00000000
,
00100000
01000000
00010000
01000000
00100000
10000000
01000000
00000000
,
00100000
00001000
00010000
00001000
00100000
00001000
00000100
00000000
,
00000010
00001000
00000100
00001000
00000001
00000010
00000100
00000000
,
00010000
00001000
00000100
00001000
00010000
01000000
00010000
00000000
,
00011000
00000000
00001000
00100000
00000000
00100000
00000000
20200000
,
00000000
30300000
00000000
01000000
00010000
01000000
00100000
00000000
,
10000000
01000000
10000000
00100000
01000000
00010000
01000000
00000000
,
00110000
00000000
00100000
00001000
00010000
00001000
00100000
00000000
,
00001000
00010000
00001000
00000000
00000010
00000001
00001000
00000100
,
00000000
00001000
00000010
00001000
00000000
00000001
00000010
00000100
,
00001000
00000010
00010000
00000000
00001000
00100000
00010000
00000000
,
10000000
01000000
00100000
00010000
00100000
01000000
10000000
00000000
,
00010000
00100000
00001000
00010000
00000000
00001000
00000000
00011000
,
00000000
00010000
00000010
00001000
00000001
00000100
00000010
00000000
,
00001000
00000100
00010000
00000100
00001000
00000010
00001000
00000000
,
00000100
00010000
00001000
00100000
00010000
10000000
00010000
00000000
,
10000000
00100000
10000000
00100000
01000000
00010000
01000000
00010000
,
00100000
00001000
00100000
00001000
00010000
00000100
00010000
00000100
,
00000010
00000001
00001000
00000100
00001000
00000010
00000100
00000000
,
00000010
00010000
00001000
00010000
01000000
00100000
01000000
00000000
,
10010000
00000000
00000000
00000000
;

//---------------dance-double - ----------------
#NOTES:
     dance-double:
     :
     Hard:
     16:
     0.803037,0.875564,0.569241,0.398469,0.106733,790.000000,710.000000,80.000000,56.000000,0.000000,0.000000,0.803037,0.875564,0.569241,0.398469,0.106733,790.000000,710.000000,80.000000,56.000000,0.000000,0.000000:
00000000
00000000
00000000
00000000
,
00000000
00000000
00000000
00000000
,
00000000
00000000
00000000
00000000
,
00000000
00000000
00000000
00000000
,
00000000
00000000
00000000
00000000
,
00000000
00000000
00000000
00000000
,
00010000
00001000
00022000
00033000
,
00100000
00010000
01000000
00100000
10000000
00010000
10000000
00010000
,
00100000
00001000
00010000
00000010
00000100
00001000
00000100
00000001
,
00000010
00000001
00000010
00000000
00000100
00001000
00000100
00000000
00010000
00001000
00010000
00000000
00001000
00000000
01000000
00000000
,
00000000
00100000
10000000
00010000
01000000
00001000
00011000
00000000
,
00100000
00001000
00100000
00010000
10000000
01000000
00010000
01000000
,
10000000
00010000
00100000
00001000
00010000
00000010
00000100
00000010
,
00010000
00000100
00001000
00000001
00000010
00001000
00000010
00000001
,
00000100
00000010
00000110
00000000
00001000
00000001
00000010
00000001
,
00001000
00000100
00000100
00000100
00010000
00001000
00100000
00010000
,
10000000
01000000
01000000
01000000
10000000
00010000
00100000
00010000
,
10000000
00000000
00100000
01000000
00100000
00000000
10000000
00000000
00010000
00000000
00100000
00000000
00001000
00000000
00010000
00000000
,
00000010
00001000
00000100
00001000
00000001
00000010
00000001
00000000
,
00000022
00000033
00002200
00003300
00000220
00000330
00020200
00030300
,
00022000
00033000
00202000
00303000
02200000
03300000
20020000
30030000
,
01000000
00000000
00100000
00000000
10000000
00000000
00010000
00000000
00100000
00010000
00100000
00000000
00001000
01000000
00001000
00000000
,
00010000
00000010
00001000
00000001
00000010
00000100
00001100
00000000
,
00011000
00000000
00001000
00100000
10000000
00100000
00010000
01000000
,
00100000
10000000
00100000
01000000
00001000
00010000
00000100
00000010
,
00000100
00001000
00000001
00001000
00000010
00000100
00000001
00000010
,
00000001
00001000
00000100
00010000
00001000
00010000
00011000
00000000
,
00101000
00000000
00100000
00010000
10000000
01000000
00100000
01000000
,
10000000
00100000
01000000
00001000
00010000
00100000
00010000
00000000
,
00001000
00010000
00010000
00010000
00000010
00000100
00000001
00000010
,
00000001
00000010
00001000
00000001
00000100
00001000
00001001
00000000
,
00000110
00000000
00000010
00010000
00001000
00010000
00100000
00010000
,
00001000
01000000
10000000
01000000
00100000
10000000
00010000
00100000
,
00001000
00000000
00011000
00010000
00000010
00000100
00000001
00000010
,
00000100
00001000
00000010
00010000
00001000
00100000
00110000
00000000
,
00010000
10000000
11000000
00000000
01000000
00100000
00110000
00000000
,
00001000
00010000
00011000
00000000
00000100
00000010
00000110
00000000
,
00000001
00000000
00000010
00000001
00000010
00000000
00000001
00000000
00001000
00000000
00000100
00001000
00000100
00000000
00010000
00000000
,
00001000
00000000
00100000
00000000
00010000
00000000
10000000
00000000
01000000
10000000
01000000
00000000
10000000
00000000
00010000
00000000
,
00120000
00000000
00000000
00100000
00000000
00000000
00100000
00000000
,
10000000
00000000
00000000
10000000
00000000
10000000
10030000
00000000
,
00002000
00000000
00000000
00000100
00000000
00000000
00000100
00000000
,
00010000
00000000
00000000
00010000
00000000
00013000
00000000
00000000
,
00010010
00000000
00000010
00000100
00000000
00000100
00000000
00000101
,
00000000
00001001
00000000
00000010
00010000
00001000
00010000
00000100
,
00001000
00000100
00001000
00000100
00000010
00000001
00000010
00000001
,
00001000
00000100
00010000
00001000
00100000
00010000
10000000
00100000
,
01000000
00000000
01100000
00100000
00000000
10000000
00100000
00010000
,
00000000
00000000
00010000
00000000
00001000
00010000
00001000
00010000
00001000
00000000
00010000
00000000
00000010
00000000
00000100
00000000
,
00000001
00000000
00000010
00000000
00000100
00000000
00000010
00000000
00000001
00000000
00001000
00000000
00000100
00000000
00010000
00001000
,
00010000
00001000
01000000
00010000
10000000
00100000
10100000
00000000
,
01010000
00000000
00010000
00100000
00000000
00101000
00000000
00011000
,
00000000
00001000
00100000
00010000
10000000
01000000
00100000
01000000
,
10000000
00000000
00010000
00000000
01000000
00000000
00001000
00010000
00001000
00000000
00100000
00000000
00001000
00000000
00010000
00000000
,
00000000
00010100
00000000
00000100
00001000
00000001
00000010
00000001
,
00001000
00000000
00001000
00000010
00000000
00000110
00000000
00001001
,
00000000
00000001
00001000
00000100
00100000
00010000
00001000
00010000
,
00100000
00000000
00010000
00000000
10000000
00000000
01000000
10000000
01000000
00000000
00100000
00000000
01000000
00000000
10000000
00000000
,
00000000
00000000
10010000
00000000
00000000
00000000
01000000
00010000
01000000
00000000
00001000
00000000
00010000
00000000
00000000
00000000
,
00011000
00000000
00001000
00010000
00000000
00010010
00000000
00001002
,
00000000
00000000
00000103
00000000
00000000
00000000
00000010
00001000
00000010
00000000
00000100
00000000
00000001
00000000
00000010
00000000
,
00000100
00010000
00001000
01000000
00100000
10000000
01000000
00100000
,
00010000
00000000
01000000
00000000
00010000
00000000
00100000
00001000
00100000
00000000
00001000
00000000
00010000
00000000
00000000
00000000
,
01010000
00000000
00011000
00001000
00010000
00000010
00000100
00000001
,
00000000
00000001
00001000
00000100
00000000
00001000
00000010
00000100
,
00000001
00000000
00000010
00000000
00001000
00000000
00000010
00000000
00000001
00000000
00001000
00000000
00000100
00000000
00001000
00000100
,
00010000
00001000
00100000
00010000
10000000
01000000
01100000
00000000
,
20020000
30030000
02200000
03300000
00220000
00330000
22000000
33000000
,
02002000
03003000
00022000
00033000
00020020
00030030
00002002
00003003
,
00000022
00000033
00002200
00003300
00002002
00003003
00020020
00030030
,
00020200
00030300
00202000
00303000
02002000
03003000
20020000
30030000
,
01000000
00100000
10000000
00010000
00100000
00001000
00010000
00000010
,
00000100
00001000
00000100
00000001
00000010
00000001
00001001
00000000
,
00000001
00000010
00000001
00000000
00001000
00000100
00001000
00000000
00000100
00000000
00010000
00000000
00001000
00000000
01000000
00000000
,
02100000
00000000
00100000
00100000
03100000
00000000
10100000
00000000
,
10010000
00000000
00100000
01000000
00001000
01000000
00010000
10000000
,
00010000
00100000
00000100
00001000
00000100
00000010
00000001
00000001
,
00001000
00000100
00010000
01000000
00010000
00001000
00000100
00001000
,
00010000
00100000
01000000
10000000
01000000
00100000
00100000
00000000
,
10010000
00000000
01000000
00001000
00010000
00001000
00100000
00000100
,
00001000
00000010
00000001
00000010
00001000
00000100
00000100
00000100
,
00001000
00000001
00000010
00000001
00010000
00001000
00010000
00000100
,
00001000
00100000
01000000
00100000
10000000
01000000
01000000
00000000
,
10000000
00010000
00110000
00000000
01000000
00001000
01001000
00000000
,
00010000
00000010
00010010
00000000
00000001
00000100
00000101
00000000
,
00001000
00000010
00010010
00000000
00001000
00100000
00110000
00000000
,
10000000
01000000
01100000
00000000
10000000
00010000
10010000
00000000
,
01000000
00001000
01000000
00001000
00100000
00010000
00100000
00010000
,
10000000
01000000
00100000
00010000
01000000
00001000
00010000
00000000
,
00000010
00000100
00000010
00001000
00000001
00000010
00001000
00000010
,
00000001
00000010
00000001
00000000
00001000
00000000
00000100
00000000
00010000
00000000
00001000
00000000
00011000
00000000
00000000
00000000
,
00101000
00000000
00100000
01000000
00000000
11000000
00000000
02010000
,
00000000
00000000
03100000
00000000
00000000
00000000
10000000
00100000
01000000
00000000
00010000
00000000
00100000
00000000
00001000
00000000
,
00010000
00000010
00000100
00000001
00000010
00000100
00010000
00001000
,
02000000
00100000
00100000
03100000
10000000
00010000
00100000
00010000
,
10000000
10000000
10100000
00000000
01000000
00001000
00010000
00001000
,
00000000
00000000
00001000
00000000
00000010
00000000
00001000
00000000
00000000
00000000
00000010
00000000
00000001
00000000
00000100
00000010
,
00000100
00000001
00001000
00000100
00010000
01000000
00100000
00001000
,
10000000
00100000
01000000
00001000
00010000
01000000
00010000
00000000
,
00011000
00000000
00001000
00100000
00000000
11000000
00000000
01010000
,
00000000
00000000
00010000
00000000
00100000
00000000
00001000
00010000
00001000
00000000
00010000
00000000
00000010
00000000
00000100
00000000
,
00000001
00000000
00001000
00000000
00000100
00000000
00010000
00000000
00001000
00000000
00100000
00000000
01000000
00000000
10000000
01000000
,
10000000
00010000
00100000
00001000
00010000
00000010
00001000
00000000
,
00000100
00010000
00000100
00010000
00001000
00100000
00001000
00100000
,
01000000
10000000
00010000
00100000
00000100
00001000
00000001
00000010
,
00000001
00000010
00000001
00000000
00001000
00000100
00001000
00000000
00000100
00010000
00000100
00000000
00100000
00001000
00100000
00000000
,
00010000
00000000
10000000
00000000
00100000
00000000
01000000
00000000
00100000
10000000
00010000
00000000
00100000
00000000
00001000
00000000
,
00011000
00000000
00000000
00000000
;

//---------------dance-single - ----------------
#NOTES:
     dance-single:
     :
     Challenge:
     18:
     0.955512,1.065904,0.946363,0.370007,0.373564,940.000000,807.000000,133.000000,52.000000,0.000000,0.000000,0.955512,1.065904,0.946363,0.370007,0.373564,940.000000,807.000000,133.000000,52.000000,0.000000,0.000000:
// measure 0
0000
0000
0000
0000
,  // measure 1
0000
0000
0000
0000
,  // measure 2
0000
0000
0000
0000
,  // measure 3
0000
0000
0000
0000
,  // measure 4
0000
0000
0000
0000
,  // measure 5
0000
0000
0000
0000
,  // measure 6
0010
0100
1001
0000
0110
0000
1001
0000
,  // measure 7
0011
0001
0001
0001
0101
0100
0100
0100
,  // measure 8
0110
0010
0010
0010
1010
1000
1000
1000
,  // measure 9
0001
0000
0100
0000
0010
0000
1000
0000
0001
1000
0100
0010
0001
1000
0100
0010
,  // measure 10
0000
0001
0100
1000
0001
0010
0110
0000
,  // measure 11
1000
0000
0001
0000
0010
0000
0001
0000
1000
0010
0100
0000
0001
0000
0010
0000
,  // measure 12
0100
0000
1000
0000
0100
0000
0001
0000
0100
1000
0010
0000
0100
0000
0001
0000
,  // measure 13
0010
0000
1000
0000
0010
0000
0001
0000
0010
0001
1000
0000
0010
0000
0100
0000
,  // measure 14
0001
0010
1001
0000
0100
0010
0100
0100
,  // measure 15
0001
0000
0010
0000
0010
0000
0010
0000
0100
0010
0001
0000
1000
0000
0010
0000
,  // measure 16
0100
0000
0001
0000
0001
0000
0001
0000
1000
0001
0010
0000
0100
0000
1000
0000
,  // measure 17
0010
0000
0100
0001
0100
0000
0010
0000
1000
0010
0100
0000
0001
0010
0001
0010
,  // measure 18
0100
0000
1001
0000
0100
0010
0110
0000
,  // measure 19
0101
0001
0011
0010
0110
0100
1100
1000
,  // measure 20
1010
0010
0110
0100
0101
0001
1001
0000
,  // measure 21
0110
0000
0010
0000
0110
0000
0100
0000
0001
1000
0001
0000
0100
0010
0100
0000
,  // measure 22
0001
0010
0100
1000
0001
0010
0100
1000
0010
0000
0100
0000
2002
0000
3003
0000
,  // measure 23
0110
0000
0000
0000
1000
0000
0100
0000
0010
0100
1000
0000
0010
0000
0100
0000
,  // measure 24
0001
0000
0100
0000
0010
0000
0100
0000
0001
1000
0010
0000
0100
0000
0001
0000
,  // measure 25
0010
0001
1001
0000
1010
0000
1100
0100
,  // measure 26
1000
0000
0010
0000
0100
0001
0100
0001
1000
0000
0010
0000
0110
0000
0000
0000
,  // measure 27
0101
0000
0000
0000
0010
0000
0001
0000
1000
0001
0010
0000
0100
0000
1000
0000
,  // measure 28
0010
0000
0100
0000
1000
0000
0100
0000
0001
0010
0100
0000
1000
0000
0020
0000
,  // measure 29
0000
1030
0100
0001
0010
0100
1000
0010
,  // measure 30
0100
0110
0001
1001
0100
0010
1001
0000
,  // measure 31
2200
0000
3300
0000
0001
0000
0011
0000
0010
0000
0100
1000
0010
0000
1000
0000
,  // measure 32
0010
0000
0100
0000
0010
0000
1000
0001
0010
0000
0001
0100
0010
0000
1000
0000
,  // measure 33
1001
0000
0000
0000
0010
0000
0110
0000
0100
0000
0001
1000
0010
0000
1000
0000
,  // measure 34
0001
0000
0010
0100
0010
0000
0001
0000
1000
0000
0010
0000
0110
0000
0000
0000
,  // measure 35
0001
0001
0011
0010
0010
0010
0110
0100
,  // measure 36
0100
0100
1100
1000
1000
1000
1001
0001
,  // measure 37
1000
0000
0010
0100
0010
0100
0010
0100
0001
0000
0010
0100
0010
0100
0010
0100
,  // measure 38
1000
0001
0010
0000
0001
1000
0010
0100
0010
0000
0100
0000
0100
0000
0100
0000
,  // measure 39
0210
0000
0000
1000
0000
0000
0001
0000
,  // measure 40
0001
0000
0000
1000
0000
0010
0010
0010
,  // measure 41
0320
0000
0000
1000
0000
0000
0001
0001
,  // measure 42
0001
0000
0000
1000
0000
0031
0000
0000
,  // measure 43
0110
0000
1000
0001
0000
0101
0000
1100
,  // measure 44
0000
0000
0000
0010
1000
0001
0100
0010
,  // measure 45
1000
1100
0001
0011
0010
0100
1000
0001
,  // measure 46
0100
0000
1000
0000
0010
0000
0001
0000
1000
0001
0100
0000
0010
0000
0100
0000
,  // measure 47
0001
0010
1000
0010
0001
1000
0100
1000
,  // measure 48
0000
0000
0010
0000
1000
0001
0010
0100
1000
0000
0010
0000
0100
0000
0001
0010
,  // measure 49
0001
0000
1000
0000
0010
0000
0100
0010
0100
0000
0001
0000
1000
0000
0100
1000
,  // measure 50
0010
0000
0100
0000
0001
0000
0010
0100
1000
0000
0001
0000
1001
0000
0000
0000
,  // measure 51
0110
0000
0001
0100
0000
0110
0000
1010
,  // measure 52
0000
0100
1000
0010
1000
0100
0010
0001
,  // measure 53
0100
0000
0001
0000
0010
0000
0001
1000
0010
0000
0100
0000
0001
0000
0010
0000
,  // measure 54
0000
0000
0101
0000
0000
0000
0010
1000
0001
0000
0010
0000
0100
0000
1000
0000
,  // measure 55
0010
1000
0010
0100
0000
0101
0000
1100
,  // measure 56
0000
0000
1000
0000
0001
0000
0010
0001
1000
0000
0010
0000
0100
0000
0001
0000
,  // measure 57
1000
0000
0100
0000
0001
0000
0100
1000
0010
0000
0100
0000
0001
0000
0011
0000
,  // measure 58
0000
0000
1100
0000
0000
0000
0010
1000
0001
0000
0010
0000
0110
0000
0000
0000
,  // measure 59
0012
0000
1003
1100
0000
0101
0000
0120
,  // measure 60
0000
0000
1030
0000
0000
0000
0100
1000
0001
0000
0010
0000
0100
0000
0010
0000
,  // measure 61
0001
0101
1000
1100
0010
0110
1000
1100
,  // measure 62
0010
0000
0100
0000
0001
0000
0010
0100
1000
0000
0010
0000
1000
0000
0100
0000
,  // measure 63
0210
0000
1300
0010
0100
0001
0010
0012
,  // measure 64
0000
0000
1003
0000
0100
0000
0120
0000
0000
0000
0130
0000
1000
0000
0001
0100
,  // measure 65
0010
0000
1000
0000
0001
0000
0010
0100
1000
0000
0010
0000
1000
0000
0001
0100
,  // measure 66
0010
0000
0100
0000
0001
0000
1000
0010
0100
0000
0001
0000
1001
0000
0000
0000
,  // measure 67
0022
0033
2200
3300
2020
3030
0202
0303
,  // measure 68
2020
3030
2200
3300
0022
0033
0202
0303
,  // measure 69
0220
0330
2002
3003
0220
0330
0022
0033
,  // measure 70
2200
3300
2020
3030
2200
3300
1002
0000
,  // measure 71
0013
0000
0010
0000
0100
0000
0100
0000
1000
0000
0010
0000
0100
0000
0001
0010
,  // measure 72
0100
0000
1000
0000
0010
0000
0100
0001
0010
0000
0100
0000
0110
0000
0000
0000
,  // measure 73
0010
0001
0010
0001
1000
0100
1000
0100
1000
0010
0100
0001
1000
0010
0100
0001
,  // measure 74
0020
0000
0100
0100
0100
0000
0031
0000
,  // measure 75
1100
0000
0010
0001
1000
0100
0101
0100
,  // measure 76
1000
0010
0110
0010
1000
0001
0011
0001
,  // measure 77
0100
0000
0010
0000
1000
0000
0001
0000
1000
0010
0100
0000
0001
0000
0010
0000
,  // measure 78
0100
0000
1000
0001
0100
0001
1000
0000
0010
0000
0100
0000
0110
0000
0000
0000
,  // measure 79
0011
0000
0100
1000
0001
0010
1010
0010
,  // measure 80
0001
0100
0110
0100
0001
0010
0110
0010
,  // measure 81
0001
0001
0010
0100
0001
0010
0100
1000
,  // measure 82
1000
0100
0010
1000
0100
0010
2002
3003
,  // measure 83
0010
0100
0110
0010
1000
0100
1100
1000
,  // measure 84
0010
0100
0101
0001
0010
0100
1100
1000
,  // measure 85
0001
0000
0011
0001
1000
0010
1010
1000
,  // measure 86
0001
0100
0110
0010
0100
1001
1001
0000
,  // measure 87
1010
0010
1010
0010
1010
0010
1010
0000
,  // measure 88
0101
0100
0101
0100
0101
0100
0101
0000
,  // measure 89
0010
0000
0001
0000
0100
0000
0010
0000
1000
0001
0010
0000
1000
0001
0100
0001
,  // measure 90
1000
0000
0010
0100
0001
0010
0100
1000
0010
0000
0100
0000
2002
3003
0000
0000
,  // measure 91
0011
0000
1000
1010
0000
0101
0000
0012
,  // measure 92
0000
0000
1003
0000
0000
0000
0010
1000
0100
0000
0010
0000
0001
0000
0100
0010
,  // measure 93
1000
0000
0010
0000
1010
0000
1000
0000
0100
0000
0010
0000
0110
0000
0100
1000
,  // measure 94
0020
0000
1000
0000
1000
0000
1030
0100
1000
0000
0100
0000
0001
0000
0100
0000
,  // measure 95
1000
0001
1001
0010
0001
0100
0010
1010
,  // measure 96
0000
0000
1000
0000
0001
0000
0011
0000
0000
0000
0100
0000
0010
0000
1000
0001
,  // measure 97
0010
0000
0100
0000
1000
0000
0010
0100
1000
0000
0100
0000
0010
0000
1000
0100
,  // measure 98
0010
0000
0001
0000
0010
0100
1000
0100
1000
0000
0001
0000
2002
0000
3003
0000
,  // measure 99
0010
0001
0100
0000
0010
0000
1000
0100
0010
0000
0100
0000
1000
0000
0001
0100
,  // measure 100
0010
0000
1000
0000
0001
0000
1000
0001
0010
0000
0100
0000
1000
0000
0010
0100
,  // measure 101
0010
0000
1000
0000
0001
0000
0010
0100
1000
0000
0010
0000
1000
0000
0100
0010
,  // measure 102
0001
0000
1000
0010
0100
0000
0001
0010
0100
0000
1000
0000
1001
0000
0000
0000
,  // measure 103
0011
0010
0110
0100
1100
1000
1010
0010
,  // measure 104
0110
0100
0101
0001
0011
0010
0110
0000
,  // measure 105
0001
0100
0010
1000
0001
0010
0100
1000
0001
0100
0010
1000
0100
0010
0100
1000
,  // measure 106
0001
0000
0000
0001
0010
0000
0100
0000
0010
0001
1000
0001
0010
0000
0100
0000
,  // measure 107
1100
0000
0000
0000
;

//---------------dance-double - ----------------
#NOTES:
     dance-double:
     :
     Challenge:
     18:
     0.940264,1.103972,0.889439,0.377122,0.370007,925.000000,800.000000,125.000000,53.000000,0.000000,0.000000,0.940264,1.103972,0.889439,0.377122,0.370007,925.000000,800.000000,125.000000,53.000000,0.000000,0.000000:
00000000
00000000
00000000
00000000
,
00000000
00000000
00000000
00000000
,
00000000
00000000
00000000
00000000
,
00000000
00000000
00000000
00000000
,
00000000
00000000
00000000
00000000
,
00000000
00000000
00000000
00000000
,
01000000
00001000
00011000
00000000
00010020
00000000
00000130
00000000
,
00000011
00000010
00000010
00000010
00000110
00000100
00000100
00000100
,
00010100
00010000
00010000
00010000
00011000
00001000
00001000
00001000
,
00100000
00000000
00010000
00000000
10000000
00000000
00100000
00000000
01000000
00001000
00010000
00001000
10000000
00100000
01000000
00010000
,
00000000
10000000
00100000
00010000
00001000
00100000
01100000
00000000
,
10000000
00000000
00010000
00000000
00100000
00000000
00001000
00000000
01000000
00010000
00100000
00000000
00001000
00000000
00010000
00000000
,
00000010
00000000
00001000
00000000
00000100
00000000
00010000
00000000
00000010
00001000
00000001
00000000
00000010
00000000
00000100
00000000
,
00010000
00000000
00001000
00000000
01000000
00000000
00010000
00000000
10000000
00010000
00100000
00000000
00001000
00000000
00010000
00000000
,
00000100
00010000
00011000
00000000
00100000
01000000
10000000
10000000
,
00010000
00000000
00100000
00000000
00100000
00000000
00100000
00000000
00001000
00010000
00000100
00000000
00001000
00000000
00000001
00000000
,
00000010
00000000
00000100
00000000
00000100
00000000
00000100
00000000
00010000
00001000
01000000
00000000
00010000
00000000
00100000
00000000
,
00001000
00000000
00010000
00100000
01000000
00000000
00100000
00000000
10000000
01000000
00100000
00000000
01000000
10000000
00010000
10000000
,
01000000
00000000
00101000
00000000
00010000
00001000
00011000
00000000
,
00001100
00001000
00001010
00000010
00000110
00000100
00000101
00000001
,
00000011
00000010
00001010
00001000
00011000
00010000
00011000
00000000
,
00101000
00000000
00100000
00000000
01100000
00000000
01000000
00000000
10000000
00010000
10000000
00000000
00100000
01000000
00100000
00000000
,
10000000
00000000
00010000
00100000
00001000
00010000
00000100
00001000
00000010
00000000
00000100
00000000
00002002
00000000
00003003
00000000
,
00000110
00000000
00000000
00000000
00000001
00000000
00000010
00000000
00000100
00010000
00001000
00000000
00010000
00000000
00000100
00000000
,
00010000
00000000
00000010
00000000
00001000
00000000
00000100
00000000
00010000
00001000
00100000
00000000
00010000
00000000
10000000
00000000
,
10100000
00000000
01000000
00001000
00011000
00000000
00101000
00000000
,
00010100
00000000
00000000
00000000
00001000
00010000
00001000
00010000
00000010
00000000
00000100
00000000
00000110
00000000
00000000
00000000
,
00000101
00000000
00000000
00000000
00000010
00000000
00010000
00000000
00001000
00010000
00000100
00000000
00001000
00000000
00000010
00000000
,
00010000
00000000
00001000
00000000
00100000
00000000
00010000
00000000
10000000
01000000
00100000
00000000
02000000
00000000
00000000
00000000
,
00000000
13000000
01000000
00010000
01000000
10000000
00100000
00010000
,
00001000
00000100
00000001
00000100
00001000
00010000
00011000
00000000
,
00010010
00000000
00000000
00000000
00001000
00000000
00000001
00000000
00000010
00000000
00000001
00001000
00000100
00000000
00010000
00000000
,
00011000
00000000
00000000
00000000
00001000
00000000
00100000
00000000
00010000
00000000
10000000
00010000
00100000
00000000
01000000
00000000
,
11000000
00000000
00000000
00000000
00100000
00000000
00001000
00000000
00010000
00000000
00000100
00001000
00000010
00000000
00010000
00000000
,
00000100
00000000
00010000
00001000
00100000
00001000
00010000
00000000
00000010
00000000
00000100
00000000
00001001
00000000
00000000
00000000
,
00000010
00000010
00001010
00001000
00001000
00001000
01001000
01000000
,
01000000
01000000
11000000
10000000
10000000
10000000
10100000
00100000
,
01000000
00000000
00001000
00010000
00001000
00010000
00001000
00010000
00001000
00000000
00100000
00010000
00100000
00010000
00100000
00010000
,
00100000
00001000
00010000
00000000
00000010
00000100
00000001
00000100
00000010
00000000
00001000
00000000
00001000
00000000
00001000
00000000
,
00012000
00000000
00000000
00000010
00000000
00000000
00000100
00000000
,
00000001
00000000
00000000
00010000
00000000
00000001
00000001
00000001
,
00003002
00000000
00000000
00000010
00000000
00000000
00001000
00001000
,
00001000
00000000
00000000
00010000
00000000
00010003
00000000
00000000
,
00010010
00000000
00001000
00000100
00000000
00100000
00000000
00011000
,
00000000
00000000
00000000
10000000
00010000
00100000
01000000
10000000
,
00100000
01100000
10000000
11000000
00100000
00001000
00010000
00000100
,
00001000
00000000
00000001
00000000
00001000
00000000
00000100
00000000
00010000
00001000
00100000
00000000
00010000
00000000
10000000
00000000
,
10010000
00000000
00100000
01000000
00000000
00000100
00010000
00001000
,
00000000
00000000
00010000
00000000
00000010
00001000
00000100
00010000
00001000
00000000
00010000
00000000
00000010
00000000
00000100
00000001
,
00001000
00000000
00000010
00000000
00000100
00000000
00000001
00000010
00000100
00000000
00010000
00000000
00001000
00000000
00100000
00010000
,
10000000
00000000
00100000
00000000
01000000
00000000
00100000
10000000
01000000
00000000
00100000
00000000
00110000
00000000
00000000
00000000
,
00101000
00000000
00010000
00000010
00000000
00000100
00000000
00000101
,
00000000
00000010
00010000
00000100
00001000
00000010
00010000
00001000
,
00100000
00000000
00010000
00000000
10000000
00000000
00010000
00100000
01000000
00000000
10000000
00000000
00100000
00000000
01000000
00000000
,
00000000
00000000
10010000
00000000
00000000
00000000
00100000
00001000
00010000
00000000
00000010
00000000
00000100
00000000
00000001
00000000
,
00000010
00001000
00010000
00001000
00000000
00101000
00000000
01001000
,
00000000
00000000
00010000
00000000
00100000
00000000
00010000
10000000
00100000
00000000
01000000
00000000
00001000
00000000
00010000
00000000
,
00100000
00000000
01000000
00000000
00010000
00000000
10000000
01000000
00100000
00000000
00001000
00000000
00010000
00000000
00000010
00000000
,
00000000
00000000
00001001
00000000
00000000
00000000
00000010
00010000
00000010
00000000
00000100
00000000
00001000
00000000
00000000
00000000
,
00000201
00000000
00000310
00010010
00000000
00010100
00000000
01002000
,
00000000
00000000
00013000
00000000
00000000
00000000
00000010
00000100
00000001
00000000
00001000
00000000
00000100
00000000
00000010
00000000
,
00000001
00000101
00001000
00001010
00000100
00010100
00100000
00101000
,
00010000
00000000
01000000
00000000
10000000
00000000
00100000
01000000
00001000
00000000
00010000
00000000
00001000
00000000
00100000
00000000
,
00120000
00000000
10030000
00100000
10000000
01000000
00100000
00102000
,
00000000
00000000
00103000
00000000
00001000
00000000
02001000
00000000
00000000
00000000
03100000
00000000
10000000
00000000
00010000
10000000
,
00100000
00000000
10000000
00000000
01000000
00000000
00100000
00001000
00010000
00000000
00000010
00000000
00000100
00000000
00000010
00001000
,
00000100
00000000
00010000
00000000
00000010
00000000
00000100
00000001
00001000
00000000
00000010
00000000
00000110
00000000
00000000
00000000
,
00002002
00003003
00020200
00030300
00002020
00003030
00000022
00000033
,
00002200
00003300
00020200
00030300
00022000
00033000
00202000
00303000
,
20020000
30030000
02200000
03300000
22000000
33000000
02020000
03030000
,
00022000
00033000
20020000
30030000
00022000
00033000
00001002
00000000
,
00000013
00000000
00000010
00000000
00000100
00000000
00000100
00000000
00010000
00000000
00000010
00000000
00000100
00000000
00000001
00000010
,
00000100
00000000
00010000
00000000
00001000
00000000
00100000
00010000
10000000
00000000
00100000
00000000
01100000
00000000
00000000
00000000
,
00010000
00100000
00010000
00100000
01000000
10000000
01000000
10000000
00010000
01000000
00010000
01000000
00001000
00100000
00001000
00100000
,
00020000
00000000
01000000
01000000
01000000
00000000
00031000
00000000
,
00011000
00000000
00000010
00000100
00000001
00000010
00000110
00000010
,
00000001
00001000
00001010
00001000
00000100
00010000
00011000
00010000
,
00001000
00000000
00100000
00000000
01000000
00000000
10000000
00000000
00100000
01000000
10000000
00000000
01000000
00000000
00010000
00000000
,
00100000
00000000
00001000
00010000
00000100
00010000
00001000
00000000
00010000
00000000
00000010
00000000
00000110
00000000
00000000
00000000
,
00001001
00000000
00000010
00010000
00001000
00100000
01100000
00100000
,
00001000
00010000
00010010
00010000
00000100
00000010
00000011
00000010
,
00000001
00000100
00001000
00000100
00000010
00001000
00000100
00010000
,
01000000
10000000
01000000
00010000
00001000
00000100
00000202
00000303
,
00000010
00010000
00011000
00001000
00100000
00010000
10010000
10000000
,
00100000
01000000
01010000
00010000
00100000
00000100
00010100
00000000
,
00001000
00000010
00010010
00010000
00000100
00001000
00001001
00000001
,
00000010
00000100
00001100
00001000
00000010
00011000
00011000
00000000
,
01001000
01000000
01001000
01000000
01001000
01000000
01001000
00000000
,
00010100
00000100
00010100
00000100
00010100
00000100
00010100
00000000
,
00100000
00000000
00001000
00000000
01000000
00000000
00010000
00000000
10000000
00010000
00100000
00000000
01000000
10000000
00010000
10000000
,
00100000
00000000
01000000
00001000
00010000
00001000
01000000
00000000
00000100
00000000
00010000
00000000
00022000
00000000
00033000
00000000
,
00001010
00000000
00000001
00000011
00000000
00001100
00000000
00020100
,
00000000
00000000
00030010
00000000
00000000
00000000
00000010
00000100
00000010
00000000
00010000
00000000
00001000
00000000
00000100
00000000
,
00000001
00000000
00000010
00000000
00000100
00000000
00010000
00001000
00010000
00000000
00100000
00000000
01000000
00000000
00010000
10000000
,
02000000
00000000
00100000
00000000
00100000
00000000
03100000
01000000
10000000
00000000
00010000
00000000
00100000
00000000
01000000
00000000
,
10000000
00010000
10010000
00100000
00001000
01000000
00010000
00210000
,
00000000
00000000
00301000
00000000
00010000
00000000
00001020
00000000
00000000
00000000
00000130
00000000
00000001
00000000
00000010
00000100
,
00010000
00000000
00001000
00000000
00100000
00000000
01000000
10000000
00010000
00000000
00100000
00000000
00001000
00000000
00010000
00000010
,
00001000
00000000
00000001
00000000
00000010
00000100
00001000
00000100
00000010
00000000
00000001
00000000
00002002
00000000
00003003
00000000
,
00000010
00010000
00001000
00000000
00100000
00000000
00010000
00100000
01000000
00000000
10000000
00000000
00100000
00000000
10000000
00010000
,
01000000
00000000
00100000
00000000
01000000
00000000
00001000
00100000
00010000
00000000
00100000
00000000
00001000
00000000
00010000
00000010
,
00001000
00000000
00000001
00000000
00000010
00000000
00000100
00010000
00001000
00000000
01000000
00000000
00010000
00000000
10000000
01000000
,
00100000
00000000
01000000
00100000
00010000
00000000
00100000
00001000
00010000
00000000
00001000
00000000
00101000
00000000
00000000
00000000
,
01100000
01000000
11000000
10000000
10010000
00010000
00110000
00100000
,
00101000
00001000
00011000
00010000
00010010
00000010
00000110
00000000
,
00000001
00000100
00000010
00001000
00000001
00000010
00000100
00001000
00000010
00010000
00001000
00010000
00000100
00100000
00001000
00010000
,
00001000
00000000
00000000
00001000
01000000
00000000
00100000
10000000
01000000
00100000
01000000
10000000
00010000
00000000
00100000
00000000
,
00101000
00000000
00000000
00000000
;
