#TITLE:Rampage☆Rag;
#SUBTITLE:;
#ARTIST:かめりあ;
#TITLETRANSLIT:Rampage Rag;
#SUBTITLETRANSLIT:;
#ARTISTTRANSLIT:Camellia;
#GENRE:;
#CREDIT:;
#BANNER:Rampage_Rag_banner.png;
#BACKGROUND:Rampage_Rag.png;
#LYRICSPATH:;
#CDTITLE:;
#MUSIC:Rampage Rag.ogg;
#OFFSET:-1.050000;
#SAMPLESTART:2.478000;
#SAMPLELENGTH:13.000000;
#LASTBEATHINT:532.000000;
#SELECTABLE:YES;
#BPMS:0.000000=167.000000
,8.000000=334.000000
,216.000000=167.000000
,272.000000=334.000000
,376.000000=167.000000
,416.000000=334.000000
,472.000000=167.000000
,476.000000=334.000000
,492.000000=167.000000
,500.000000=334.000000
,532.000000=167.000000
;
#STOPS:
;
#BGCHANGES:;
#KEYSOUNDS:;
#ATTACKS:;

//---------------dance-single - ----------------
#NOTES:
     dance-single:
     :
     Easy:
     10:
     0.388613,0.601177,0.082184,0.262989,0.012328,331.000000,321.000000,10.000000,32.000000,0.000000,0.000000,0.388613,0.601177,0.082184,0.262989,0.012328,331.000000,321.000000,10.000000,32.000000,0.000000,0.000000:
0000
0000
0000
0000
,
0010
0010
0200
0000
,
0301
0000
1000
0001
,
1000
0000
0010
1000
,
0010
0000
0100
0000
,
0002
0000
0003
0000
,
1000
0000
0010
1000
,
0010
0000
0100
0001
,
0100
0000
0001
0000
,
1000
0000
0010
0000
,
1000
0000
0010
0000
,
0100
0000
0001
0000
,
1000
0000
0000
1000
0000
0000
1000
0000
,
0002
0000
0103
0000
,
0010
0000
1000
0001
,
1000
0000
0010
0100
,
0020
0000
0000
0000
,
0000
0000
0000
0030
0000
0000
0000
0000
,
1000
0000
1000
0000
,
0100
0000
0100
0000
,
0010
0000
0000
0000
0010
0000
0000
0002
,
0000
0000
0003
0000
,
0001
0000
0001
0000
,
0100
0000
0100
0000
,
0010
0000
0000
0000
0010
0000
0000
2000
,
0000
0000
3000
0000
,
0100
0000
1000
0000
,
0001
0000
0010
0000
,
0001
0000
1000
0000
,
0010
0000
0100
0000
,
0220
0000
0000
0000
,
0000
0000
0330
0000
,
2000
0000
0000
0000
,
3002
0000
0000
0000
,
0103
0000
0010
1000
,
0100
0000
0100
0010
,
0001
0000
0001
1000
,
0100
0000
0010
0000
,
0001
0000
0100
0010
,
1000
0000
1000
0001
,
0100
0000
0010
0000
,
2002
0000
3003
0000
,
0001
0000
0100
0001
,
1000
0000
0010
1000
,
0001
0000
0000
0001
0000
0000
0001
0000
,
2000
0000
3100
0000
,
1000
0000
0010
0100
,
0010
0000
0100
0000
,
0001
0000
0010
0000
,
0100
0000
0000
2000
0000
0000
0000
0000
,
0000
0000
0000
0000
,
0000
0000
0000
0000
,
3010
0000
0010
0000
,
0110
0000
0000
0000
,
1001
0000
0000
0000
,
0110
0000
0000
0000
0000
0000
0000
1000
,
0010
0000
0000
0000
,
0011
0000
0000
0000
0000
0000
0000
0000
0000
0000
0001
0000
0000
0100
0000
0000
,
0010
0000
0000
0000
,
1100
0000
0000
0000
0000
0000
0000
0001
,
0010
0000
0000
0000
,
1000
0001
0100
0010
,
1000
0000
0100
0000
1000
0010
1000
0000
,
0001
0000
0100
0000
0001
0010
0001
0000
,
0100
0000
0010
0000
0100
0010
0100
0000
,
0010
1000
0100
0010
,
0001
0000
0100
0000
0001
1000
0010
0000
,
1000
0100
0010
0001
,
0100
0000
0010
1000
,
0010
0000
0100
0001
,
0100
0000
0001
1000
,
0001
0000
0200
0000
,
0310
0000
1000
0010
,
1000
0000
0001
0010
,
0001
0000
0100
0010
,
0100
0000
0001
0000
,
1000
0000
0001
0000
,
0100
0010
0100
0010
,
2000
0000
0000
0000
,
3001
0000
0100
0000
,
0010
1000
0010
1000
,
0001
0000
0100
0000
,
0001
0010
0001
0010
,
0100
0000
1000
0000
,
0001
0000
1000
0010
,
0100
0000
0001
0010
,
0200
0000
1300
0000
,
2000
0000
3001
0000
,
0002
0000
0013
0000
,
0020
0000
0130
0000
,
1002
0000
0000
0000
,
0203
0000
0000
0000
,
0310
0000
0001
0000
,
1000
0000
0100
0000
,
0001
0001
0010
0010
,
0100
0000
0000
0000
0100
0000
0000
2000
0000
0000
0000
0000
3000
0000
0000
0000
,
1000
1000
0010
0010
,
0100
0000
0000
0000
0100
0000
0000
0002
0000
0000
0000
0000
0003
0000
0000
0000
,
0100
0000
0100
0010
0000
0100
0000
0001
,
0001
1000
0001
1000
,
2020
0000
3030
0001
,
0202
0000
0303
0010
,
1000
0100
0010
0001
,
1000
0000
0010
0100
0010
0000
0000
0000
,
0100
0001
0100
0001
,
1000
0010
1000
0010
,
0100
0000
0100
0000
,
0010
0000
0010
0000
,
1000
0100
1000
0100
,
0010
0001
0010
0001
,
1000
0000
0001
0000
,
1000
0000
0001
0000
,
0100
0000
0010
1000
,
0010
0100
0010
0000
,
1000
0000
0000
0001
0000
0000
0010
0000
,
0002
0000
0103
0000
,
0010
1000
0010
1000
,
0001
0100
0001
0100
,
0020
0000
0000
0000
,
1030
0100
1000
0001
,
0100
0001
1000
0010
,
0200
0000
0000
0000
,
0000
0000
0310
0000
,
0001
0001
1000
1000
,
0010
0010
0100
0100
,
0001
0010
0001
0010
,
0100
1000
0100
0000
,
1000
0000
0001
0000
,
0100
0000
0000
0020
0000
0000
0000
0000
,
0000
0000
0000
0000
,
0000
0000
0000
0000
,
0000
0000
0000
0000
,
0000
0000
0000
0000
,
1030
0000
0000
0000
;

//---------------dance-single - ----------------
#NOTES:
     dance-single:
     :
     Medium:
     14:
     0.727917,1.093049,0.328736,0.287644,0.139713,620.000000,580.000000,40.000000,35.000000,0.000000,0.000000,0.727917,1.093049,0.328736,0.287644,0.139713,620.000000,580.000000,40.000000,35.000000,0.000000,0.000000:
0000
0000
0000
0000
,
1001
1001
0220
0330
,
1000
0000
0010
0000
0100
0010
0000
0010
,
0100
0001
0010
0001
,
1000
0000
0010
0100
0000
0010
0100
0000
,
0001
1000
1001
0000
,
0100
0000
0001
0000
0010
0001
0000
0001
,
1000
0010
0100
0010
,
1000
0000
0100
0010
0000
0100
0010
0000
,
0001
1000
0020
0000
,
0130
0000
0001
0000
1000
0010
0000
0010
,
0100
0001
0010
0001
,
0100
0000
0010
0100
0000
0010
0100
0000
,
0001
0010
0200
0000
,
1300
0000
0001
0000
0010
0100
0000
0100
,
1000
0010
0100
0001
,
2002
0000
0000
0000
,
3003
0000
0000
1010
0000
0000
0000
0000
,
0001
0000
0010
0000
0001
0100
0000
0010
,
1000
0000
0100
1000
0000
0010
0100
0000
,
0001
1000
0000
0000
0010
0000
0000
0220
,
0000
0000
0330
0000
,
1000
0000
0010
0000
1000
0100
0000
0010
,
0001
0000
0100
0010
0000
1000
0100
0000
,
0010
0100
0000
0000
1000
0000
0000
2002
,
0000
0000
3003
0000
,
0110
0000
0100
0001
,
0000
1001
0000
0010
,
1000
0100
1000
0010
,
0100
0001
1001
0000
,
0100
0000
0010
0000
1000
0001
1000
0001
,
1000
0010
0110
0000
,
1000
0000
0001
0000
0010
0000
0001
0100
,
0010
1000
0020
0000
,
0130
0000
0001
0000
0010
0100
0000
0100
,
1000
0010
0001
0010
,
0100
0000
0001
1000
0000
0001
1000
0000
,
0010
0100
0110
0000
,
0001
0000
1000
0000
0010
0100
0000
0100
,
0001
1000
0100
0010
,
0001
0000
1000
0010
0000
0010
0100
0000
,
0001
0010
0100
1000
,
0010
0000
0100
0000
0001
1000
0000
1000
,
0010
0100
0001
0010
,
0001
0000
1000
0010
0000
0100
0001
0000
,
2000
0100
3100
0000
,
0010
0000
0100
0000
0010
0001
0000
0001
,
0100
0010
1000
0001
,
1000
0000
0010
0100
0010
0100
0010
0000
,
0100
0000
0000
2002
0000
0000
0000
0000
,
0000
0000
0000
0000
,
0000
0000
3003
0000
,
0010
0000
0110
0000
,
1001
0000
0110
0000
,
1000
0000
0010
0000
0100
0010
0000
0010
0100
0000
0001
0000
0010
0000
0001
0000
,
1000
0000
0010
0000
0100
0001
0000
0001
1000
0000
0010
0000
0100
0000
0001
0000
,
0010
0000
0001
0000
0100
0010
0000
0010
0100
0000
0001
0000
1000
0000
0010
0000
,
0100
0000
0001
0000
0010
0001
0000
0001
1000
0000
1010
0000
0000
0101
0000
0000
,
0010
0000
1000
0000
0010
0100
0000
0100
0001
0000
1000
0000
0010
0000
0100
0000
,
0001
0000
0010
0000
0100
1000
0000
1000
0010
0000
0100
0000
0001
0000
0010
0000
,
0002
0000
1003
0010
0100
0010
1000
0001
,
0010
0001
0010
0001
1000
0100
1000
0100
,
1000
0000
0010
0000
1000
0001
0000
0001
1000
0000
0010
0100
0000
0000
0000
0000
,
0001
0000
0010
0000
0001
1000
0000
1000
0010
0000
0100
0010
0000
0000
0000
0000
,
1000
0000
0001
0000
0010
0100
0000
0100
0010
0000
0001
0000
0100
0000
0000
0000
,
0010
0000
1000
0000
0010
0100
0000
0010
1000
0000
0001
0000
0010
0000
0001
0000
,
0100
0010
0100
0001
1000
0010
0100
0001
,
2000
0010
0000
0010
0000
0010
0000
0000
3020
0000
0000
0000
0130
0000
0000
0000
,
0001
1000
0001
0010
,
0100
1000
0010
0100
,
0001
0000
1000
0000
0010
0100
0000
0100
,
0001
1000
0010
1000
,
0001
0000
0010
0001
0000
0001
0100
0000
,
0010
1000
0100
1000
,
0010
0000
0100
0010
0000
0010
1000
0000
,
0100
1000
0001
0010
,
0001
0000
0100
0000
0010
0100
0010
0000
,
1000
0001
0000
1000
0001
0000
0100
0000
,
0020
0000
0000
0000
,
0130
0000
1001
0000
,
0010
0000
0100
0010
0000
0010
1000
0000
,
0001
0100
0010
1000
,
0100
0000
0001
0100
0000
0100
1000
0000
,
0010
0100
0001
0010
,
0001
0100
1000
0100
,
0010
0100
0000
0100
0000
0010
0000
0010
,
2000
0000
3001
0010
,
0002
0000
0000
0000
0103
0000
0010
0100
,
0010
1000
0010
0100
,
0001
0010
0001
0000
,
1020
0000
0000
0000
0130
0000
0010
0100
,
0002
0000
0000
0000
1003
0000
0010
1000
,
0010
0100
0001
0010
,
0200
0000
1300
0000
,
0010
0000
0100
0000
0000
0110
0000
0000
1001
0000
0000
1010
0000
0000
0101
0000
,
0000
0010
0000
0000
1001
0000
0000
0220
0000
0000
0000
0000
0330
0000
0000
0000
,
1000
0000
1010
0000
0000
0011
0000
0000
0101
0000
0000
1100
0000
0000
1001
0000
,
0000
0100
0000
0000
1010
0000
0000
0202
0000
0000
0000
0000
0303
0000
0000
0000
,
0010
0000
0100
0001
0000
1001
0000
1010
,
1000
0010
0100
0010
0001
0010
0000
0000
,
1100
1000
0010
0100
0001
0010
0001
0100
,
0010
1000
0100
1000
0001
0100
0010
0100
,
0001
0010
0100
1000
0010
0100
1000
0001
,
0020
0000
0000
0100
0100
0000
0130
0000
,
1000
0000
0010
0000
0100
0001
0000
0001
,
0010
0001
1000
0010
,
0100
0000
0001
1000
0000
1000
0000
0010
,
0000
0010
0000
0010
0200
0000
0000
0000
,
0310
0000
1000
0000
0001
0010
0000
0010
,
0100
1000
0000
1000
0001
0000
0100
0000
,
0010
0000
1000
0001
0000
0100
0010
0000
,
0100
0010
1000
0001
,
1000
0000
0010
0000
0100
0010
0000
0010
,
1000
0100
0000
0100
1000
0000
0001
0000
,
0010
0000
0001
1000
0000
0001
0010
0000
,
0001
0010
0200
0000
,
1300
0000
0010
0000
0100
0001
0000
0001
,
1000
0010
0000
0010
0100
0000
0001
0000
,
2002
0000
0000
3003
,
0100
0000
0010
0000
0100
0010
0000
1000
,
0001
0010
0100
1000
,
0020
0000
0100
0100
,
0100
0100
0130
0000
,
2000
0000
3010
0100
0001
0010
0100
1000
,
0001
1001
0100
0110
,
0001
0000
0010
0000
0100
1000
0000
1000
,
0010
0100
0000
0100
0001
0000
0010
0000
,
0001
0000
1000
0000
0010
0100
0000
0100
,
0010
0000
0100
0002
0000
0000
0000
0000
,
0000
0000
0000
0000
,
0000
0000
0000
0000
,
0000
0000
0000
0000
,
0000
0000
0000
0000
,
1003
0000
0000
0000
;

//---------------dance-single - ----------------
#NOTES:
     dance-single:
     :
     Hard:
     19:
     1.140011,1.912835,0.542415,0.238334,0.488996,971.000000,905.000000,66.000000,29.000000,0.000000,0.000000,1.140011,1.912835,0.542415,0.238334,0.488996,971.000000,905.000000,66.000000,29.000000,0.000000,0.000000:
// measure 0
0000
0000
0000
0000
,  // measure 1
0110
0000
0000
0000
1001
0000
0000
0000
0100
0000
0010
0000
0100
0001
1000
0000
,  // measure 2
0011
0000
1000
0000
0010
0100
0000
0100
,  // measure 3
0010
1000
0000
1000
0001
0010
0100
1000
,  // measure 4
0001
0000
1000
0010
0000
0010
0100
0000
,  // measure 5
0101
1010
2002
3003
,  // measure 6
0100
0000
0010
0000
1000
0001
0000
0001
,  // measure 7
0100
0010
0000
0010
1000
0100
0010
0001
,  // measure 8
0100
0000
0010
1000
0000
1000
0010
0100
,  // measure 9
0001
0100
0010
1000
0100
1000
0001
0000
,  // measure 10
0100
0000
0010
0000
1000
0001
0000
0001
,  // measure 11
0100
0001
1000
0100
1000
0010
0100
0001
,  // measure 12
0010
0000
0100
0010
0000
0010
0100
0010
,  // measure 13
0100
0010
0220
0330
,  // measure 14
1000
0000
0001
0100
0010
0100
0001
1000
,  // measure 15
0010
1000
0100
1000
0001
0010
0001
0000
,  // measure 16
1000
0000
0001
0100
0010
0100
0010
0100
,  // measure 17
0010
0100
0002
2000
0000
0000
3003
0000
,  // measure 18
1000
0100
1000
0001
0100
0001
1000
0100
,  // measure 19
1000
0001
0100
0001
1000
0010
1000
0001
,  // measure 20
0010
0001
1000
0010
1000
0010
0000
0110
,  // measure 21
0000
0100
0010
0100
0010
0100
0010
0000
,  // measure 22
1000
0010
1000
0001
0010
0001
1000
0010
,  // measure 23
1000
0001
0010
0001
1000
0100
1000
0001
,  // measure 24
0100
0001
1000
0100
1000
0010
0000
0110
,  // measure 25
0000
1000
0001
1000
0001
1000
0001
0000
,  // measure 26
1000
0010
0001
0010
,  // measure 27
0100
0010
1000
0100
,  // measure 28
0001
1100
1000
0101
,  // measure 29
0001
0011
1010
0000
,  // measure 30
1001
0000
0100
0010
1000
0001
0010
0100
,  // measure 31
1000
0100
0010
0001
1000
0010
0100
0001
,  // measure 32
0200
0000
0010
0000
0010
0000
0310
1000
,  // measure 33
0002
1003
1001
0000
,  // measure 34
0011
0000
1000
0000
0001
0100
0000
0010
,  // measure 35
1000
0100
1000
0001
0010
0100
1000
0010
,  // measure 36
0100
0000
0001
1000
0000
0010
0100
0010
,  // measure 37
1000
0000
0100
0010
0001
0010
0100
0000
,  // measure 38
1000
0000
0001
0000
0100
0010
0000
1000
,  // measure 39
0010
1000
0001
0000
0100
0000
0001
0000
,  // measure 40
1000
0000
0010
0100
0001
0100
0010
1000
,  // measure 41
0001
0000
1000
0010
0100
0010
1000
0000
,  // measure 42
0001
1000
0100
0000
1000
0010
0100
0010
,  // measure 43
0001
0010
0100
0010
1000
0000
1001
0000
,  // measure 44
0001
0000
1000
0100
0000
0100
1000
0010
,  // measure 45
0100
0010
0100
0010
0200
0000
0000
0000
,  // measure 46
0301
0010
0100
1000
0010
0100
0001
1000
,  // measure 47
0010
1010
0101
1000
,  // measure 48
0010
0000
1000
0100
0010
0001
0010
0100
,  // measure 49
1000
0001
1000
2002
0000
0000
0000
0000
,  // measure 50
0000
0000
0000
0000
,  // measure 51
0000
0000
3003
0000
,  // measure 52
0110
0000
0110
0000
,  // measure 53
0001
0010
0001
1000
0010
0100
0010
0000
,  // measure 54
1010
0000
0100
0000
0001
0010
0001
1000
0000
0010
0100
0000
0010
0000
1000
0000
,  // measure 55
0101
0000
0001
0000
1000
0010
1000
0001
0100
0010
1000
0000
0100
0000
0010
0000
,  // measure 56
0110
0000
0100
0000
1000
0001
1000
0001
0100
0010
0000
0010
0100
0001
1000
0001
,  // measure 57
0100
0000
0010
0000
1000
0100
0010
0001
0010
0000
0011
0000
0000
1100
0000
0000
,  // measure 58
0110
0000
0010
0000
1000
0001
0100
0001
1000
0010
0100
0000
0010
0000
0100
0000
,  // measure 59
0101
0000
0010
0000
1000
0100
0010
0100
1000
0001
0100
0010
0100
0000
0010
0000
,  // measure 60
1010
0000
1000
0001
0010
0000
0001
1000
0100
0000
1000
0010
0100
0000
0001
0010
,  // measure 61
0001
0101
1000
1100
0010
0100
0110
0000
,  // measure 62
0001
0010
0001
1000
0001
0100
0001
1000
0001
0010
0001
0010
0000
0000
0110
0000
,  // measure 63
1000
0010
1000
0001
1000
0100
1000
0001
1000
0010
1000
0010
0000
0000
0110
0000
,  // measure 64
0100
0001
0100
1000
0100
0001
0100
1000
0100
0010
0100
0010
0100
0000
0001
0000
,  // measure 65
1000
0000
0100
0000
1000
0000
0100
0000
1000
0000
0100
0000
0010
0000
0001
0000
0010
0000
0001
0000
0010
0000
0001
0000
1000
0000
0000
0010
0000
0000
0100
0000
0000
0001
0000
0000
1000
0000
0000
0010
0000
0000
0100
0000
0000
0000
0000
0000
,  // measure 66
0001
0000
0010
0001
0010
0100
1000
0100
1000
0000
0001
0000
0100
0000
0010
0000
,  // measure 67
2000
0010
0000
0010
0000
0010
0000
0010
3100
0000
0001
0000
1001
0000
0000
0000
,  // measure 68
0010
1000
0010
1000
0001
0100
0001
0100
,  // measure 69
0010
0100
0001
0100
0010
1000
0100
1000
,  // measure 70
0001
0000
1000
0000
0010
0100
0010
1000
,  // measure 71
0001
1000
0010
1000
,  // measure 72
0100
0000
0010
0001
0000
1000
0100
0000
,  // measure 73
1000
0010
0100
0000
0001
0000
0010
0000
,  // measure 74
0001
0000
1000
0100
0000
1000
0010
0100
,  // measure 75
0001
0010
0000
0100
0010
1000
0010
0001
,  // measure 76
0010
0000
0001
0000
1000
0010
0100
0000
,  // measure 77
0010
1000
0000
0001
0100
0010
0100
0010
,  // measure 78
1000
0001
0000
0001
1000
0010
0000
0010
,  // measure 79
0100
0001
1000
0010
0200
0000
0000
0000
,  // measure 80
0301
0010
0001
1000
0000
0010
1000
0010
,  // measure 81
0100
0001
1000
0010
1000
0100
1000
0000
,  // measure 82
0010
1000
0010
0100
0000
0001
1000
0100
,  // measure 83
1000
0100
0001
0100
1000
0100
0010
0000
,  // measure 84
0001
0101
1001
1100
,  // measure 85
0010
0100
0000
0100
0010
0001
0100
0010
,  // measure 86
2000
0000
0010
0000
3001
0000
0100
0010
,  // measure 87
0200
0000
0001
0000
0310
0000
1000
0100
,  // measure 88
0010
0110
0100
1000
,  // measure 89
1002
0000
0010
0000
1003
0000
0010
0100
,  // measure 90
0020
0000
1000
0000
0130
0000
0001
1000
,  // measure 91
0002
0000
0100
0000
1003
0000
0010
1000
,  // measure 92
0100
1100
0101
1100
,  // measure 93
0220
0000
0330
0000
,  // measure 94
0001
0010
0001
1000
0010
1000
0001
0010
0001
1000
0010
1000
0001
0100
0001
1000
,  // measure 95
0100
1000
0001
0100
0001
0000
0000
0110
0000
0000
0010
0100
0010
0100
0010
0000
,  // measure 96
1000
0100
1000
0001
0100
0001
1000
0010
1000
0001
0010
0001
0100
0010
0100
1000
,  // measure 97
0001
1000
0001
0100
0010
0000
0000
0110
0000
0000
1000
0001
1000
0001
1000
0000
,  // measure 98
0001
0010
0000
0000
0100
1000
0010
0000
0100
0000
0101
0000
0001
0000
1001
0000
,  // measure 99
1000
1010
0010
0110
0100
0001
0011
0000
,  // measure 100
1010
0000
0001
0100
0010
1000
0001
0100
0010
1000
0100
1000
0100
0010
0001
1000
,  // measure 101
0010
0100
0001
0100
0010
1000
0100
0010
0100
1000
0001
0100
0010
0100
0001
1000
,  // measure 102
0010
0100
1000
0100
0010
0100
1000
0100
0010
0100
0001
0100
0010
0100
0001
0100
,  // measure 103
0002
0000
1000
0000
1000
0000
1003
0010
0100
0000
0010
0000
0110
0000
0000
0000
,  // measure 104
0001
1000
0010
0100
0010
1000
0100
1000
,  // measure 105
0100
0001
0100
0010
0001
0100
0010
1000
,  // measure 106
0010
0100
0010
0000
1000
0000
0001
0000
0100
0000
0010
0000
1000
0000
0001
0000
,  // measure 107
0010
0011
1010
0011
,  // measure 108
1000
0100
0001
0100
0010
0001
1000
0010
,  // measure 109
0100
1000
0100
0010
0001
0010
0100
0010
,  // measure 110
1000
0001
1000
0000
0010
0000
0100
0000
0001
0000
0010
0000
0100
0000
1000
0000
,  // measure 111
0010
0100
0001
0100
0020
0000
0000
0000
,  // measure 112
1030
0001
1000
0010
0100
0000
0001
1000
,  // measure 113
0100
0010
0100
0001
0100
1000
0001
0010
,  // measure 114
0001
0000
1000
1100
0000
0001
0011
0000
,  // measure 115
0100
0010
0220
0330
,  // measure 116
0001
1000
0001
1000
0010
0100
0010
0100
,  // measure 117
0001
1000
0100
0010
1000
0001
0100
0010
,  // measure 118
0200
0001
0001
0000
0010
0000
1300
0000
,  // measure 119
1000
0001
0100
0010
1000
0010
0100
1000
,  // measure 120
0100
0001
0100
0010
1000
0010
0001
0010
,  // measure 121
0200
0001
0001
0010
,  // measure 122
0320
1000
1000
1030
,  // measure 123
0100
0000
0001
0000
1000
0000
0010
1000
0100
0000
1000
0000
0001
0000
0010
0000
,  // measure 124
0101
0010
1100
0010
0101
0010
1100
0000
,  // measure 125
0001
0100
0010
0100
0001
1000
0100
0001
,  // measure 126
0100
1000
0010
0001
0010
1000
0100
0010
,  // measure 127
0100
1000
0001
1000
0010
0100
0001
0010
,  // measure 128
0001
1000
0001
0000
0100
0000
0220
0000
0000
0000
0000
0000
0000
0000
0000
0000
,  // measure 129
0000
0000
0000
0000
,  // measure 130
0000
0000
0000
0000
,  // measure 131
0000
0000
0000
0000
,  // measure 132
0000
0000
0000
0330
,  // measure 133
1001
0000
0000
0000
;
